<?xml version="1.0" standalone="no"?>
<!DOCTYPE svg PUBLIC "-//W3C//DTD SVG 1.1//EN" "http://www.w3.org/Graphics/SVG/1.1/DTD/svg11.dtd" >
<svg xmlns="http://www.w3.org/2000/svg" xmlns:xlink="http://www.w3.org/1999/xlink" version="1.1">
<metadata>
Created by FontForge 20190801 at Wed Apr 12 08:58:57 2023
 By www-data
Copyright 2022 The Unbounded Project Authors (https://github.com/googlefonts/unbounded)
</metadata>
<defs>
<font id="UnboundedSemiBold" horiz-adv-x="0" >
  <font-face 
    font-family="UnboundedSemiBold"
    font-weight="600"
    font-stretch="normal"
    units-per-em="1000"
    panose-1="0 0 0 0 0 0 0 0 0 0"
    ascent="800"
    descent="-200"
    x-height="570"
    cap-height="750"
    bbox="-321 -311 1818 1213"
    underline-thickness="50"
    underline-position="-125"
    unicode-range="U+0020-FB02"
  />
<missing-glyph horiz-adv-x="855" 
d="M73 750h183v-750h-183v750zM599 750h182v-750h-182v750zM165 750h508v-162h-508v162zM165 162h508v-162h-508v162z" />
    <glyph glyph-name="fi" unicode="fi" horiz-adv-x="895" 
d="M449 647q-61 0 -89 -23t-28 -75v-549h-185v531q0 80 31.5 137t93.5 87.5t155 30.5q39 0 70 -6.5t62 -17.5v-138q-25 11 -52 17t-58 6zM29 386v139h523v-139h-523zM650 578l93 -19l93 19v-578h-186v578zM743 630q-49 0 -80 25.5t-31 67.5q0 43 31 68t80 25q50 0 80 -25
t30 -68q0 -42 -30 -67.5t-80 -25.5z" />
    <glyph glyph-name="fl" unicode="fl" horiz-adv-x="895" 
d="M449 647q-61 0 -89 -23t-28 -75v-549h-185v531q0 80 31.5 137t93.5 87.5t155 30.5q39 0 70 -6.5t62 -17.5v-138q-25 11 -52 17t-58 6zM29 386v139h523v-139h-523zM650 770h186v-770h-186v770z" />
    <glyph glyph-name="f_f" unicode="ff" horiz-adv-x="1040" 
d="M441 647q-61 0 -88.5 -23t-27.5 -75v-549h-186v531q0 80 31.5 137t93.5 87.5t156 30.5q38 0 69.5 -6.5t61.5 -17.5v-138q-25 11 -52 17t-58 6zM22 386v139h522v-139h-522zM923 647q-61 0 -89 -23t-28 -75v-549h-185v531q0 80 31.5 137t93.5 87.5t155 30.5q39 0 70 -6.5
t62 -17.5v-138q-26 11 -52.5 17t-57.5 6zM503 386v139h523v-139h-523z" />
    <glyph glyph-name="f_f_i" unicode="ffi" horiz-adv-x="1345" 
d="M441 647q-61 0 -88.5 -23t-27.5 -75v-549h-186v531q0 80 31.5 137t93.5 87.5t156 30.5q38 0 69.5 -6.5t61.5 -17.5v-138q-25 11 -52 17t-58 6zM22 386v139h522v-139h-522zM923 647q-61 0 -89 -23t-28 -75v-549h-185v531q0 80 31.5 137t93.5 87.5t155 30.5q39 0 70 -6.5
t62 -17.5v-138q-26 11 -52.5 17t-57.5 6zM503 386v139h523v-139h-523zM1100 578l92 -19l93 19v-578h-185v578zM1192 630q-49 0 -80 25.5t-31 67.5q0 43 31 68t80 25q50 0 80 -25t30 -68q0 -42 -30 -67.5t-80 -25.5z" />
    <glyph glyph-name="f_f_l" unicode="ffl" horiz-adv-x="1345" 
d="M441 647q-61 0 -88.5 -23t-27.5 -75v-549h-186v531q0 80 31.5 137t93.5 87.5t156 30.5q38 0 69.5 -6.5t61.5 -17.5v-138q-25 11 -52 17t-58 6zM22 386v139h522v-139h-522zM923 647q-61 0 -89 -23t-28 -75v-549h-185v531q0 80 31.5 137t93.5 87.5t155 30.5q39 0 70 -6.5
t62 -17.5v-138q-26 11 -52.5 17t-57.5 6zM503 386v139h523v-139h-523zM1100 770h185v-770h-185v770z" />
    <glyph glyph-name="f_t.liga" unicode="ft" horiz-adv-x="1078" 
d="M441 653q-61 0 -88.5 -21t-27.5 -68v-564h-186v531q0 80 31.5 137t93.5 87.5t156 30.5q38 0 69.5 -6.5t61.5 -17.5v-124q-25 7 -52 11t-58 4zM21 397v143h523v-143h-523zM488 397v143h121l77 172h105v-165h246v-143h-246v-155q0 -65 26.5 -91t93.5 -26q43 0 75.5 8.5
t60.5 22.5l1 -144q-30 -12 -78.5 -22.5t-101.5 -10.5q-91 0 -149 29t-86 81.5t-28 123.5v177h-117z" />
    <glyph glyph-name="t_t.liga" unicode="tt" horiz-adv-x="1107" 
d="M5 432v81l118 43l80 166h106v-152h246v-138h-246v-184q0 -67 26 -93.5t93 -26.5q43 0 75.5 8t61.5 21v-141q-31 -12 -79 -22t-100 -10q-91 0 -149.5 29t-86 81.5t-27.5 123.5v214h-118zM521 432v138h200l-119 -86l117 238h106v-152h246v-138h-246v-184q0 -67 26 -93.5
t94 -26.5q43 0 75.5 8t60.5 21v-141q-31 -12 -79 -22t-100 -10q-91 0 -149.5 29t-86 81.5t-27.5 123.5v214h-118z" />
    <glyph glyph-name=".notdef" horiz-adv-x="855" 
d="M73 750h183v-750h-183v750zM599 750h182v-750h-182v750zM165 750h508v-162h-508v162zM165 162h508v-162h-508v162z" />
    <glyph glyph-name=".null" 
 />
    <glyph glyph-name="nonmarkingreturn" horiz-adv-x="333" 
 />
    <glyph glyph-name="space" unicode=" " horiz-adv-x="252" 
 />
    <glyph glyph-name="exclam" unicode="!" horiz-adv-x="312" 
d="M59 750h194l-31 -494h-132zM156 -10q-46 0 -75.5 27.5t-29.5 71.5t29.5 71t75.5 27q47 0 76.5 -27t29.5 -71t-29.5 -71.5t-76.5 -27.5z" />
    <glyph glyph-name="quotedbl" unicode="&#x22;" horiz-adv-x="485" 
d="M303 431l-35 319h177l-36 -319h-106zM75 431l-35 319h177l-36 -319h-106z" />
    <glyph glyph-name="numbersign" unicode="#" horiz-adv-x="850" 
d="M224 750h149l-88 -750h-149zM564 750h149l-88 -750h-149zM66 564h741v-128h-741v128zM42 313h741v-128h-741v128z" />
    <glyph glyph-name="dollar" unicode="$" horiz-adv-x="800" 
d="M410 -16q-110 0 -192.5 33t-130 92t-49.5 136h185q6 -55 56 -87.5t135 -32.5q79 0 120.5 24t41.5 65q0 23 -12.5 39t-42 27t-82.5 15l-108 10q-147 13 -215.5 71t-68.5 155q0 73 42 125.5t119 81t181 28.5q103 0 180.5 -31t123 -86t49.5 -128h-184q-5 45 -47 74.5
t-125 29.5q-75 0 -115 -23t-40 -63q0 -20 11.5 -35.5t39 -25.5t75.5 -14l118 -10q104 -9 167 -36.5t91 -73t28 -109.5q0 -74 -43 -130.5t-121.5 -88.5t-186.5 -32zM467 832v-914h-137v914h137z" />
    <glyph glyph-name="percent" unicode="%" horiz-adv-x="1273" 
d="M284 313q-77 0 -135.5 28t-91.5 78.5t-33 117.5q0 66 33 116t91.5 78t135.5 28q78 0 136 -28t91 -78t33 -116q0 -67 -33 -117.5t-91 -78.5t-136 -28zM284 422q53 0 83.5 30.5t30.5 83.5t-30 84t-84 31q-53 0 -83 -31t-30 -84t30 -83.5t83 -30.5zM989 -16q-77 0 -135.5 28
t-91 79t-32.5 117q0 67 32.5 117t91 78t135.5 28q78 0 136 -28t91 -78t33 -117q0 -66 -33 -117t-91 -79t-136 -28zM989 94q53 0 83.5 30t30.5 84q0 53 -30 83.5t-84 30.5q-53 0 -83 -30.5t-30 -83.5q0 -54 30 -84t83 -30zM772 750h138l-408 -750h-138z" />
    <glyph glyph-name="ampersand" unicode="&#x26;" horiz-adv-x="925" 
d="M736 539h-185q-5 42 -35.5 68.5t-86.5 26.5q-33 0 -56.5 -9t-36.5 -25t-13 -39q0 -17 11 -35.5t36 -40.5l567 -485h-234l-475 405q-45 39 -73.5 80.5t-28.5 87.5q0 58 34.5 101t101 67.5t160.5 24.5q97 0 166 -30t106.5 -81t41.5 -116zM698 410h194l-229 -264
q-48 -57 -97.5 -92.5t-107 -52.5t-131.5 -17q-92 0 -158 29.5t-101.5 79.5t-35.5 113q0 56 29.5 102t92.5 77.5t163 41.5l39 -73q-66 -14 -102.5 -46.5t-36.5 -77.5q0 -29 17 -53.5t47.5 -38.5t72.5 -14q73 0 121 28t83 74z" />
    <glyph glyph-name="quotesingle" unicode="'" horiz-adv-x="264" 
d="M40 750h184l-36 -319h-112z" />
    <glyph glyph-name="parenleft" unicode="(" horiz-adv-x="376" 
d="M209 750h145q-64 -113 -94.5 -218t-30.5 -211q0 -104 30.5 -209t94.5 -220h-145q-86 103 -129 208.5t-43 220.5q0 116 43 221.5t129 207.5z" />
    <glyph glyph-name="parenright" unicode=")" horiz-adv-x="376" 
d="M167 750q86 -102 128.5 -207.5t42.5 -221.5q0 -115 -42.5 -220.5t-128.5 -208.5h-146q65 115 95.5 220t30.5 209q0 106 -30.5 211t-95.5 218h146z" />
    <glyph glyph-name="asterisk" unicode="*" horiz-adv-x="532" 
d="M208 767h116l-7 -153l143 56l36 -111l-148 -41l98 -120l-94 -68l-86 128l-86 -128l-94 68l98 120l-147 41l35 111l144 -56z" />
    <glyph glyph-name="plus" unicode="+" horiz-adv-x="620" 
d="M242 74v560h136v-560h-136zM30 286v136h560v-136h-560z" />
    <glyph glyph-name="comma" unicode="," horiz-adv-x="292" 
d="M37 -146l98 207l10 -68q-29 0 -53.5 14t-38.5 38.5t-14 52.5q0 30 14 53.5t38.5 37.5t53.5 14q31 0 55 -14t38 -38.5t14 -55.5q0 -28 -13.5 -60t-46.5 -82l-62 -99h-93z" />
    <glyph glyph-name="hyphen" unicode="-" horiz-adv-x="366" 
d="M55 424h255v-148h-255v148z" />
    <glyph glyph-name="period" unicode="." horiz-adv-x="290" 
d="M145 -10q-30 0 -54.5 14.5t-38.5 38.5t-14 54t14 54t38.5 38.5t54.5 14.5t54 -14.5t38.5 -38.5t14.5 -54t-14.5 -54t-38.5 -38.5t-54 -14.5z" />
    <glyph glyph-name="slash" unicode="/" horiz-adv-x="450" 
d="M294 777h142l-280 -804h-142z" />
    <glyph glyph-name="zero" unicode="0" horiz-adv-x="917" 
d="M459 -16q-127 0 -220 49t-144 136.5t-51 205.5q0 117 51 205t144 137t220 49q126 0 219 -49t144 -136.5t51 -205.5q0 -117 -51 -205t-144 -137t-219 -49zM459 138q107 0 166.5 62t59.5 175t-59.5 175t-166.5 62t-167 -62t-60 -175t60 -175t167 -62z" />
    <glyph glyph-name="one" unicode="1" horiz-adv-x="507" 
d="M430 750v-750h-187v686l91 -83l-321 -56v146l278 57h139z" />
    <glyph glyph-name="two" unicode="2" horiz-adv-x="823" 
d="M36 483q6 87 57 150.5t135.5 98t191.5 34.5q102 0 178.5 -31t119 -87t42.5 -129q0 -57 -30 -105.5t-95 -96.5t-171 -102l-216 -114l-11 50h544v-151h-732v132l322 185q77 44 120.5 75.5t61.5 58.5t18 58q0 32 -17.5 57t-52.5 39t-88 14q-63 0 -104 -18.5t-61 -49.5
t-24 -68h-188z" />
    <glyph glyph-name="three" unicode="3" horiz-adv-x="830" 
d="M50 510q5 71 50 129t128.5 92.5t202.5 34.5q102 0 177.5 -26.5t117.5 -73t42 -109.5q0 -51 -30.5 -92.5t-95.5 -66t-166 -23.5v20q96 5 165 -14t106 -60t37 -103q0 -68 -43 -120.5t-125.5 -83t-200.5 -30.5q-115 0 -200.5 32.5t-133 91t-51.5 137.5h188q8 -55 56.5 -84.5
t140.5 -29.5q87 0 132.5 26.5t45.5 74.5q0 28 -15 46.5t-51 28.5t-100 10h-130v129h130q83 0 117 23.5t34 61.5q0 42 -39.5 65t-118.5 23q-82 0 -127.5 -28.5t-54.5 -80.5h-188z" />
    <glyph glyph-name="four" unicode="4" horiz-adv-x="846" 
d="M691 750v-750h-187v668h61l-400 -442l-2 60h652v-142h-791v134l428 472h239z" />
    <glyph glyph-name="five" unicode="5" horiz-adv-x="799" 
d="M124 750h578v-142h-521l76 36l-42 -282h-48q22 37 60.5 68t94.5 50t130 19q96 0 165 -32t106.5 -88t37.5 -129q0 -77 -43 -137t-123.5 -94.5t-192.5 -34.5q-110 0 -191 32t-127 87.5t-54 123.5h188q11 -44 58.5 -70t125.5 -26q53 0 91 14.5t59 41.5t21 64q0 35 -18.5 62
t-55 42t-90.5 15q-45 0 -80.5 -10t-62 -26t-43.5 -33h-162z" />
    <glyph glyph-name="six" unicode="6" horiz-adv-x="849" 
d="M445 766q96 0 169.5 -29t119.5 -78.5t56 -112.5h-176q-15 34 -53 56.5t-111 22.5q-78 0 -128.5 -29t-74.5 -82.5t-24 -131.5q0 -83 26.5 -140t78.5 -86.5t127 -29.5q53 0 89.5 14.5t55 40.5t18.5 58t-17.5 56t-51.5 37.5t-87 13.5q-69 0 -131.5 -31.5t-110.5 -88.5
l-67 46q32 62 82 110.5t118 77t154 28.5q92 0 159.5 -30.5t104 -85.5t36.5 -127q0 -76 -42 -135t-121 -92.5t-191 -33.5q-136 0 -227 50t-136 138.5t-45 202.5t45 202t134.5 138.5t220.5 50.5z" />
    <glyph glyph-name="seven" unicode="7" horiz-adv-x="740" 
d="M128 0l414 652l-1 -53h-529v151h701v-151l-372 -599h-213z" />
    <glyph glyph-name="eight" unicode="8" horiz-adv-x="883" 
d="M441 766q181 0 277 -56t96 -156q0 -90 -84.5 -136.5t-235.5 -41.5v20q163 12 254 -36.5t91 -151.5q0 -108 -102 -166t-296 -58q-192 0 -294.5 58t-102.5 166q0 103 91 151.5t254 36.5v-20q-151 -5 -235.5 41.5t-84.5 136.5q0 100 96 156t276 56zM441 129q101 0 154 24
t53 70q0 47 -53 69.5t-154 22.5t-153.5 -22.5t-52.5 -69.5q0 -46 52.5 -70t153.5 -24zM441 449q60 0 101.5 9.5t62.5 28.5t21 48q0 41 -47.5 63.5t-137.5 22.5q-89 0 -137 -22.5t-48 -63.5q0 -29 21.5 -48t63 -28.5t100.5 -9.5z" />
    <glyph glyph-name="nine" unicode="9" horiz-adv-x="849" 
d="M404 -16q-95 0 -169 29t-119.5 79t-56.5 112h176q15 -34 53 -56.5t111 -22.5q79 0 129 29t74 83t24 131q0 84 -27 140.5t-78.5 86t-126.5 29.5q-53 0 -89.5 -14.5t-55 -40t-18.5 -58.5q0 -31 17 -55.5t52 -38t86 -13.5q71 0 133 31.5t110 88.5l66 -46q-30 -61 -80.5 -110
t-118.5 -77.5t-154 -28.5q-93 0 -160 30.5t-103.5 85.5t-36.5 127q0 76 42 135t121.5 92.5t190.5 33.5q136 0 226.5 -50t136.5 -138t45 -203q1 -114 -45 -202t-135 -138.5t-220 -50.5z" />
    <glyph glyph-name="colon" unicode=":" horiz-adv-x="319" 
d="M160 -10q-47 0 -76.5 29t-29.5 73t29.5 72.5t76.5 28.5q46 0 75.5 -28.5t29.5 -72.5t-29.5 -73t-75.5 -29zM160 337q-47 0 -76.5 29t-29.5 73t29.5 72.5t76.5 28.5q46 0 75.5 -28.5t29.5 -72.5t-29.5 -73t-75.5 -29z" />
    <glyph glyph-name="semicolon" unicode=";" horiz-adv-x="323" 
d="M162 337q-46 0 -76 29t-30 73t30 72.5t76 28.5q47 0 76.5 -28.5t29.5 -72.5t-29.5 -73t-76.5 -29zM54 -146l98 207l10 -70q-47 0 -76 27t-29 71t29 71t76 27q48 0 77 -27.5t29 -71.5q0 -24 -13 -55.5t-46 -81.5l-63 -97h-92z" />
    <glyph glyph-name="less" unicode="&#x3c;" horiz-adv-x="620" 
d="M589 488l-450 -155v44l450 -154v-144l-560 201v150l560 201v-143z" />
    <glyph glyph-name="equal" unicode="=" horiz-adv-x="620" 
d="M30 547h560v-137h-560v137zM30 298h560v-137h-560v137z" />
    <glyph glyph-name="greater" unicode="&#x3e;" horiz-adv-x="620" 
d="M31 488v143l560 -201v-150l-560 -201v144l450 154v-44z" />
    <glyph glyph-name="question" unicode="?" horiz-adv-x="692" 
d="M247 280q0 46 26 81t84 62l76 37q27 13 41.5 30t14.5 39q0 42 -36 66.5t-103 24.5t-107.5 -29.5t-48.5 -81.5h-178q9 121 97 189t238 68q149 0 233 -60.5t84 -168.5q0 -53 -30 -96.5t-90 -71.5l-84 -41q-25 -12 -37.5 -27t-12.5 -37v-20h-162q-3 10 -4 19t-1 17zM330 -10
q-46 0 -75.5 27.5t-29.5 71.5t29.5 71t75.5 27q48 0 77 -27t29 -71t-29 -71.5t-77 -27.5z" />
    <glyph glyph-name="at" unicode="@" horiz-adv-x="1039" 
d="M650 329q-13 -98 -63 -156t-134 -58q-59 0 -103.5 27t-69.5 75t-25 112q0 63 25 111t69.5 75t103.5 27t100 -27t65.5 -75t31.5 -111zM421 329q0 -40 23.5 -64t60.5 -24q38 0 70 25t45 63q-13 38 -45 62.5t-70 24.5q-24 0 -43 -11t-30 -30.5t-11 -45.5zM1008 385
q0 -78 -34.5 -135.5t-97.5 -89.5t-149 -32h-86l-33 143l20 58l-21 56l24 144h171l-30 -200l37 -181l-61 55q47 1 81 23t52.5 63t18.5 95q0 83 -44.5 144t-125.5 94t-190 33q-119 0 -207.5 -41t-137 -117t-48.5 -179q0 -95 48 -166t135.5 -109t205.5 -38q57 0 116.5 8.5
t113 24t92.5 35.5v-101q-40 -19 -94.5 -33t-114.5 -21.5t-117 -7.5q-151 0 -263 50.5t-173.5 142t-61.5 214.5q0 98 35.5 177.5t102 136.5t160 88t208.5 31q142 0 247 -45.5t163 -127.5t58 -192z" />
    <glyph glyph-name="A" unicode="A" horiz-adv-x="943" 
d="M208 151v153h518v-153h-518zM594 750l346 -750h-201l-297 671h58l-296 -671h-202l347 750h245z" />
    <glyph glyph-name="B" unicode="B" horiz-adv-x="874" 
d="M568 368l16 37q88 -2 144.5 -27t84 -68.5t27.5 -99.5q0 -61 -28 -108.5t-83.5 -74.5t-138.5 -27h-540l58 385l-58 365h521q104 0 161.5 -48.5t57.5 -133.5q0 -47 -22 -90t-70 -72.5t-130 -37.5zM236 46l-72 89h381q49 0 76.5 23.5t27.5 66.5t-30.5 68.5t-90.5 25.5h-312
v132h288q41 0 68 23.5t27 64.5q0 33 -23.5 54.5t-66.5 21.5h-344l71 89l53 -319z" />
    <glyph glyph-name="C" unicode="C" horiz-adv-x="929" 
d="M896 310q-11 -97 -67 -170.5t-148 -114.5t-209 -41q-130 0 -227.5 49t-151.5 137t-54 205t54 205t151.5 137t227.5 49q117 0 209 -41t148 -114t67 -171h-190q-10 51 -40.5 87t-80 55.5t-114.5 19.5q-75 0 -129 -27.5t-83 -78.5t-29 -121t29 -121t83 -78.5t129 -27.5
q65 0 114.5 19t80 55t40.5 88h190z" />
    <glyph glyph-name="D" unicode="D" horiz-adv-x="919" 
d="M439 750q132 0 231 -47t154.5 -131t55.5 -197q0 -112 -55.5 -196.5t-154.5 -131.5t-231 -47h-366v750h366zM261 77l-92 90h284q72 0 125 26t82 72.5t29 109.5q0 64 -29 110t-82 72t-125 26h-284l92 90v-596z" />
    <glyph glyph-name="E" unicode="E" horiz-adv-x="787" 
d="M704 445v-140h-543v140h543zM289 375l-50 -310l-79 90h576v-155h-686l58 375l-58 375h681v-155h-571l79 90z" />
    <glyph glyph-name="F" unicode="F" horiz-adv-x="763" 
d="M165 438h543v-161h-543v161zM726 750v-161h-557l93 93v-682h-189v750h653z" />
    <glyph glyph-name="G" unicode="G" horiz-adv-x="960" 
d="M837 325q-2 -68 -27 -129.5t-72 -109t-116 -75t-161 -27.5q-88 0 -164.5 26t-134.5 76t-90 123t-32 166t32.5 166t91 123t137 76t171.5 26q121 0 210.5 -38t144 -104t69.5 -152h-191q-10 42 -42 72t-80.5 46.5t-110.5 16.5q-75 0 -129 -26.5t-84 -78t-30 -127.5t32 -129
t90 -80t137 -27q77 0 135.5 23t93 66t39.5 103zM510 249v134h393v-383h-135l-26 300l38 -51h-270z" />
    <glyph glyph-name="H" unicode="H" horiz-adv-x="931" 
d="M73 750h189v-750h-189v750zM669 750h189v-750h-189v750zM178 463h571v-166h-571v166z" />
    <glyph glyph-name="I" unicode="I" horiz-adv-x="335" 
d="M73 750h189v-750h-189v750z" />
    <glyph glyph-name="J" unicode="J" horiz-adv-x="799" 
d="M20 367h185v-27q0 -93 39.5 -142.5t130.5 -49.5q90 0 130.5 47t40.5 130v425h189v-434q0 -105 -45 -179.5t-126.5 -113.5t-188.5 -39q-106 0 -186 40.5t-124.5 116.5t-44.5 184v42z" />
    <glyph glyph-name="K" unicode="K" horiz-adv-x="860" 
d="M73 0v750h188v-598l-51 38l444 560h200l-611 -750h-170zM432 363l136 117l296 -480h-214z" />
    <glyph glyph-name="L" unicode="L" horiz-adv-x="757" 
d="M262 750v-666l-85 83h562v-167h-666v750h189z" />
    <glyph glyph-name="M" unicode="M" horiz-adv-x="1221" 
d="M1148 750v-750h-180v684l44 -3l-305 -681h-193l-305 679l44 4v-683h-180v750h291l285 -656h-76l284 656h291z" />
    <glyph glyph-name="N" unicode="N" horiz-adv-x="963" 
d="M768 129l-61 -11v632h183v-750h-238l-457 632l61 11v-643h-183v750h245z" />
    <glyph glyph-name="O" unicode="O" horiz-adv-x="961" 
d="M480 -16q-132 0 -231.5 49t-154.5 137t-55 205t55 205t154.5 137t231.5 49t231.5 -49t155 -137t55.5 -205t-55.5 -205t-155 -137t-231.5 -49zM480 153q78 0 134 26.5t86.5 76.5t30.5 119t-30.5 119t-86.5 76.5t-134 26.5q-77 0 -133 -26.5t-87 -76.5t-31 -119t31 -119
t87 -76.5t133 -26.5z" />
    <glyph glyph-name="P" unicode="P" horiz-adv-x="805" 
d="M488 750q92 0 158.5 -31.5t102 -88.5t35.5 -133t-35.5 -133t-102 -88.5t-158.5 -31.5h-328v153h318q54 0 85 26.5t31 73.5t-31 73.5t-85 26.5h-301l85 88v-685h-189v750h415z" />
    <glyph glyph-name="Q" unicode="Q" horiz-adv-x="961" 
d="M360 300h225l329 -355h-232zM480 -16q-132 0 -231.5 49t-154.5 137t-55 205t55 205t154.5 137t231.5 49t231.5 -49t155 -137t55.5 -205t-55.5 -205t-155 -137t-231.5 -49zM480 153q78 0 134 26.5t86.5 76.5t30.5 119t-30.5 119t-86.5 76.5t-134 26.5q-77 0 -133 -26.5
t-87 -76.5t-31 -119t31 -119t87 -76.5t133 -26.5z" />
    <glyph glyph-name="R" unicode="R" horiz-adv-x="840" 
d="M204 420h281q53 0 84 24.5t31 68.5t-31 68.5t-84 24.5h-308l85 93v-699h-189v750h437q84 0 147 -30t98 -83t35 -124q0 -70 -35 -123t-98 -83t-147 -30h-306v143zM325 351h213l276 -351h-219z" />
    <glyph glyph-name="S" unicode="S" horiz-adv-x="833" 
d="M37 245h191q5 -34 31 -60t69.5 -40t101.5 -14q83 0 130.5 23t47.5 65q0 32 -27.5 49.5t-102.5 25.5l-145 15q-151 15 -218.5 70t-67.5 150q0 75 44.5 128t125 81t188.5 28q107 0 189 -31t131 -86t53 -129h-191q-4 31 -27.5 52.5t-63 34t-94.5 12.5q-76 0 -120.5 -21.5
t-44.5 -61.5q0 -30 26.5 -47t94.5 -25l153 -17q105 -11 168 -35t91 -66t28 -106q0 -77 -46.5 -134.5t-130 -89.5t-194.5 -32q-115 0 -201.5 33t-136 91.5t-52.5 136.5z" />
    <glyph glyph-name="T" unicode="T" horiz-adv-x="809" 
d="M310 666h189v-666h-189v666zM18 750h773v-167h-773v167z" />
    <glyph glyph-name="U" unicode="U" horiz-adv-x="874" 
d="M252 332q0 -55 21.5 -95.5t62.5 -62t101 -21.5t101 21.5t62.5 62t21.5 95.5v418h189v-427q0 -102 -47 -178t-131 -118.5t-196 -42.5t-196 42.5t-131 118.5t-47 178v427h189v-418z" />
    <glyph glyph-name="V" unicode="V" horiz-adv-x="922" 
d="M505 84h-82l298 666h199l-352 -750h-213l-353 750h203z" />
    <glyph glyph-name="W" unicode="W" horiz-adv-x="1349" 
d="M1003 79l-61 -1l197 672h199l-235 -750h-241l-227 652h79l-226 -652h-242l-235 750h200l197 -671l-60 1l227 670h200z" />
    <glyph glyph-name="X" unicode="X" horiz-adv-x="851" 
d="M497 334v113l364 -447h-233l-249 321h90l-250 -321h-229l366 446v-111l-343 415h235l227 -290h-91l223 290h231z" />
    <glyph glyph-name="Y" unicode="Y" horiz-adv-x="910" 
d="M361 0v363h189v-363h-189zM9 750h209l280 -356h-87l280 356h209l-384 -488l-122 -2z" />
    <glyph glyph-name="Z" unicode="Z" horiz-adv-x="800" 
d="M41 0v138l507 507l134 -44h-637v149h710v-137l-507 -508l-115 45h625v-150h-717z" />
    <glyph glyph-name="bracketleft" unicode="[" horiz-adv-x="420" 
d="M388 750v-138h-231l85 84v-751l-85 85h231v-138h-319v858h319z" />
    <glyph glyph-name="backslash" unicode="\" horiz-adv-x="450" 
d="M156 777l280 -804h-142l-280 804h142z" />
    <glyph glyph-name="bracketright" unicode="]" horiz-adv-x="420" 
d="M33 750h318v-858h-318v138h230l-85 -85v751l85 -84h-230v138z" />
    <glyph glyph-name="asciicircum" unicode="^" horiz-adv-x="620" 
d="M437 375l-146 263h40l-148 -263h-153l213 375h134l213 -375h-153z" />
    <glyph glyph-name="underscore" unicode="_" horiz-adv-x="482" 
d="M-30 -30h542v-125h-542v125z" />
    <glyph glyph-name="grave" unicode="`" horiz-adv-x="360" 
d="M208 812l125 -185h-173l-133 185h181z" />
    <glyph glyph-name="a" unicode="a" horiz-adv-x="816" 
d="M578 0l-25 207l27 78l-27 77l25 208h193l-35 -285l35 -285h-193zM624 285q-15 -91 -57 -158.5t-106 -105t-144 -37.5q-84 0 -147.5 38t-99.5 105.5t-36 157.5t36 157.5t99.5 105.5t147.5 38q80 0 144 -37.5t106.5 -104.5t56.5 -159zM222 285q0 -46 19 -81.5t52.5 -56
t77.5 -20.5t83.5 20.5t69.5 56t45 81.5q-15 46 -45 81.5t-69.5 56t-83.5 20.5t-77.5 -20.5t-52.5 -56t-19 -81.5z" />
    <glyph glyph-name="b" unicode="b" horiz-adv-x="807" 
d="M60 770h185v-373l-25 -49v-134l25 -48v-166h-185v770zM183 285q15 92 57 159t106 104.5t144 37.5q84 0 147.5 -38t99.5 -105.5t36 -157.5t-36 -157.5t-99.5 -105.5t-147.5 -38q-80 0 -144 37.5t-106 105t-57 158.5zM585 285q0 46 -19 81.5t-52.5 56t-77.5 20.5
t-83.5 -20.5t-69 -56t-45.5 -81.5q16 -46 45.5 -81.5t69 -56t83.5 -20.5t77.5 20.5t52.5 56t19 81.5z" />
    <glyph glyph-name="c" unicode="c" horiz-adv-x="752" 
d="M726 237q-8 -75 -55.5 -132t-122 -89t-167.5 -32q-103 0 -182 38t-123 106t-44 157t44 157t123 106t182 38q93 0 167.5 -32t122 -88.5t55.5 -132.5h-185q-11 55 -54.5 84t-105.5 29q-49 0 -85.5 -19t-56.5 -55t-20 -87t20 -87t56.5 -55t85.5 -19q63 0 106 30.5t54 82.5
h185z" />
    <glyph glyph-name="d" unicode="d" horiz-adv-x="818" 
d="M581 0l-25 215l34 68l-33 86l46 401h193l-57 -471l34 -299h-192zM624 285q-15 -91 -57 -158.5t-106 -105t-144 -37.5q-84 0 -147.5 38t-99.5 105.5t-36 157.5t36 157.5t99.5 105.5t147.5 38q80 0 144 -37.5t106.5 -104.5t56.5 -159zM222 285q0 -46 19 -81.5t52.5 -56
t77.5 -20.5t83.5 20.5t69.5 56t45 81.5q-15 46 -45 81.5t-69.5 56t-83.5 20.5t-77.5 -20.5t-52.5 -56t-19 -81.5z" />
    <glyph glyph-name="e" unicode="e" horiz-adv-x="728" 
d="M387 -16q-102 0 -182.5 38t-126.5 106t-46 159q0 89 44 156t121.5 105t175.5 38q100 0 172 -44t111 -124t39 -188h-514v117h412l-67 -42q-3 47 -22.5 79.5t-51.5 50t-76 17.5q-48 0 -83 -19t-54.5 -53t-19.5 -79q0 -57 25.5 -97t74 -61t118.5 -21q64 0 128 17.5t115 49.5
v-121q-58 -40 -132.5 -62t-160.5 -22z" />
    <glyph glyph-name="f" unicode="f" horiz-adv-x="576" 
d="M449 647q-68 0 -96.5 -26t-28.5 -82v-539h-186v528q0 81 32 138.5t96.5 88.5t160.5 31q44 0 78 -6.5t71 -17.5v-138q-30 11 -61 17t-66 6zM21 386v139h542v-139h-542z" />
    <glyph glyph-name="g" unicode="g" horiz-adv-x="805" 
d="M562 143v97l6 23v132l-6 21v154h186v-418q0 -106 -48.5 -180.5t-134.5 -113.5t-200 -39q-79 0 -145.5 20.5t-131.5 61.5v142q61 -46 128.5 -66.5t136.5 -20.5q101 0 155 45.5t54 141.5zM310 56q-80 0 -143 33t-99 92.5t-36 139.5t36 139.5t99 92.5t143 33q60 0 110 -18.5
t89 -48.5t66 -65.5t41 -71t14 -63.5q0 -37 -22 -82.5t-63.5 -86.5t-100.5 -67.5t-134 -26.5zM372 185q62 0 111 33t85 103q-36 71 -85.5 104t-110.5 33q-47 0 -81.5 -17t-53 -47.5t-18.5 -72.5q0 -41 18 -71.5t52.5 -47.5t82.5 -17z" />
    <glyph glyph-name="h" unicode="h" horiz-adv-x="768" 
d="M60 770h185v-770h-185v770zM459 586q81 0 138.5 -32.5t88 -92.5t30.5 -143v-318h-186v290q0 71 -34.5 107.5t-100.5 36.5q-45 0 -79 -19.5t-52.5 -55t-18.5 -84.5l-59 31q12 91 50 153t95.5 94.5t127.5 32.5z" />
    <glyph glyph-name="i" unicode="i" horiz-adv-x="305" 
d="M60 578l92 -19l93 19v-578h-185v578zM153 630q-49 0 -80 25.5t-31 67.5q0 43 31 68t80 25q50 0 80 -25t30 -68q0 -42 -30 -67.5t-80 -25.5z" />
    <glyph glyph-name="j" unicode="j" horiz-adv-x="305" 
d="M60 578l92 -19l93 19v-743h-185v743zM153 630q-49 0 -80 25.5t-31 67.5q0 43 31 68t80 25q50 0 80 -25t30 -68q0 -42 -30 -67.5t-80 -25.5z" />
    <glyph glyph-name="k" unicode="k" horiz-adv-x="729" 
d="M245 151l-51 17l327 402h199l-493 -570h-167v770h185v-619zM359 279l138 101l238 -380h-211z" />
    <glyph glyph-name="l" unicode="l" horiz-adv-x="305" 
d="M60 770h185v-770h-185v770z" />
    <glyph glyph-name="m" unicode="m" horiz-adv-x="1195" 
d="M33 570h185l37 -222v-348h-186v376zM455 586q78 0 132.5 -32.5t83 -92.5t28.5 -143v-318h-186v290q0 71 -31 107.5t-91 36.5q-42 0 -72.5 -19.5t-47 -55t-16.5 -84.5l-59 31q11 91 47.5 153t91 94.5t120.5 32.5zM898 586q78 0 133 -32.5t83.5 -92.5t28.5 -143v-318h-186
v290q0 71 -31 107.5t-91 36.5q-42 0 -72.5 -19.5t-47 -55t-16.5 -84.5l-59 31q11 91 47 153t91 94.5t120 32.5z" />
    <glyph glyph-name="n" unicode="n" horiz-adv-x="778" 
d="M33 570h185l37 -222v-348h-186v376zM468 586q82 0 139.5 -32.5t88 -92.5t30.5 -143v-318h-186v290q0 71 -35 107.5t-100 36.5q-46 0 -79.5 -19.5t-52 -55t-18.5 -84.5l-59 31q11 91 49.5 153t96 94.5t126.5 32.5z" />
    <glyph glyph-name="o" unicode="o" horiz-adv-x="785" 
d="M392 -16q-108 0 -189 38t-126 106t-45 157q0 90 45 157.5t126.5 105.5t188.5 38q108 0 189.5 -38t126.5 -105.5t45 -157.5t-45 -157.5t-126.5 -105.5t-189.5 -38zM392 124q55 0 93.5 19.5t59 55.5t20.5 86t-20.5 86t-59 55.5t-93.5 19.5q-53 0 -92 -19.5t-60 -55.5
t-21 -86t21 -86t60 -55.5t92 -19.5z" />
    <glyph glyph-name="p" unicode="p" horiz-adv-x="808" 
d="M60 570h185v-172l-7 -24v-148l7 -44v-347h-185v735zM184 285q15 92 57 159t106.5 104.5t143.5 37.5q84 0 147.5 -38t99.5 -105.5t36 -157.5t-36 -157.5t-99.5 -105.5t-147.5 -38q-80 0 -143.5 37.5t-105.5 105t-58 158.5zM586 285q0 46 -19 81.5t-52.5 56t-76.5 20.5
q-44 0 -84 -20.5t-69.5 -56t-45.5 -81.5q16 -46 45.5 -81.5t69.5 -56t84 -20.5q43 0 76.5 20.5t52.5 56t19 81.5z" />
    <glyph glyph-name="q" unicode="q" horiz-adv-x="808" 
d="M748 570v-735h-186v347l8 44v148l-8 24v172h186zM623 285q-14 -91 -56 -158.5t-106.5 -105t-144.5 -37.5q-83 0 -147 38t-99.5 105.5t-35.5 157.5t35.5 157.5t99.5 105.5t147 38q80 0 144.5 -37.5t107 -104.5t55.5 -159zM221 285q0 -46 19 -81.5t53 -56t77 -20.5
q45 0 84 20.5t69 56t46 81.5q-16 46 -46 81.5t-69 56t-84 20.5q-43 0 -77 -20.5t-53 -56t-19 -81.5z" />
    <glyph glyph-name="r" unicode="r" horiz-adv-x="542" 
d="M33 570h188l34 -205v-365h-186v380zM527 578v-160q-27 6 -53.5 9t-48.5 3q-48 0 -86.5 -19.5t-61 -61.5t-22.5 -109l-37 46q7 61 23 115t44 95.5t69.5 65.5t100.5 24q17 0 36 -2t36 -6z" />
    <glyph glyph-name="s" unicode="s" horiz-adv-x="734" 
d="M702 183q0 -64 -37.5 -108.5t-109.5 -67.5t-175 -23q-105 0 -184 26t-123 73t-47 109h189q6 -25 28.5 -44t58.5 -28.5t85 -9.5q66 0 100 14t34 42q0 21 -24.5 32t-87.5 16l-104 8q-98 7 -156 31t-82.5 61t-24.5 83q0 63 39.5 105t109.5 63t164 21t167.5 -25t118 -69
t50.5 -103h-189q-4 20 -21.5 37t-50 27.5t-84.5 10.5q-59 0 -90 -13t-31 -38q0 -19 19 -30t72 -16l135 -10q96 -8 150.5 -30.5t77.5 -58.5t23 -85z" />
    <glyph glyph-name="t" unicode="t" horiz-adv-x="591" 
d="M5 432v81l118 43l80 166h106v-152h246v-138h-246v-188q0 -64 26 -89.5t93 -25.5q43 0 75.5 7.5t61.5 20.5v-141q-30 -12 -78.5 -22t-100.5 -10q-91 0 -149.5 29t-86 81.5t-27.5 123.5v214h-118z" />
    <glyph glyph-name="u" unicode="u" horiz-adv-x="766" 
d="M303 -15q-80 0 -136 32.5t-85.5 92.5t-29.5 142v318h186v-291q0 -69 33 -106t95 -37q46 0 78 19t49.5 55t17.5 85l58 -31q-10 -90 -47.5 -152.5t-94 -94.5t-124.5 -32zM547 0l-36 222v348h186v-376l36 -194h-186z" />
    <glyph glyph-name="v" unicode="v" horiz-adv-x="755" 
d="M413 87l-65 1l206 482h198l-269 -570h-211l-269 570h205z" />
    <glyph glyph-name="w" unicode="w" horiz-adv-x="1130" 
d="M829 103h-59l169 467h186l-217 -570h-190l-184 482h64l-187 -482h-190l-216 570h187l170 -467h-61l176 467h179z" />
    <glyph glyph-name="x" unicode="x" horiz-adv-x="700" 
d="M-11 0l267 321v-61l-251 310h207l170 -206h-59l170 206h203l-258 -313l-9 80l283 -337h-211l-184 221h62l-182 -221h-208z" />
    <glyph glyph-name="y" unicode="y" horiz-adv-x="761" 
d="M234 -181q-60 0 -106.5 15t-90.5 45v131q45 -29 84.5 -41.5t86.5 -12.5q42 0 73.5 18t52.5 66l228 530h197l-279 -588q-28 -60 -67 -96t-84.5 -51.5t-94.5 -15.5zM256 45l-247 525h204l222 -525h-179z" />
    <glyph glyph-name="z" unicode="z" horiz-adv-x="683" 
d="M38 0v130l406 333l128 -28h-531v135h601v-130l-405 -333l-109 28h516v-135h-606z" />
    <glyph glyph-name="braceleft" unicode="{" horiz-adv-x="456" 
d="M423 619h-105q-27 0 -38 -16.5t-3 -44.5l27 -95q18 -60 -5.5 -96.5t-75.5 -45.5q52 -9 75.5 -45t5.5 -97l-27 -94q-8 -29 3 -45t38 -16h105v-132h-187q-54 0 -89 24.5t-46.5 65t4.5 89.5l41 124q10 29 -4 46.5t-44 17.5h-66v125h66q30 0 44 17t4 46l-41 124
q-16 49 -4.5 89.5t46.5 65t89 24.5h187v-131z" />
    <glyph glyph-name="bar" unicode="|" horiz-adv-x="306" 
d="M73 750h159v-848h-159v848z" />
    <glyph glyph-name="braceright" unicode="}" horiz-adv-x="456" 
d="M34 619v131h187q53 0 88 -24.5t47 -65t-5 -89.5l-41 -124q-9 -29 5 -46t43 -17h67v-125h-67q-29 0 -43 -17.5t-5 -46.5l41 -124q17 -49 5 -89.5t-47 -65t-88 -24.5h-187v132h104q27 0 38 16t4 45l-27 94q-18 61 5 97t75 45q-52 9 -75 45.5t-5 96.5l27 95q7 28 -4 44.5
t-38 16.5h-104z" />
    <glyph glyph-name="asciitilde" unicode="~" horiz-adv-x="620" 
d="M30 400q77 37 166 37q44 0 79 -8.5t70.5 -17t78.5 -8.5q88 0 166 36v-131q-77 -37 -166 -37q-43 0 -78.5 8.5t-70.5 17t-79 8.5q-88 0 -166 -36v131z" />
    <glyph glyph-name="uni00A0" unicode="&#xa0;" horiz-adv-x="252" 
 />
    <glyph glyph-name="exclamdown" unicode="&#xa1;" horiz-adv-x="303" 
d="M248 -155h-193l31 494h131zM152 605q46 0 75.5 -27.5t29.5 -71.5t-29.5 -71t-75.5 -27q-48 0 -77 27t-29 71t29 71.5t77 27.5z" />
    <glyph glyph-name="cent" unicode="&#xa2;" horiz-adv-x="781" 
d="M337 654h107v-739h-107v739zM732 233q-9 -72 -54.5 -128.5t-118.5 -88t-165 -31.5q-101 0 -178 38t-120 105t-43 156t43 157t120 105.5t178 37.5q90 0 163 -31t119 -87t56 -131h-173q-11 55 -55.5 87t-109.5 32q-51 0 -89 -20t-59 -58t-21 -92q0 -53 21 -91t59 -58
t89 -20q63 0 108 32t57 86h173z" />
    <glyph glyph-name="sterling" unicode="&#xa3;" horiz-adv-x="806" 
d="M47 420h600v-125h-600v125zM233 110l-62 25h601v-135h-723v153q97 16 146.5 44.5t49.5 72.5q0 27 -14 49t-34.5 44t-41.5 47t-35 58.5t-14 78.5q0 66 40.5 115t113.5 76.5t169 27.5q95 0 169 -30t117 -83t47 -124h-186q-8 45 -46 70.5t-96 25.5q-64 0 -101 -25.5
t-37 -70.5q0 -30 13.5 -53.5t33 -43.5t39.5 -40t33.5 -44.5t13.5 -56.5q0 -43 -25 -79t-69 -61.5t-102 -40.5z" />
    <glyph glyph-name="currency" unicode="&#xa4;" horiz-adv-x="720" 
d="M360 135q-92 0 -155.5 29.5t-96.5 82.5t-33 122t33 122t96.5 82.5t155.5 29.5t155.5 -29.5t96 -82.5t32.5 -122t-32.5 -122t-96 -82.5t-155.5 -29.5zM360 264q70 0 102.5 27.5t32.5 77.5q0 51 -32.5 78t-102.5 27t-102.5 -27t-32.5 -78q0 -50 32.5 -77.5t102.5 -27.5z
M104 625l121 -97l-80 -58l-103 91zM616 625l62 -71l-103 -84l-80 58zM104 113l-62 64l103 91l80 -58zM616 113l-121 97l80 58l103 -91z" />
    <glyph glyph-name="yen" unicode="&#xa5;" horiz-adv-x="865" 
d="M88 408h281l63 -34l56 34h292v-110h-692v110zM88 243h692v-110h-692v110zM339 0v363h188v-363h-188zM23 750h208l246 -356h-88l245 356h208l-349 -488l-121 -2z" />
    <glyph glyph-name="brokenbar" unicode="&#xa6;" horiz-adv-x="306" 
d="M73 239h159v-337h-159v337zM232 413h-159v337h159v-337z" />
    <glyph glyph-name="section" unicode="&#xa7;" horiz-adv-x="867" 
d="M423 766q118 0 196.5 -30t119.5 -78t44 -102h-186q-3 25 -22.5 46t-57.5 34t-96 13q-74 0 -107 -19.5t-33 -45.5q0 -24 21 -38t70 -29l228 -59q80 -20 127.5 -44.5t69 -56.5t21.5 -77q0 -60 -52.5 -98t-165.5 -45l-8 43q34 11 49 28.5t15 39.5q0 33 -26.5 51t-83.5 34
l-237 64q-73 20 -122 42t-73.5 54.5t-24.5 85.5q0 51 36.5 93.5t110.5 68t187 25.5zM444 -145q-118 0 -196.5 30t-119 78t-45.5 102h187q3 -25 22 -46t57.5 -34t96.5 -13q74 0 107 19.5t33 45.5q0 24 -21 38.5t-71 28.5l-227 59q-110 29 -164.5 70.5t-54.5 107.5
q0 59 52.5 97.5t165.5 46.5l8 -44q-32 -10 -47.5 -28t-15.5 -40q0 -32 26.5 -50.5t83.5 -34.5l236 -64q75 -20 123.5 -42t72.5 -54.5t24 -85.5q0 -51 -36 -93.5t-109.5 -68t-187.5 -25.5z" />
    <glyph glyph-name="dieresis" unicode="&#xa8;" horiz-adv-x="584" 
d="M141 630q-47 0 -75 24t-28 66q0 40 28 63.5t75 23.5t75.5 -23.5t28.5 -63.5q0 -42 -28.5 -66t-75.5 -24zM444 630q-47 0 -75.5 24t-28.5 66q0 40 28.5 63.5t75.5 23.5q46 0 74.5 -23.5t28.5 -63.5q0 -42 -28.5 -66t-74.5 -24z" />
    <glyph glyph-name="copyright" unicode="&#xa9;" horiz-adv-x="905" 
d="M452 -16q-82 0 -154.5 29t-127 81.5t-85.5 124t-31 156.5t31 156.5t86 124t127 81.5t154 29q84 0 156 -29t126.5 -81.5t85.5 -123.5t31 -157q0 -85 -31 -156.5t-85.5 -124t-127 -81.5t-155.5 -29zM452 58q67 0 125 23t102 65.5t68.5 100.5t24.5 128t-24.5 128
t-68.5 100.5t-102 65.5t-125 23q-66 0 -124 -23t-102 -65.5t-68.5 -100.5t-24.5 -128t24.5 -128t68.5 -100.5t102 -65.5t124 -23zM705 342q-6 -61 -39.5 -107t-88 -71t-123.5 -25q-77 0 -134 30t-88.5 83.5t-31.5 124.5q0 72 31.5 125.5t88.5 83.5t134 30q69 0 123.5 -25
t88 -70.5t39.5 -107.5h-132q-8 43 -39.5 67t-80.5 24q-56 0 -88 -34.5t-32 -92.5q0 -57 32 -91.5t88 -34.5q51 0 81.5 23.5t38.5 67.5h132z" />
    <glyph glyph-name="ordfeminine" unicode="&#xaa;" horiz-adv-x="635" 
d="M436 304l-19 161l22 59l-22 63l19 159h166l-28 -221l28 -221h-166zM474 524q-10 -69 -42 -121.5t-81.5 -82t-111.5 -29.5q-64 0 -113.5 29.5t-77 82t-27.5 121.5q0 71 27.5 123.5t77 81.5t113.5 29q63 0 112.5 -29t81.5 -81.5t41 -123.5zM182 524q0 -31 13.5 -56t37 -39
t53.5 -14q49 0 88.5 31t55.5 78q-16 49 -55.5 80t-88.5 31q-30 0 -53.5 -14t-37 -39t-13.5 -58z" />
    <glyph glyph-name="guillemotleft" unicode="&#xab;" horiz-adv-x="704" 
d="M190 547h190l-168 -260v46l168 -259h-190l-148 236zM473 547h190l-168 -260v46l168 -259h-190l-148 236z" />
    <glyph glyph-name="logicalnot" unicode="&#xac;" horiz-adv-x="620" 
d="M451 186v287l83 -85h-508v136h560v-338h-135z" />
    <glyph glyph-name="uni00AD" unicode="&#xad;" 
 />
    <glyph glyph-name="registered" unicode="&#xae;" horiz-adv-x="785" 
d="M392 140q-72 0 -134 23t-107.5 65.5t-70.5 99.5t-25 125q0 67 25 124.5t70.5 99.5t107.5 65.5t134 23.5q73 0 135 -23.5t107.5 -65.5t70.5 -99.5t25 -124.5q0 -68 -25 -125t-70.5 -99.5t-107.5 -65.5t-135 -23zM392 206q80 0 139 32t92.5 87.5t33.5 127.5q0 71 -33.5 127
t-92.5 87.5t-139 31.5q-78 0 -138 -31.5t-93.5 -87.5t-33.5 -127q0 -72 33.5 -127.5t93.5 -87.5t138 -32zM239 631h93v-353h-93v353zM423 404h-115v71h107q22 0 34.5 11t12.5 31t-12.5 31t-34.5 11h-107v72h115q59 0 96 -31.5t37 -82.5t-37 -82t-96 -31zM360 443h96
l110 -165h-109z" />
    <glyph glyph-name="macron" unicode="&#xaf;" horiz-adv-x="518" 
d="M31 655v114h473v-114h-473z" />
    <glyph glyph-name="degree" unicode="&#xb0;" horiz-adv-x="455" 
d="M228 456q-54 0 -95 19t-64 53.5t-23 79.5t23 79t64 53t95 19q53 0 94 -19t64 -53t23 -79t-23 -79.5t-64 -53.5t-94 -19zM228 534q37 0 56.5 19t19.5 55q0 35 -19.5 54.5t-56.5 19.5t-57 -19.5t-20 -54.5q0 -36 20 -55t57 -19z" />
    <glyph glyph-name="plusminus" unicode="&#xb1;" horiz-adv-x="620" 
d="M242 220v411h136v-411h-136zM30 361v129h560v-129h-560zM30 165h560v-129h-560v129z" />
    <glyph glyph-name="uni00B2" unicode="&#xb2;" horiz-adv-x="539" 
d="M39 701q4 46 33.5 84t82 61t125.5 23q66 0 112.5 -19t71 -52.5t24.5 -76.5q0 -39 -17.5 -69t-52 -55t-84.5 -51l-128 -64l-63 35h349v-108h-449v84l179 97q42 23 69.5 41.5t41.5 36t14 37.5q0 24 -19.5 38t-58.5 14q-41 0 -63.5 -16t-27.5 -40h-139z" />
    <glyph glyph-name="uni00B3" unicode="&#xb3;" horiz-adv-x="580" 
d="M45 698q6 76 72.5 123.5t185.5 47.5q110 0 167.5 -36t57.5 -95q0 -52 -48 -80t-144 -26v16q79 1 123 -12t62 -37t18 -56q0 -61 -58.5 -102t-183.5 -41q-81 0 -140.5 22.5t-91.5 62.5t-33 91h137q5 -37 36.5 -52.5t82.5 -15.5t75.5 9.5t24.5 34.5q0 19 -16 29t-62 10h-74
v87h74q28 0 43 6t21.5 15.5t6.5 20.5q0 18 -19 29.5t-68 11.5q-54 0 -81 -17t-30 -46h-138z" />
    <glyph glyph-name="acute" unicode="&#xb4;" horiz-adv-x="360" 
d="M152 812h181l-133 -185h-173z" />
    <glyph glyph-name="paragraph" unicode="&#xb6;" horiz-adv-x="805" 
d="M246 750h277v-750h-136v409l91 -91h-232q-65 0 -115.5 27.5t-79 76t-28.5 112.5t28.5 112.5t79 76t115.5 27.5zM592 0v750h136v-750h-136z" />
    <glyph glyph-name="periodcentered" unicode="&#xb7;" horiz-adv-x="300" 
d="M150 261q-30 0 -54.5 14.5t-38.5 38.5t-14 54t14 54t38.5 38.5t54.5 14.5t54 -14.5t38.5 -38.5t14.5 -54t-14.5 -54t-38.5 -38.5t-54 -14.5z" />
    <glyph glyph-name="cedilla" unicode="&#xb8;" horiz-adv-x="423" 
d="M161 14h95l-57 -85l-44 2q22 12 48 19.5t60 7.5q66 0 100 -25.5t34 -70.5q0 -46 -45 -77.5t-131 -31.5q-76 0 -128 29.5t-67 77.5h114q8 -11 26.5 -20.5t54.5 -9.5q33 0 49.5 10t16.5 26q0 15 -13 24.5t-44 9.5q-16 0 -30 -3t-24 -8h-96z" />
    <glyph glyph-name="uni00B9" unicode="&#xb9;" horiz-adv-x="453" 
d="M317 859v-391h-131v365l73 -82l-204 -32v109l159 31h103zM49 517h379v-108h-379v108z" />
    <glyph glyph-name="ordmasculine" unicode="&#xba;" horiz-adv-x="603" 
d="M302 291q-85 0 -149 29.5t-99.5 82t-35.5 122.5q0 69 35.5 121.5t100 82t148.5 29.5t148 -29t99.5 -81.5t35.5 -122.5t-35.5 -122.5t-99.5 -82t-148 -29.5zM302 411q56 0 88.5 30.5t32.5 83.5t-32.5 83.5t-88.5 30.5q-57 0 -89.5 -30.5t-32.5 -83.5q0 -54 32.5 -84
t89.5 -30z" />
    <glyph glyph-name="guillemotright" unicode="&#xbb;" horiz-adv-x="704" 
d="M514 547l148 -237l-148 -236h-190l167 259v-46l-167 260h190zM231 547l148 -237l-148 -236h-190l168 259v-46l-168 260h190z" />
    <glyph glyph-name="onequarter" unicode="&#xbc;" horiz-adv-x="1123" 
d="M302 750v-391h-131v365l73 -82l-204 -32v109l159 31h103zM34 408h379v-108h-379v108zM711 750h138l-408 -750h-138zM1039 450v-450h-130v389l55 4l-217 -258l-19 42h378v-99h-476v91l241 281h168z" />
    <glyph glyph-name="onehalf" unicode="&#xbd;" horiz-adv-x="1167" 
d="M302 750v-391h-131v365l73 -82l-204 -32v109l159 31h103zM34 408h379v-108h-379v108zM707 750h138l-408 -750h-138zM676 292q4 46 33.5 84t82 61t125.5 23q66 0 112.5 -19t71 -52.5t24.5 -76.5q0 -39 -17.5 -69t-52 -55t-84.5 -51l-128 -64l-63 35h349v-108h-449v84
l179 97q42 23 69.5 41.5t41.5 36t14 37.5q0 24 -19.5 38t-58.5 14q-41 0 -63.5 -16t-27.5 -40h-139z" />
    <glyph glyph-name="threequarters" unicode="&#xbe;" horiz-adv-x="1222" 
d="M47 588q6 76 72.5 123.5t185.5 47.5q110 0 167.5 -36t57.5 -95q0 -52 -48 -80t-144 -26v16q79 1 123 -12t62 -37t18 -56q0 -61 -58.5 -102t-183.5 -41q-81 0 -140.5 22.5t-91.5 62.5t-33 91h137q5 -37 36.5 -52.5t82.5 -15.5t75.5 9.5t24.5 34.5q0 19 -16 29t-62 10h-74
v87h74q28 0 43 6t21.5 15.5t6.5 20.5q0 18 -19 29.5t-68 11.5q-54 0 -81 -17t-30 -46h-138zM801 750h138l-408 -750h-138zM1133 450v-450h-130v389l55 4l-217 -258l-19 42h378v-99h-476v91l241 281h168z" />
    <glyph glyph-name="questiondown" unicode="&#xbf;" horiz-adv-x="688" 
d="M443 315q0 -46 -26 -80.5t-84 -62.5l-77 -37q-26 -12 -41 -29.5t-15 -39.5q0 -42 36.5 -66.5t102.5 -24.5q68 0 109 29.5t47 81.5h179q-9 -121 -97.5 -189t-237.5 -68t-233 60.5t-84 168.5q0 53 30 96.5t90 71.5l84 41q25 12 37.5 27t12.5 37v20h162q3 -9 4 -18.5
t1 -17.5zM359 605q47 0 76.5 -27.5t29.5 -71.5t-29.5 -71t-76.5 -27t-76 27t-29 71t29 71.5t76 27.5z" />
    <glyph glyph-name="Agrave" unicode="&#xc0;" horiz-adv-x="943" 
d="M208 151v153h518v-153h-518zM594 750l346 -750h-201l-297 671h58l-296 -671h-202l347 750h245zM428 972l147 -165h-188l-171 165h212z" />
    <glyph glyph-name="Aacute" unicode="&#xc1;" horiz-adv-x="943" 
d="M208 151v153h518v-153h-518zM594 750l346 -750h-201l-297 671h58l-296 -671h-202l347 750h245zM503 972h212l-171 -165h-188z" />
    <glyph glyph-name="Acircumflex" unicode="&#xc2;" horiz-adv-x="943" 
d="M208 151v153h518v-153h-518zM594 750l346 -750h-201l-297 671h58l-296 -671h-202l347 750h245zM372 972h199l151 -165h-156l-137 104h85l-137 -104h-155z" />
    <glyph glyph-name="Atilde" unicode="&#xc3;" horiz-adv-x="943" 
d="M208 151v153h518v-153h-518zM594 750l346 -750h-201l-297 671h58l-296 -671h-202l347 750h245zM208 813q10 75 50 119.5t117 44.5q27 0 53 -7.5t49.5 -17t44.5 -17t38 -7.5q22 0 36 11.5t17 33.5h122q-10 -76 -50.5 -120.5t-116.5 -44.5q-27 0 -53 7.5t-49.5 17t-44.5 17
t-38 7.5q-22 0 -36 -11.5t-17 -32.5h-122z" />
    <glyph glyph-name="Adieresis" unicode="&#xc4;" horiz-adv-x="943" 
d="M208 151v153h518v-153h-518zM594 750l346 -750h-201l-297 671h58l-296 -671h-202l347 750h245zM318 810q-47 0 -75 24t-28 66q0 40 28 63.5t75 23.5t75.5 -23.5t28.5 -63.5q0 -42 -28.5 -66t-75.5 -24zM625 810q-47 0 -75.5 24t-28.5 66q0 40 28.5 63.5t75.5 23.5
q46 0 74.5 -23.5t28.5 -63.5q0 -42 -28.5 -66t-74.5 -24z" />
    <glyph glyph-name="Aring" unicode="&#xc5;" horiz-adv-x="943" 
d="M208 151v153h518v-153h-518zM594 750l346 -750h-201l-297 671h58l-296 -671h-202l347 750h245zM471 791q-89 0 -139 34.5t-50 96.5t50 96.5t139 34.5q91 0 140.5 -34.5t49.5 -96.5t-49.5 -96.5t-140.5 -34.5zM472 873q43 0 63.5 12.5t20.5 35.5q0 24 -20.5 36.5
t-63.5 12.5q-44 0 -64.5 -12.5t-20.5 -36.5q0 -23 20.5 -35.5t64.5 -12.5z" />
    <glyph glyph-name="AE" unicode="&#xc6;" horiz-adv-x="1256" 
d="M767 305l61 -150h390v-155h-524l-270 701h67l-284 -701h-202l320 750h868v-155h-539l61 -150h450v-140h-398zM195 151v153h494v-153h-494z" />
    <glyph glyph-name="Ccedilla" unicode="&#xc7;" horiz-adv-x="929" 
d="M896 310q-11 -97 -67 -170.5t-148 -114.5t-209 -41q-130 0 -227.5 49t-151.5 137t-54 205t54 205t151.5 137t227.5 49q117 0 209 -41t148 -114t67 -171h-190q-10 51 -40.5 87t-80 55.5t-114.5 19.5q-75 0 -129 -27.5t-83 -78.5t-29 -121t29 -121t83 -78.5t129 -27.5
q65 0 114.5 19t80 55t40.5 88h190zM431 18h92l-51 -88l-47 3q25 13 51.5 20t59.5 7q67 0 103 -26t36 -71q0 -48 -47 -79.5t-138 -31.5q-78 0 -131.5 28.5t-68.5 79.5h123q8 -13 26.5 -20.5t50.5 -7.5q34 0 50.5 10t16.5 25q0 14 -14 22.5t-42 8.5q-17 0 -32.5 -2t-27.5 -7
h-93z" />
    <glyph glyph-name="Egrave" unicode="&#xc8;" horiz-adv-x="787" 
d="M704 445v-140h-543v140h543zM289 375l-50 -310l-79 90h576v-155h-686l58 375l-58 375h681v-155h-571l79 90zM353 972l147 -165h-188l-171 165h212z" />
    <glyph glyph-name="Eacute" unicode="&#xc9;" horiz-adv-x="787" 
d="M704 445v-140h-543v140h543zM289 375l-50 -310l-79 90h576v-155h-686l58 375l-58 375h681v-155h-571l79 90zM428 972h212l-171 -165h-188z" />
    <glyph glyph-name="Ecircumflex" unicode="&#xca;" horiz-adv-x="787" 
d="M704 445v-140h-543v140h543zM289 375l-50 -310l-79 90h576v-155h-686l58 375l-58 375h681v-155h-571l79 90zM297 972h199l151 -165h-156l-137 104h85l-137 -104h-155z" />
    <glyph glyph-name="Edieresis" unicode="&#xcb;" horiz-adv-x="787" 
d="M704 445v-140h-543v140h543zM289 375l-50 -310l-79 90h576v-155h-686l58 375l-58 375h681v-155h-571l79 90zM243 810q-47 0 -75 24t-28 66q0 40 28 63.5t75 23.5t75.5 -23.5t28.5 -63.5q0 -42 -28.5 -66t-75.5 -24zM550 810q-47 0 -75.5 24t-28.5 66q0 40 28.5 63.5
t75.5 23.5q46 0 74.5 -23.5t28.5 -63.5q0 -42 -28.5 -66t-74.5 -24z" />
    <glyph glyph-name="Igrave" unicode="&#xcc;" horiz-adv-x="335" 
d="M73 750h189v-750h-189v750zM124 972l147 -165h-188l-171 165h212z" />
    <glyph glyph-name="Iacute" unicode="&#xcd;" horiz-adv-x="335" 
d="M73 750h189v-750h-189v750zM199 972h212l-171 -165h-188z" />
    <glyph glyph-name="Icircumflex" unicode="&#xce;" horiz-adv-x="335" 
d="M71 972h193l110 -165h-133l-96 102h45l-96 -102h-133zM73 750h189v-750h-189v750z" />
    <glyph glyph-name="Idieresis" unicode="&#xcf;" horiz-adv-x="335" 
d="M60 810q-40 0 -63 23.5t-23 65.5q0 41 23 64.5t63 23.5t63.5 -23.5t23.5 -64.5q0 -42 -23.5 -65.5t-63.5 -23.5zM275 810q-40 0 -63 23.5t-23 65.5q0 41 23 64.5t63 23.5t63 -23.5t23 -64.5q0 -42 -23 -65.5t-63 -23.5zM73 750h189v-750h-189v750z" />
    <glyph glyph-name="Eth" unicode="&#xd0;" horiz-adv-x="946" 
d="M27 440h440v-128h-440v128zM466 750q132 0 231 -47t154.5 -131t55.5 -197q0 -112 -55.5 -196.5t-154.5 -131.5t-231 -47h-366v750h366zM288 77l-92 90h284q72 0 125 26t82 72.5t29 109.5q0 64 -29 110t-82 72t-125 26h-284l92 90v-596z" />
    <glyph glyph-name="Ntilde" unicode="&#xd1;" horiz-adv-x="963" 
d="M768 129l-61 -11v632h183v-750h-238l-457 632l61 11v-643h-183v750h245zM231 813q10 75 50 119.5t117 44.5q27 0 53 -7.5t49.5 -17t44.5 -17t38 -7.5q22 0 36 11.5t17 33.5h122q-10 -76 -50.5 -120.5t-116.5 -44.5q-27 0 -53 7.5t-49.5 17t-44.5 17t-38 7.5
q-22 0 -36 -11.5t-17 -32.5h-122z" />
    <glyph glyph-name="Ograve" unicode="&#xd2;" horiz-adv-x="961" 
d="M480 -16q-132 0 -231.5 49t-154.5 137t-55 205t55 205t154.5 137t231.5 49t231.5 -49t155 -137t55.5 -205t-55.5 -205t-155 -137t-231.5 -49zM480 153q78 0 134 26.5t86.5 76.5t30.5 119t-30.5 119t-86.5 76.5t-134 26.5q-77 0 -133 -26.5t-87 -76.5t-31 -119t31 -119
t87 -76.5t133 -26.5zM437 972l147 -165h-188l-172 165h213z" />
    <glyph glyph-name="Oacute" unicode="&#xd3;" horiz-adv-x="961" 
d="M480 -16q-132 0 -231.5 49t-154.5 137t-55 205t55 205t154.5 137t231.5 49t231.5 -49t155 -137t55.5 -205t-55.5 -205t-155 -137t-231.5 -49zM480 153q78 0 134 26.5t86.5 76.5t30.5 119t-30.5 119t-86.5 76.5t-134 26.5q-77 0 -133 -26.5t-87 -76.5t-31 -119t31 -119
t87 -76.5t133 -26.5zM512 972h212l-171 -165h-188z" />
    <glyph glyph-name="Ocircumflex" unicode="&#xd4;" horiz-adv-x="961" 
d="M480 -16q-132 0 -231.5 49t-154.5 137t-55 205t55 205t154.5 137t231.5 49t231.5 -49t155 -137t55.5 -205t-55.5 -205t-155 -137t-231.5 -49zM480 153q78 0 134 26.5t86.5 76.5t30.5 119t-30.5 119t-86.5 76.5t-134 26.5q-77 0 -133 -26.5t-87 -76.5t-31 -119t31 -119
t87 -76.5t133 -26.5zM380 972h199l151 -165h-156l-137 104h85l-137 -104h-155z" />
    <glyph glyph-name="Otilde" unicode="&#xd5;" horiz-adv-x="961" 
d="M480 -16q-132 0 -231.5 49t-154.5 137t-55 205t55 205t154.5 137t231.5 49t231.5 -49t155 -137t55.5 -205t-55.5 -205t-155 -137t-231.5 -49zM480 153q78 0 134 26.5t86.5 76.5t30.5 119t-30.5 119t-86.5 76.5t-134 26.5q-77 0 -133 -26.5t-87 -76.5t-31 -119t31 -119
t87 -76.5t133 -26.5zM216 813q10 75 50 119.5t117 44.5q27 0 53 -7.5t49.5 -17t44.5 -17t38 -7.5q22 0 36 11.5t17 33.5h122q-10 -76 -50.5 -120.5t-116.5 -44.5q-27 0 -53 7.5t-49.5 17t-44.5 17t-38 7.5q-22 0 -36 -11.5t-17 -32.5h-122z" />
    <glyph glyph-name="Odieresis" unicode="&#xd6;" horiz-adv-x="961" 
d="M480 -16q-132 0 -231.5 49t-154.5 137t-55 205t55 205t154.5 137t231.5 49t231.5 -49t155 -137t55.5 -205t-55.5 -205t-155 -137t-231.5 -49zM480 153q78 0 134 26.5t86.5 76.5t30.5 119t-30.5 119t-86.5 76.5t-134 26.5q-77 0 -133 -26.5t-87 -76.5t-31 -119t31 -119
t87 -76.5t133 -26.5zM327 810q-47 0 -75 24t-28 66q0 40 28 63.5t75 23.5t75.5 -23.5t28.5 -63.5q0 -42 -28.5 -66t-75.5 -24zM634 810q-47 0 -75.5 24t-28.5 66q0 40 28.5 63.5t75.5 23.5q46 0 74.5 -23.5t28.5 -63.5q0 -42 -28.5 -66t-74.5 -24z" />
    <glyph glyph-name="multiply" unicode="&#xd7;" horiz-adv-x="620" 
d="M64 197l396 396l97 -96l-396 -396zM64 497l97 96l396 -396l-97 -96z" />
    <glyph glyph-name="Oslash" unicode="&#xd8;" horiz-adv-x="960" 
d="M729 767h172l-670 -784h-172zM480 -16q-132 0 -231.5 49t-154.5 137t-55 205t55 205t154.5 137t231.5 49q97 0 177.5 -28t139.5 -80t91.5 -123.5t32.5 -159.5q0 -117 -55 -205t-154.5 -137t-231.5 -49zM480 145q79 0 136 27.5t88 79.5t31 123t-31 123t-88 79.5t-136 27.5
t-136 -27.5t-88 -79.5t-31 -123t31 -123t88 -79.5t136 -27.5z" />
    <glyph glyph-name="Ugrave" unicode="&#xd9;" horiz-adv-x="874" 
d="M252 332q0 -55 21.5 -95.5t62.5 -62t101 -21.5t101 21.5t62.5 62t21.5 95.5v418h189v-427q0 -102 -47 -178t-131 -118.5t-196 -42.5t-196 42.5t-131 118.5t-47 178v427h189v-418zM393 972l147 -165h-188l-171 165h212z" />
    <glyph glyph-name="Uacute" unicode="&#xda;" horiz-adv-x="874" 
d="M252 332q0 -55 21.5 -95.5t62.5 -62t101 -21.5t101 21.5t62.5 62t21.5 95.5v418h189v-427q0 -102 -47 -178t-131 -118.5t-196 -42.5t-196 42.5t-131 118.5t-47 178v427h189v-418zM468 972h212l-171 -165h-188z" />
    <glyph glyph-name="Ucircumflex" unicode="&#xdb;" horiz-adv-x="874" 
d="M252 332q0 -55 21.5 -95.5t62.5 -62t101 -21.5t101 21.5t62.5 62t21.5 95.5v418h189v-427q0 -102 -47 -178t-131 -118.5t-196 -42.5t-196 42.5t-131 118.5t-47 178v427h189v-418zM337 972h199l151 -165h-156l-137 104h85l-137 -104h-155z" />
    <glyph glyph-name="Udieresis" unicode="&#xdc;" horiz-adv-x="874" 
d="M252 332q0 -55 21.5 -95.5t62.5 -62t101 -21.5t101 21.5t62.5 62t21.5 95.5v418h189v-427q0 -102 -47 -178t-131 -118.5t-196 -42.5t-196 42.5t-131 118.5t-47 178v427h189v-418zM283 810q-47 0 -75 24t-28 66q0 40 28 63.5t75 23.5t75.5 -23.5t28.5 -63.5
q0 -42 -28.5 -66t-75.5 -24zM590 810q-47 0 -75.5 24t-28.5 66q0 40 28.5 63.5t75.5 23.5q46 0 74.5 -23.5t28.5 -63.5q0 -42 -28.5 -66t-74.5 -24z" />
    <glyph glyph-name="Yacute" unicode="&#xdd;" horiz-adv-x="910" 
d="M361 0v363h189v-363h-189zM9 750h209l280 -356h-87l280 356h209l-384 -488l-122 -2zM487 972h212l-171 -165h-188z" />
    <glyph glyph-name="Thorn" unicode="&#xde;" horiz-adv-x="820" 
d="M73 750h189v-750h-189v750zM488 126h-291v152h280q55 0 86 27t31 75q0 47 -31 74t-86 27h-279v152h290q92 0 158.5 -31.5t102 -88.5t35.5 -133q0 -77 -35.5 -134t-102 -88.5t-158.5 -31.5z" />
    <glyph glyph-name="germandbls" unicode="&#xdf;" horiz-adv-x="880" 
d="M59 0v475q0 94 45 163.5t128.5 108.5t197.5 39q103 0 174.5 -25.5t107.5 -70.5t36 -102q0 -75 -59 -124t-168 -60l21 19q156 -3 233 -58.5t77 -149.5q0 -69 -37 -121t-106 -81t-166 -29q-66 0 -121 9.5t-116 29.5v143q66 -25 114 -35t94 -10q77 0 113.5 27.5t36.5 74.5
q0 31 -18 55t-59.5 37.5t-110.5 13.5h-77v129h44q60 0 92 24.5t32 63.5q0 47 -39.5 73.5t-108.5 26.5q-82 0 -128 -41t-46 -113v-492h-186z" />
    <glyph glyph-name="agrave" unicode="&#xe0;" horiz-adv-x="816" 
d="M578 0l-25 207l27 78l-27 77l25 208h193l-35 -285l35 -285h-193zM624 285q-15 -91 -57 -158.5t-106 -105t-144 -37.5q-84 0 -147.5 38t-99.5 105.5t-36 157.5t36 157.5t99.5 105.5t147.5 38q80 0 144 -37.5t106.5 -104.5t56.5 -159zM222 285q0 -46 19 -81.5t52.5 -56
t77.5 -20.5t83.5 20.5t69.5 56t45 81.5q-15 46 -45 81.5t-69.5 56t-83.5 20.5t-77.5 -20.5t-52.5 -56t-19 -81.5zM375 812l125 -185h-173l-133 185h181z" />
    <glyph glyph-name="aacute" unicode="&#xe1;" horiz-adv-x="816" 
d="M578 0l-25 207l27 78l-27 77l25 208h193l-35 -285l35 -285h-193zM624 285q-15 -91 -57 -158.5t-106 -105t-144 -37.5q-84 0 -147.5 38t-99.5 105.5t-36 157.5t36 157.5t99.5 105.5t147.5 38q80 0 144 -37.5t106.5 -104.5t56.5 -159zM222 285q0 -46 19 -81.5t52.5 -56
t77.5 -20.5t83.5 20.5t69.5 56t45 81.5q-15 46 -45 81.5t-69.5 56t-83.5 20.5t-77.5 -20.5t-52.5 -56t-19 -81.5zM427 812h181l-133 -185h-173z" />
    <glyph glyph-name="acircumflex" unicode="&#xe2;" horiz-adv-x="816" 
d="M578 0l-25 207l27 78l-27 77l25 208h193l-35 -285l35 -285h-193zM624 285q-15 -91 -57 -158.5t-106 -105t-144 -37.5q-84 0 -147.5 38t-99.5 105.5t-36 157.5t36 157.5t99.5 105.5t147.5 38q80 0 144 -37.5t106.5 -104.5t56.5 -159zM222 285q0 -46 19 -81.5t52.5 -56
t77.5 -20.5t83.5 20.5t69.5 56t45 81.5q-15 46 -45 81.5t-69.5 56t-83.5 20.5t-77.5 -20.5t-52.5 -56t-19 -81.5zM310 812h192l143 -185h-149l-133 137h85l-132 -137h-149z" />
    <glyph glyph-name="atilde" unicode="&#xe3;" horiz-adv-x="816" 
d="M578 0l-25 207l27 78l-27 77l25 208h193l-35 -285l35 -285h-193zM624 285q-15 -91 -57 -158.5t-106 -105t-144 -37.5q-84 0 -147.5 38t-99.5 105.5t-36 157.5t36 157.5t99.5 105.5t147.5 38q80 0 144 -37.5t106.5 -104.5t56.5 -159zM222 285q0 -46 19 -81.5t52.5 -56
t77.5 -20.5t83.5 20.5t69.5 56t45 81.5q-15 46 -45 81.5t-69.5 56t-83.5 20.5t-77.5 -20.5t-52.5 -56t-19 -81.5zM161 635q5 83 40 131t104 48q27 0 52 -8t47.5 -18t42.5 -18.5t37 -8.5q21 0 35 13.5t18 38.5h113q-4 -81 -39 -130t-105 -49q-26 0 -51.5 8t-48 18.5t-42 18.5
t-36.5 8q-21 0 -35 -13.5t-19 -38.5h-113z" />
    <glyph glyph-name="adieresis" unicode="&#xe4;" horiz-adv-x="816" 
d="M578 0l-25 207l27 78l-27 77l25 208h193l-35 -285l35 -285h-193zM624 285q-15 -91 -57 -158.5t-106 -105t-144 -37.5q-84 0 -147.5 38t-99.5 105.5t-36 157.5t36 157.5t99.5 105.5t147.5 38q80 0 144 -37.5t106.5 -104.5t56.5 -159zM222 285q0 -46 19 -81.5t52.5 -56
t77.5 -20.5t83.5 20.5t69.5 56t45 81.5q-15 46 -45 81.5t-69.5 56t-83.5 20.5t-77.5 -20.5t-52.5 -56t-19 -81.5zM254 630q-47 0 -75 24t-28 66q0 40 28 63.5t75 23.5t75.5 -23.5t28.5 -63.5q0 -42 -28.5 -66t-75.5 -24zM557 630q-47 0 -75.5 24t-28.5 66q0 40 28.5 63.5
t75.5 23.5q46 0 74.5 -23.5t28.5 -63.5q0 -42 -28.5 -66t-74.5 -24z" />
    <glyph glyph-name="aring" unicode="&#xe5;" horiz-adv-x="816" 
d="M578 0l-25 207l27 78l-27 77l25 208h193l-35 -285l35 -285h-193zM624 285q-15 -91 -57 -158.5t-106 -105t-144 -37.5q-84 0 -147.5 38t-99.5 105.5t-36 157.5t36 157.5t99.5 105.5t147.5 38q80 0 144 -37.5t106.5 -104.5t56.5 -159zM222 285q0 -46 19 -81.5t52.5 -56
t77.5 -20.5t83.5 20.5t69.5 56t45 81.5q-15 46 -45 81.5t-69.5 56t-83.5 20.5t-77.5 -20.5t-52.5 -56t-19 -81.5zM405 617q-85 0 -133.5 36t-48.5 99q0 62 48.5 98t133.5 36t133.5 -36t48.5 -98q0 -63 -48.5 -99t-133.5 -36zM405 695q37 0 56.5 15t19.5 42t-19.5 42
t-56.5 15q-36 0 -56 -15t-20 -42t20 -42t56 -15z" />
    <glyph glyph-name="ae" unicode="&#xe6;" horiz-adv-x="1261" 
d="M957 -16q-102 0 -177 39t-116.5 107t-41.5 155q0 90 37.5 157.5t105.5 105.5t161 38q98 0 166 -44t102.5 -122t31.5 -180h-502v102h399l-54 -41q-3 49 -22 84t-53 54t-82 19q-46 0 -81.5 -19t-55 -54.5t-19.5 -83.5q0 -56 25 -96t75 -61.5t124 -21.5q61 0 120 15.5
t110 45.5v-117q-34 -25 -72.5 -43.5t-82.5 -28.5t-98 -10zM564 0l-14 207l27 78l-27 77l14 208h136l14 -281l-14 -289h-136zM624 285q-15 -91 -57 -158.5t-106 -105t-144 -37.5q-84 0 -147.5 38t-99.5 105.5t-36 157.5t36 157.5t99.5 105.5t147.5 38q80 0 144 -37.5
t106.5 -104.5t56.5 -159zM222 285q0 -46 19 -81.5t52.5 -56t77.5 -20.5t83.5 20.5t69.5 56t45 81.5q-15 46 -45 81.5t-69.5 56t-83.5 20.5t-77.5 -20.5t-52.5 -56t-19 -81.5z" />
    <glyph glyph-name="ccedilla" unicode="&#xe7;" horiz-adv-x="752" 
d="M726 237q-8 -75 -55.5 -132t-122 -89t-167.5 -32q-103 0 -182 38t-123 106t-44 157t44 157t123 106t182 38q93 0 167.5 -32t122 -88.5t55.5 -132.5h-185q-11 55 -54.5 84t-105.5 29q-49 0 -85.5 -19t-56.5 -55t-20 -87t20 -87t56.5 -55t85.5 -19q63 0 106 30.5t54 82.5
h185zM343 14h95l-57 -85l-44 2q22 12 48 19.5t60 7.5q66 0 100 -25.5t34 -70.5q0 -46 -45 -77.5t-131 -31.5q-76 0 -128 29.5t-67 77.5h114q8 -11 26.5 -20.5t54.5 -9.5q33 0 49.5 10t16.5 26q0 15 -13 24.5t-44 9.5q-16 0 -30 -3t-24 -8h-96z" />
    <glyph glyph-name="egrave" unicode="&#xe8;" horiz-adv-x="728" 
d="M387 -16q-102 0 -182.5 38t-126.5 106t-46 159q0 89 44 156t121.5 105t175.5 38q100 0 172 -44t111 -124t39 -188h-514v117h412l-67 -42q-3 47 -22.5 79.5t-51.5 50t-76 17.5q-48 0 -83 -19t-54.5 -53t-19.5 -79q0 -57 25.5 -97t74 -61t118.5 -21q64 0 128 17.5t115 49.5
v-121q-58 -40 -132.5 -62t-160.5 -22zM341 812l125 -185h-174l-132 185h181z" />
    <glyph glyph-name="eacute" unicode="&#xe9;" horiz-adv-x="728" 
d="M387 -16q-102 0 -182.5 38t-126.5 106t-46 159q0 89 44 156t121.5 105t175.5 38q100 0 172 -44t111 -124t39 -188h-514v117h412l-67 -42q-3 47 -22.5 79.5t-51.5 50t-76 17.5q-48 0 -83 -19t-54.5 -53t-19.5 -79q0 -57 25.5 -97t74 -61t118.5 -21q64 0 128 17.5t115 49.5
v-121q-58 -40 -132.5 -62t-160.5 -22zM393 812h181l-133 -185h-173z" />
    <glyph glyph-name="ecircumflex" unicode="&#xea;" horiz-adv-x="728" 
d="M387 -16q-102 0 -182.5 38t-126.5 106t-46 159q0 89 44 156t121.5 105t175.5 38q100 0 172 -44t111 -124t39 -188h-514v117h412l-67 -42q-3 47 -22.5 79.5t-51.5 50t-76 17.5q-48 0 -83 -19t-54.5 -53t-19.5 -79q0 -57 25.5 -97t74 -61t118.5 -21q64 0 128 17.5t115 49.5
v-121q-58 -40 -132.5 -62t-160.5 -22zM275 812h192l143 -185h-149l-133 137h85l-132 -137h-149z" />
    <glyph glyph-name="edieresis" unicode="&#xeb;" horiz-adv-x="728" 
d="M387 -16q-102 0 -182.5 38t-126.5 106t-46 159q0 89 44 156t121.5 105t175.5 38q100 0 172 -44t111 -124t39 -188h-514v117h412l-67 -42q-3 47 -22.5 79.5t-51.5 50t-76 17.5q-48 0 -83 -19t-54.5 -53t-19.5 -79q0 -57 25.5 -97t74 -61t118.5 -21q64 0 128 17.5t115 49.5
v-121q-58 -40 -132.5 -62t-160.5 -22zM220 630q-47 0 -75 24t-28 66q0 40 28 63.5t75 23.5t75.5 -23.5t28.5 -63.5q0 -42 -28.5 -66t-75.5 -24zM523 630q-47 0 -75.5 24t-28.5 66q0 40 28.5 63.5t75.5 23.5q46 0 74.5 -23.5t28.5 -63.5q0 -42 -28.5 -66t-74.5 -24z" />
    <glyph glyph-name="igrave" unicode="&#xec;" horiz-adv-x="305" 
d="M60 578l92 -19l93 19v-578h-185v578zM122 812l125 -185h-173l-133 185h181z" />
    <glyph glyph-name="iacute" unicode="&#xed;" horiz-adv-x="305" 
d="M60 578l92 -19l93 19v-578h-185v578zM174 812h181l-133 -185h-173z" />
    <glyph glyph-name="icircumflex" unicode="&#xee;" horiz-adv-x="305" 
d="M56 812h192l95 -185h-127l-87 129h46l-87 -129h-126zM60 578l92 -19l93 19v-578h-185v578z" />
    <glyph glyph-name="idieresis" unicode="&#xef;" horiz-adv-x="305" 
d="M56 630q-38 0 -60.5 25t-22.5 68q0 44 22.5 68.5t60.5 24.5q39 0 61.5 -24.5t22.5 -68.5q0 -43 -22.5 -68t-61.5 -25zM255 630q-39 0 -61.5 25t-22.5 68q0 44 22.5 68.5t61.5 24.5q38 0 60.5 -24.5t22.5 -68.5q0 -43 -22.5 -68t-60.5 -25zM60 578l92 -19l93 19v-578h-185
v578z" />
    <glyph glyph-name="eth" unicode="&#xf0;" horiz-adv-x="783" 
d="M394 -16q-109 0 -191 34.5t-127 96t-45 143.5q0 78 41.5 136.5t116.5 91.5t173 33q63 0 119 -17.5t102 -59.5l-21 -2q-31 61 -75.5 116.5t-101.5 106.5t-125 95l184 28q106 -80 173 -160t99 -161t32 -165q0 -92 -42 -163.5t-121 -112t-191 -40.5zM391 124q55 0 93.5 15.5
t59.5 45.5t21 70t-21 69.5t-59.5 45.5t-93.5 16q-53 0 -92 -15.5t-60 -45t-21 -70.5q0 -40 21 -70t60 -45.5t92 -15.5zM255 553v95l450 87v-96z" />
    <glyph glyph-name="ntilde" unicode="&#xf1;" horiz-adv-x="778" 
d="M33 570h185l37 -222v-348h-186v376zM468 586q82 0 139.5 -32.5t88 -92.5t30.5 -143v-318h-186v290q0 71 -35 107.5t-100 36.5q-46 0 -79.5 -19.5t-52 -55t-18.5 -84.5l-59 31q11 91 49.5 153t96 94.5t126.5 32.5zM153 635q5 83 40 131t104 48q27 0 52 -8t47.5 -18
t42.5 -18.5t37 -8.5q21 0 35 13.5t18 38.5h113q-4 -81 -39 -130t-105 -49q-26 0 -51.5 8t-48 18.5t-42 18.5t-36.5 8q-21 0 -35 -13.5t-19 -38.5h-113z" />
    <glyph glyph-name="ograve" unicode="&#xf2;" horiz-adv-x="785" 
d="M392 -16q-108 0 -189 38t-126 105.5t-45 157.5t45 157.5t126 105.5t189 38t189.5 -38t126.5 -105.5t45 -157.5t-45 -157.5t-126.5 -105.5t-189.5 -38zM392 124q55 0 93.5 19.5t59 55.5t20.5 86t-20.5 86t-59 55.5t-93.5 19.5q-53 0 -92 -19.5t-60 -55.5t-21 -86t21 -86
t60 -55.5t92 -19.5zM362 812l125 -185h-173l-133 185h181z" />
    <glyph glyph-name="oacute" unicode="&#xf3;" horiz-adv-x="785" 
d="M392 -16q-108 0 -189 38t-126 106t-45 157q0 90 45 157.5t126.5 105.5t188.5 38q108 0 189.5 -38t126.5 -105.5t45 -157.5t-45 -157.5t-126.5 -105.5t-189.5 -38zM392 124q55 0 93.5 19.5t59 55.5t20.5 86t-20.5 86t-59 55.5t-93.5 19.5q-53 0 -92 -19.5t-60 -55.5
t-21 -86t21 -86t60 -55.5t92 -19.5zM414 812h181l-133 -185h-173z" />
    <glyph glyph-name="ocircumflex" unicode="&#xf4;" horiz-adv-x="785" 
d="M392 -16q-108 0 -189 38t-126 106t-45 157q0 90 45 157.5t126.5 105.5t188.5 38q108 0 189.5 -38t126.5 -105.5t45 -157.5t-45 -157.5t-126.5 -105.5t-189.5 -38zM392 124q55 0 93.5 19.5t59 55.5t20.5 86t-20.5 86t-59 55.5t-93.5 19.5q-53 0 -92 -19.5t-60 -55.5
t-21 -86t21 -86t60 -55.5t92 -19.5zM297 812h192l143 -185h-149l-133 137h85l-132 -137h-149z" />
    <glyph glyph-name="otilde" unicode="&#xf5;" horiz-adv-x="785" 
d="M392 -16q-108 0 -189 38t-126 106t-45 157q0 90 45 157.5t126.5 105.5t188.5 38q108 0 189.5 -38t126.5 -105.5t45 -157.5t-45 -157.5t-126.5 -105.5t-189.5 -38zM392 124q55 0 93.5 19.5t59 55.5t20.5 86t-20.5 86t-59 55.5t-93.5 19.5q-53 0 -92 -19.5t-60 -55.5
t-21 -86t21 -86t60 -55.5t92 -19.5zM147 635q5 83 40 131t104 48q27 0 52 -8t47.5 -18t42.5 -18.5t37 -8.5q21 0 35 13.5t18 38.5h113q-4 -81 -39 -130t-105 -49q-26 0 -51.5 8t-48 18.5t-42 18.5t-36.5 8q-21 0 -35 -13.5t-19 -38.5h-113z" />
    <glyph glyph-name="odieresis" unicode="&#xf6;" horiz-adv-x="785" 
d="M392 -16q-108 0 -189 38t-126 106t-45 157q0 90 45 157.5t126.5 105.5t188.5 38q108 0 189.5 -38t126.5 -105.5t45 -157.5t-45 -157.5t-126.5 -105.5t-189.5 -38zM392 124q55 0 93.5 19.5t59 55.5t20.5 86t-20.5 86t-59 55.5t-93.5 19.5q-53 0 -92 -19.5t-60 -55.5
t-21 -86t21 -86t60 -55.5t92 -19.5zM241 630q-47 0 -75 24t-28 66q0 40 28 63.5t75 23.5t75.5 -23.5t28.5 -63.5q0 -42 -28.5 -66t-75.5 -24zM544 630q-47 0 -75.5 24t-28.5 66q0 40 28.5 63.5t75.5 23.5q46 0 74.5 -23.5t28.5 -63.5q0 -42 -28.5 -66t-74.5 -24z" />
    <glyph glyph-name="divide" unicode="&#xf7;" horiz-adv-x="620" 
d="M300 477q-38 0 -62 23.5t-24 59.5q0 37 24 60t62 23t62 -23t24 -60q0 -36 -24 -59.5t-62 -23.5zM300 65q-38 0 -62 23.5t-24 59.5t24 59.5t62 23.5t62 -23.5t24 -59.5t-24 -59.5t-62 -23.5zM30 422h560v-136h-560v136z" />
    <glyph glyph-name="oslash" unicode="&#xf8;" horiz-adv-x="785" 
d="M575 599h168l-534 -628h-167zM392 -16q-108 0 -189 38t-126 105.5t-45 157.5t45 157.5t126 105.5t189 38t189.5 -38t126.5 -105.5t45 -157.5t-45 -157.5t-126.5 -105.5t-189.5 -38zM392 110q58 0 98.5 21.5t62.5 60.5t22 93t-22 93.5t-62.5 60.5t-98.5 21q-56 0 -97 -21
t-63 -60.5t-22 -93.5t22 -93t63 -60.5t97 -21.5z" />
    <glyph glyph-name="ugrave" unicode="&#xf9;" horiz-adv-x="766" 
d="M303 -15q-80 0 -136 32.5t-85.5 92.5t-29.5 142v318h186v-291q0 -69 33 -106t95 -37q46 0 78 19t49.5 55t17.5 85l58 -31q-10 -90 -47.5 -152.5t-94 -94.5t-124.5 -32zM547 0l-36 222v348h186v-376l36 -194h-186zM350 812l125 -185h-173l-133 185h181z" />
    <glyph glyph-name="uacute" unicode="&#xfa;" horiz-adv-x="766" 
d="M303 -15q-80 0 -136 32.5t-85.5 92.5t-29.5 142v318h186v-291q0 -69 33 -106t95 -37q46 0 78 19t49.5 55t17.5 85l58 -31q-10 -90 -47.5 -152.5t-94 -94.5t-124.5 -32zM547 0l-36 222v348h186v-376l36 -194h-186zM402 812h181l-133 -185h-173z" />
    <glyph glyph-name="ucircumflex" unicode="&#xfb;" horiz-adv-x="766" 
d="M303 -15q-80 0 -136 32.5t-85.5 92.5t-29.5 142v318h186v-291q0 -69 33 -106t95 -37q46 0 78 19t49.5 55t17.5 85l58 -31q-10 -90 -47.5 -152.5t-94 -94.5t-124.5 -32zM547 0l-36 222v348h186v-376l36 -194h-186zM285 812h192l143 -185h-149l-133 137h85l-132 -137h-149z
" />
    <glyph glyph-name="udieresis" unicode="&#xfc;" horiz-adv-x="766" 
d="M303 -15q-80 0 -136 32.5t-85.5 92.5t-29.5 142v318h186v-291q0 -69 33 -106t95 -37q46 0 78 19t49.5 55t17.5 85l58 -31q-10 -90 -47.5 -152.5t-94 -94.5t-124.5 -32zM547 0l-36 222v348h186v-376l36 -194h-186zM229 630q-47 0 -75 24t-28 66q0 40 28 63.5t75 23.5
t75.5 -23.5t28.5 -63.5q0 -42 -28.5 -66t-75.5 -24zM532 630q-47 0 -75.5 24t-28.5 66q0 40 28.5 63.5t75.5 23.5q46 0 74.5 -23.5t28.5 -63.5q0 -42 -28.5 -66t-74.5 -24z" />
    <glyph glyph-name="yacute" unicode="&#xfd;" horiz-adv-x="761" 
d="M234 -181q-60 0 -106.5 15t-90.5 45v131q45 -29 84.5 -41.5t86.5 -12.5q42 0 73.5 18t52.5 66l228 530h197l-279 -588q-28 -60 -67 -96t-84.5 -51.5t-94.5 -15.5zM256 45l-247 525h204l222 -525h-179zM411 812h181l-133 -185h-173z" />
    <glyph glyph-name="thorn" unicode="&#xfe;" horiz-adv-x="808" 
d="M60 770h185v-372l-7 -24v-148l7 -44v-347h-185v935zM184 285q15 92 57 159t106.5 104.5t143.5 37.5q84 0 147.5 -38t99.5 -105.5t36 -157.5t-36 -157.5t-99.5 -105.5t-147.5 -38q-80 0 -143.5 37.5t-105.5 105t-58 158.5zM586 285q0 46 -19 81.5t-52.5 56t-76.5 20.5
q-44 0 -84 -20.5t-69.5 -56t-45.5 -81.5q16 -46 45.5 -81.5t69.5 -56t84 -20.5q43 0 76.5 20.5t52.5 56t19 81.5z" />
    <glyph glyph-name="ydieresis" unicode="&#xff;" horiz-adv-x="761" 
d="M234 -181q-60 0 -106.5 15t-90.5 45v131q45 -29 84.5 -41.5t86.5 -12.5q42 0 73.5 18t52.5 66l228 530h197l-279 -588q-28 -60 -67 -96t-84.5 -51.5t-94.5 -15.5zM256 45l-247 525h204l222 -525h-179zM238 630q-47 0 -75 24t-28 66q0 40 28 63.5t75 23.5t75.5 -23.5
t28.5 -63.5q0 -42 -28.5 -66t-75.5 -24zM541 630q-47 0 -75.5 24t-28.5 66q0 40 28.5 63.5t75.5 23.5q46 0 74.5 -23.5t28.5 -63.5q0 -42 -28.5 -66t-74.5 -24z" />
    <glyph glyph-name="Amacron" unicode="&#x100;" horiz-adv-x="943" 
d="M208 151v153h518v-153h-518zM594 750l346 -750h-201l-297 671h58l-296 -671h-202l347 750h245zM235 830v113h474v-113h-474z" />
    <glyph glyph-name="amacron" unicode="&#x101;" horiz-adv-x="816" 
d="M578 0l-25 207l27 78l-27 77l25 208h193l-35 -285l35 -285h-193zM624 285q-15 -91 -57 -158.5t-106 -105t-144 -37.5q-84 0 -147.5 38t-99.5 105.5t-36 157.5t36 157.5t99.5 105.5t147.5 38q80 0 144 -37.5t106.5 -104.5t56.5 -159zM222 285q0 -46 19 -81.5t52.5 -56
t77.5 -20.5t83.5 20.5t69.5 56t45 81.5q-15 46 -45 81.5t-69.5 56t-83.5 20.5t-77.5 -20.5t-52.5 -56t-19 -81.5zM169 655v114h473v-114h-473z" />
    <glyph glyph-name="Abreve" unicode="&#x102;" horiz-adv-x="943" 
d="M208 151v153h518v-153h-518zM594 750l346 -750h-201l-297 671h58l-296 -671h-202l347 750h245zM227 975h143q14 -29 39 -45t62 -16q38 0 63.5 16t38.5 45h143q-23 -88 -87.5 -131.5t-157.5 -43.5q-91 0 -156 43.5t-88 131.5z" />
    <glyph glyph-name="abreve" unicode="&#x103;" horiz-adv-x="816" 
d="M578 0l-25 207l27 78l-27 77l25 208h193l-35 -285l35 -285h-193zM624 285q-15 -91 -57 -158.5t-106 -105t-144 -37.5q-84 0 -147.5 38t-99.5 105.5t-36 157.5t36 157.5t99.5 105.5t147.5 38q80 0 144 -37.5t106.5 -104.5t56.5 -159zM222 285q0 -46 19 -81.5t52.5 -56
t77.5 -20.5t83.5 20.5t69.5 56t45 81.5q-15 46 -45 81.5t-69.5 56t-83.5 20.5t-77.5 -20.5t-52.5 -56t-19 -81.5zM171 811h138q8 -36 33 -56.5t63 -20.5t63.5 20.5t33.5 56.5h138q-13 -89 -73.5 -140t-161.5 -51q-99 0 -159.5 51t-74.5 140z" />
    <glyph glyph-name="Aogonek" unicode="&#x104;" horiz-adv-x="943" 
d="M208 151v153h518v-153h-518zM594 750l346 -750h-201l-297 671h58l-296 -671h-202l347 750h245zM852 19l65 -6v-13h23q-37 -10 -64 -22t-42 -24t-15 -25q0 -28 62 -28q16 0 31 1.5t28 4.5v-101q-13 -5 -43 -9.5t-62 -4.5q-68 0 -109.5 26.5t-41.5 69.5q0 44 41.5 76.5
t126.5 54.5z" />
    <glyph glyph-name="aogonek" unicode="&#x105;" horiz-adv-x="816" 
d="M578 0l-25 207l27 78l-27 77l25 208h193l-35 -285l35 -285h-193zM624 285q-15 -91 -57 -158.5t-106 -105t-144 -37.5q-84 0 -147.5 38t-99.5 105.5t-36 157.5t36 157.5t99.5 105.5t147.5 38q80 0 144 -37.5t106.5 -104.5t56.5 -159zM222 285q0 -46 19 -81.5t52.5 -56
t77.5 -20.5t83.5 20.5t69.5 56t45 81.5q-15 46 -45 81.5t-69.5 56t-83.5 20.5t-77.5 -20.5t-52.5 -56t-19 -81.5zM683 19l65 -6v-13h23q-37 -10 -64 -22t-42 -24t-15 -25q0 -28 62 -28q16 0 31 1.5t28 4.5v-101q-13 -5 -43 -9.5t-62 -4.5q-68 0 -109.5 26.5t-41.5 69.5
q0 44 41.5 76.5t126.5 54.5z" />
    <glyph glyph-name="Cacute" unicode="&#x106;" horiz-adv-x="929" 
d="M896 310q-11 -97 -67 -170.5t-148 -114.5t-209 -41q-130 0 -227.5 49t-151.5 137t-54 205t54 205t151.5 137t227.5 49q117 0 209 -41t148 -114t67 -171h-190q-10 51 -40.5 87t-80 55.5t-114.5 19.5q-75 0 -129 -27.5t-83 -78.5t-29 -121t29 -121t83 -78.5t129 -27.5
q65 0 114.5 19t80 55t40.5 88h190zM499 972h212l-171 -165h-188z" />
    <glyph glyph-name="cacute" unicode="&#x107;" horiz-adv-x="752" 
d="M726 237q-8 -75 -55.5 -132t-122 -89t-167.5 -32q-103 0 -182 38t-123 106t-44 157t44 157t123 106t182 38q93 0 167.5 -32t122 -88.5t55.5 -132.5h-185q-11 55 -54.5 84t-105.5 29q-49 0 -85.5 -19t-56.5 -55t-20 -87t20 -87t56.5 -55t85.5 -19q63 0 106 30.5t54 82.5
h185zM404 812h181l-133 -185h-173z" />
    <glyph glyph-name="Ccircumflex" unicode="&#x108;" horiz-adv-x="929" 
d="M896 310q-11 -97 -67 -170.5t-148 -114.5t-209 -41q-130 0 -227.5 49t-151.5 137t-54 205t54 205t151.5 137t227.5 49q117 0 209 -41t148 -114t67 -171h-190q-10 51 -40.5 87t-80 55.5t-114.5 19.5q-75 0 -129 -27.5t-83 -78.5t-29 -121t29 -121t83 -78.5t129 -27.5
q65 0 114.5 19t80 55t40.5 88h190zM368 972h199l151 -165h-156l-137 104h85l-137 -104h-155z" />
    <glyph glyph-name="ccircumflex" unicode="&#x109;" horiz-adv-x="752" 
d="M726 237q-8 -75 -55.5 -132t-122 -89t-167.5 -32q-103 0 -182 38t-123 106t-44 157t44 157t123 106t182 38q93 0 167.5 -32t122 -88.5t55.5 -132.5h-185q-11 55 -54.5 84t-105.5 29q-49 0 -85.5 -19t-56.5 -55t-20 -87t20 -87t56.5 -55t85.5 -19q63 0 106 30.5t54 82.5
h185zM287 812h192l143 -185h-149l-133 137h85l-132 -137h-149z" />
    <glyph glyph-name="Cdotaccent" unicode="&#x10a;" horiz-adv-x="929" 
d="M896 310q-11 -97 -67 -170.5t-148 -114.5t-209 -41q-130 0 -227.5 49t-151.5 137t-54 205t54 205t151.5 137t227.5 49q117 0 209 -41t148 -114t67 -171h-190q-10 51 -40.5 87t-80 55.5t-114.5 19.5q-75 0 -129 -27.5t-83 -78.5t-29 -121t29 -121t83 -78.5t129 -27.5
q65 0 114.5 19t80 55t40.5 88h190zM468 810q-49 0 -80 25.5t-31 67.5q0 43 31 68.5t80 25.5q50 0 80 -25.5t30 -68.5q0 -42 -30 -67.5t-80 -25.5z" />
    <glyph glyph-name="cdotaccent" unicode="&#x10b;" horiz-adv-x="752" 
d="M726 237q-8 -75 -55.5 -132t-122 -89t-167.5 -32q-103 0 -182 38t-123 106t-44 157t44 157t123 106t182 38q93 0 167.5 -32t122 -88.5t55.5 -132.5h-185q-11 55 -54.5 84t-105.5 29q-49 0 -85.5 -19t-56.5 -55t-20 -87t20 -87t56.5 -55t85.5 -19q63 0 106 30.5t54 82.5
h185zM383 630q-49 0 -80 25.5t-31 67.5q0 43 31 68t80 25q50 0 80 -25t30 -68q0 -42 -30 -67.5t-80 -25.5z" />
    <glyph glyph-name="Ccaron" unicode="&#x10c;" horiz-adv-x="929" 
d="M896 310q-11 -97 -67 -170.5t-148 -114.5t-209 -41q-130 0 -227.5 49t-151.5 137t-54 205t54 205t151.5 137t227.5 49q117 0 209 -41t148 -114t67 -171h-190q-10 51 -40.5 87t-80 55.5t-114.5 19.5q-75 0 -129 -27.5t-83 -78.5t-29 -121t29 -121t83 -78.5t129 -27.5
q65 0 114.5 19t80 55t40.5 88h190zM567 806h-198l-152 165h156l137 -104h-85l137 104h155z" />
    <glyph glyph-name="ccaron" unicode="&#x10d;" horiz-adv-x="752" 
d="M726 237q-8 -75 -55.5 -132t-122 -89t-167.5 -32q-103 0 -182 38t-123 106t-44 157t44 157t123 106t182 38q93 0 167.5 -32t122 -88.5t55.5 -132.5h-185q-11 55 -54.5 84t-105.5 29q-49 0 -85.5 -19t-56.5 -55t-20 -87t20 -87t56.5 -55t85.5 -19q63 0 106 30.5t54 82.5
h185zM479 627h-193l-143 185h149l133 -137h-85l132 137h150z" />
    <glyph glyph-name="Dcaron" unicode="&#x10e;" horiz-adv-x="919" 
d="M439 750q132 0 231 -47t154.5 -131t55.5 -197q0 -112 -55.5 -196.5t-154.5 -131.5t-231 -47h-366v750h366zM261 77l-92 90h284q72 0 125 26t82 72.5t29 109.5q0 64 -29 110t-82 72t-125 26h-284l92 90v-596zM531 806h-198l-151 165h155l137 -104h-84l137 104h155z" />
    <glyph glyph-name="dcaron" unicode="&#x10f;" horiz-adv-x="818" 
d="M581 0l-25 215l34 68l-33 86l46 401h193l-57 -471l34 -299h-192zM624 285q-15 -91 -57 -158.5t-106 -105t-144 -37.5q-84 0 -147.5 38t-99.5 105.5t-36 157.5t36 157.5t99.5 105.5t147.5 38q80 0 144 -37.5t106.5 -104.5t56.5 -159zM222 285q0 -46 19 -81.5t52.5 -56
t77.5 -20.5t83.5 20.5t69.5 56t45 81.5q-15 46 -45 81.5t-69.5 56t-83.5 20.5t-77.5 -20.5t-52.5 -56t-19 -81.5zM853 833h163l-59 -202h-129z" />
    <glyph glyph-name="Dcroat" unicode="&#x110;" horiz-adv-x="946" 
d="M27 440h440v-128h-440v128zM466 750q132 0 231 -47t154.5 -131t55.5 -197q0 -112 -55.5 -196.5t-154.5 -131.5t-231 -47h-366v750h366zM288 77l-92 90h284q72 0 125 26t82 72.5t29 109.5q0 64 -29 110t-82 72t-125 26h-284l92 90v-596z" />
    <glyph glyph-name="dcroat" unicode="&#x111;" horiz-adv-x="807" 
d="M317 -16q-83 0 -147 36t-100 101t-36 150q0 87 36 151.5t100 101t147 36.5q80 0 144 -36t106.5 -100.5t56.5 -152.5q-15 -86 -57 -150.5t-106 -100.5t-144 -36zM371 127q44 0 83.5 18.5t69.5 51.5t45 74q-15 43 -45 75.5t-69.5 51t-83.5 18.5q-43 0 -77 -18.5t-53 -51
t-19 -75.5q0 -41 19 -74t53 -51.5t77 -18.5zM562 0v152l25 49v134l-25 48v387h186v-770h-186zM285 600v112h536v-112h-536z" />
    <glyph glyph-name="Emacron" unicode="&#x112;" horiz-adv-x="787" 
d="M704 445v-140h-543v140h543zM289 375l-50 -310l-79 90h576v-155h-686l58 375l-58 375h681v-155h-571l79 90zM160 830v113h474v-113h-474z" />
    <glyph glyph-name="emacron" unicode="&#x113;" horiz-adv-x="728" 
d="M387 -16q-102 0 -182.5 38t-126.5 106t-46 159q0 89 44 156t121.5 105t175.5 38q100 0 172 -44t111 -124t39 -188h-514v117h412l-67 -42q-3 47 -22.5 79.5t-51.5 50t-76 17.5q-48 0 -83 -19t-54.5 -53t-19.5 -79q0 -57 25.5 -97t74 -61t118.5 -21q64 0 128 17.5t115 49.5
v-121q-58 -40 -132.5 -62t-160.5 -22zM135 655v114h473v-114h-473z" />
    <glyph glyph-name="Ebreve" unicode="&#x114;" horiz-adv-x="787" 
d="M704 445v-140h-543v140h543zM289 375l-50 -310l-79 90h576v-155h-686l58 375l-58 375h681v-155h-571l79 90zM152 975h143q14 -29 39 -45t62 -16q38 0 63.5 16t38.5 45h143q-23 -88 -87.5 -131.5t-157.5 -43.5q-91 0 -156 43.5t-88 131.5z" />
    <glyph glyph-name="ebreve" unicode="&#x115;" horiz-adv-x="728" 
d="M387 -16q-102 0 -182.5 38t-126.5 106t-46 159q0 89 44 156t121.5 105t175.5 38q100 0 172 -44t111 -124t39 -188h-514v117h412l-67 -42q-3 47 -22.5 79.5t-51.5 50t-76 17.5q-48 0 -83 -19t-54.5 -53t-19.5 -79q0 -57 25.5 -97t74 -61t118.5 -21q64 0 128 17.5t115 49.5
v-121q-58 -40 -132.5 -62t-160.5 -22zM137 811h138q8 -36 33 -56.5t63 -20.5t63.5 20.5t33.5 56.5h138q-13 -89 -73.5 -140t-161.5 -51q-99 0 -159.5 51t-74.5 140z" />
    <glyph glyph-name="Edotaccent" unicode="&#x116;" horiz-adv-x="787" 
d="M704 445v-140h-543v140h543zM289 375l-50 -310l-79 90h576v-155h-686l58 375l-58 375h681v-155h-571l79 90zM397 810q-49 0 -80 25.5t-31 67.5q0 43 31 68.5t80 25.5q50 0 80 -25.5t30 -68.5q0 -42 -30 -67.5t-80 -25.5z" />
    <glyph glyph-name="edotaccent" unicode="&#x117;" horiz-adv-x="728" 
d="M387 -16q-102 0 -182.5 38t-126.5 106t-46 159q0 89 44 156t121.5 105t175.5 38q100 0 172 -44t111 -124t39 -188h-514v117h412l-67 -42q-3 47 -22.5 79.5t-51.5 50t-76 17.5q-48 0 -83 -19t-54.5 -53t-19.5 -79q0 -57 25.5 -97t74 -61t118.5 -21q64 0 128 17.5t115 49.5
v-121q-58 -40 -132.5 -62t-160.5 -22zM371 630q-49 0 -80 25.5t-31 67.5q0 43 31 68t80 25q50 0 80 -25t30 -68q0 -42 -30 -67.5t-80 -25.5z" />
    <glyph glyph-name="Eogonek" unicode="&#x118;" horiz-adv-x="787" 
d="M704 445v-140h-543v140h543zM289 375l-50 -310l-79 90h576v-155h-686l58 375l-58 375h681v-155h-571l79 90zM649 19l65 -6v-13h23q-37 -10 -64 -22t-42 -24t-15 -25q0 -28 62 -28q16 0 31 1.5t28 4.5v-101q-13 -5 -43 -9.5t-62 -4.5q-68 0 -109.5 26.5t-41.5 69.5
q0 44 41.5 76.5t126.5 54.5z" />
    <glyph glyph-name="eogonek" unicode="&#x119;" horiz-adv-x="728" 
d="M562 -208q-72 0 -116 25.5t-44 68.5q0 32 21 58.5t69 50.5q-26 -5 -52.5 -8t-52.5 -3q-102 0 -182.5 38t-126.5 106t-46 159q0 89 44 156t121.5 105t175.5 38q100 0 172 -43t111 -122.5t39 -189.5h-460q12 -34 40 -59t69 -37.5t92 -12.5q71 0 133 18t111 49v-121
q-8 -6 -21.5 -14t-26.5 -16q-43 -25 -65 -50.5t-22 -48.5q0 -38 62 -38q16 0 31.5 1.5t28.5 4.5v-101q-13 -5 -43 -9.5t-62 -4.5zM226 346h292q-13 50 -50 78t-91 28q-60 0 -99.5 -29t-51.5 -77z" />
    <glyph glyph-name="Ecaron" unicode="&#x11a;" horiz-adv-x="787" 
d="M704 445v-140h-543v140h543zM289 375l-50 -310l-79 90h576v-155h-686l58 375l-58 375h681v-155h-571l79 90zM496 806h-198l-151 165h155l137 -104h-85l138 104h155z" />
    <glyph glyph-name="ecaron" unicode="&#x11b;" horiz-adv-x="728" 
d="M387 -16q-102 0 -182.5 38t-126.5 106t-46 159q0 89 44 156t121.5 105t175.5 38q100 0 172 -44t111 -124t39 -188h-514v117h412l-67 -42q-3 47 -22.5 79.5t-51.5 50t-76 17.5q-48 0 -83 -19t-54.5 -53t-19.5 -79q0 -57 25.5 -97t74 -61t118.5 -21q64 0 128 17.5t115 49.5
v-121q-58 -40 -132.5 -62t-160.5 -22zM467 627h-192l-143 185h149l133 -137h-85l132 137h149z" />
    <glyph glyph-name="Gcircumflex" unicode="&#x11c;" horiz-adv-x="960" 
d="M837 325q-2 -68 -27 -129.5t-72 -109t-116 -75t-161 -27.5q-88 0 -164.5 26t-134.5 76t-90 123t-32 166t32.5 166t91 123t137 76t171.5 26q121 0 210.5 -38t144 -104t69.5 -152h-191q-10 42 -42 72t-80.5 46.5t-110.5 16.5q-75 0 -129 -26.5t-84 -78t-30 -127.5t32 -129
t90 -80t137 -27q77 0 135.5 23t93 66t39.5 103zM510 249v134h393v-383h-135l-26 300l38 -51h-270zM372 972h199l151 -165h-156l-137 104h85l-137 -104h-155z" />
    <glyph glyph-name="gcircumflex" unicode="&#x11d;" horiz-adv-x="805" 
d="M562 143v97l6 23v132l-6 21v154h186v-418q0 -106 -48.5 -180.5t-134.5 -113.5t-200 -39q-79 0 -145.5 20.5t-131.5 61.5v142q61 -46 128.5 -66.5t136.5 -20.5q101 0 155 45.5t54 141.5zM310 56q-80 0 -143 33t-99 92.5t-36 139.5t36 139.5t99 92.5t143 33q60 0 110 -18.5
t89 -48.5t66 -65.5t41 -71t14 -63.5q0 -37 -22 -82.5t-63.5 -86.5t-100.5 -67.5t-134 -26.5zM372 185q62 0 111 33t85 103q-36 71 -85.5 104t-110.5 33q-47 0 -81.5 -17t-53 -47.5t-18.5 -72.5q0 -41 18 -71.5t52.5 -47.5t82.5 -17zM309 812h192l143 -185h-149l-133 137h85
l-132 -137h-149z" />
    <glyph glyph-name="Gbreve" unicode="&#x11e;" horiz-adv-x="960" 
d="M837 325q-2 -68 -27 -129.5t-72 -109t-116 -75t-161 -27.5q-88 0 -164.5 26t-134.5 76t-90 123t-32 166t32.5 166t91 123t137 76t171.5 26q121 0 210.5 -38t144 -104t69.5 -152h-191q-10 42 -42 72t-80.5 46.5t-110.5 16.5q-75 0 -129 -26.5t-84 -78t-30 -127.5t32 -129
t90 -80t137 -27q77 0 135.5 23t93 66t39.5 103zM510 249v134h393v-383h-135l-26 300l38 -51h-270zM227 975h143q14 -29 39 -45t62 -16q38 0 63.5 16t38.5 45h143q-23 -88 -87.5 -131.5t-157.5 -43.5q-91 0 -156 43.5t-88 131.5z" />
    <glyph glyph-name="gbreve" unicode="&#x11f;" horiz-adv-x="805" 
d="M562 143v97l6 23v132l-6 21v154h186v-418q0 -106 -48.5 -180.5t-134.5 -113.5t-200 -39q-79 0 -145.5 20.5t-131.5 61.5v142q61 -46 128.5 -66.5t136.5 -20.5q101 0 155 45.5t54 141.5zM310 56q-80 0 -143 33t-99 92.5t-36 139.5t36 139.5t99 92.5t143 33q60 0 110 -18.5
t89 -48.5t66 -65.5t41 -71t14 -63.5q0 -37 -22 -82.5t-63.5 -86.5t-100.5 -67.5t-134 -26.5zM372 185q62 0 111 33t85 103q-36 71 -85.5 104t-110.5 33q-47 0 -81.5 -17t-53 -47.5t-18.5 -72.5q0 -41 18 -71.5t52.5 -47.5t82.5 -17zM170 811h138q8 -36 33 -56.5t63 -20.5
t63.5 20.5t33.5 56.5h138q-13 -89 -73.5 -140t-161.5 -51q-99 0 -159.5 51t-74.5 140z" />
    <glyph glyph-name="Gdotaccent" unicode="&#x120;" horiz-adv-x="960" 
d="M837 325q-2 -68 -27 -129.5t-72 -109t-116 -75t-161 -27.5q-88 0 -164.5 26t-134.5 76t-90 123t-32 166t32.5 166t91 123t137 76t171.5 26q121 0 210.5 -38t144 -104t69.5 -152h-191q-10 42 -42 72t-80.5 46.5t-110.5 16.5q-75 0 -129 -26.5t-84 -78t-30 -127.5t32 -129
t90 -80t137 -27q77 0 135.5 23t93 66t39.5 103zM510 249v134h393v-383h-135l-26 300l38 -51h-270zM472 810q-49 0 -80 25.5t-31 67.5q0 43 31 68.5t80 25.5q50 0 80 -25.5t30 -68.5q0 -42 -30 -67.5t-80 -25.5z" />
    <glyph glyph-name="gdotaccent" unicode="&#x121;" horiz-adv-x="805" 
d="M562 143v97l6 23v132l-6 21v154h186v-418q0 -106 -48.5 -180.5t-134.5 -113.5t-200 -39q-79 0 -145.5 20.5t-131.5 61.5v142q61 -46 128.5 -66.5t136.5 -20.5q101 0 155 45.5t54 141.5zM310 56q-80 0 -143 33t-99 92.5t-36 139.5t36 139.5t99 92.5t143 33q60 0 110 -18.5
t89 -48.5t66 -65.5t41 -71t14 -63.5q0 -37 -22 -82.5t-63.5 -86.5t-100.5 -67.5t-134 -26.5zM372 185q62 0 111 33t85 103q-36 71 -85.5 104t-110.5 33q-47 0 -81.5 -17t-53 -47.5t-18.5 -72.5q0 -41 18 -71.5t52.5 -47.5t82.5 -17zM405 630q-49 0 -80 25.5t-31 67.5
q0 43 31 68t80 25q50 0 80 -25t30 -68q0 -42 -30 -67.5t-80 -25.5z" />
    <glyph glyph-name="uni0122" unicode="&#x122;" horiz-adv-x="960" 
d="M837 325q-2 -68 -27 -129.5t-72 -109t-116 -75t-161 -27.5q-88 0 -164.5 26t-134.5 76t-90 123t-32 166t32.5 166t91 123t137 76t171.5 26q121 0 210.5 -38t144 -104t69.5 -152h-191q-10 42 -42 72t-80.5 46.5t-110.5 16.5q-75 0 -129 -26.5t-84 -78t-30 -127.5t32 -129
t90 -80t137 -27q77 0 135.5 23t93 66t39.5 103zM510 249v134h393v-383h-135l-26 300l38 -51h-270zM384 -297l88 145l8 -51q-46 0 -74 21.5t-28 57.5t27.5 57.5t74.5 21.5q46 0 73.5 -22t27.5 -59q0 -26 -13 -47.5t-43 -60.5l-50 -63h-91z" />
    <glyph glyph-name="uni0123" unicode="&#x123;" horiz-adv-x="805" 
d="M562 143v97l6 23v132l-6 21v154h186v-418q0 -106 -48.5 -180.5t-134.5 -113.5t-200 -39q-79 0 -145.5 20.5t-131.5 61.5v142q61 -46 128.5 -66.5t136.5 -20.5q101 0 155 45.5t54 141.5zM310 56q-80 0 -143 33t-99 92.5t-36 139.5t36 139.5t99 92.5t143 33q60 0 110 -18.5
t89 -48.5t66 -65.5t41 -71t14 -63.5q0 -37 -22 -82.5t-63.5 -86.5t-100.5 -67.5t-134 -26.5zM372 185q62 0 111 33t85 103q-36 71 -85.5 104t-110.5 33q-47 0 -81.5 -17t-53 -47.5t-18.5 -72.5q0 -41 18 -71.5t52.5 -47.5t82.5 -17zM504 873l-88 -145l-7 51q45 0 73 -21
t28 -58q0 -36 -27.5 -58t-73.5 -22q-47 0 -74.5 22.5t-27.5 58.5q0 27 13 48.5t43 60.5l51 63h90z" />
    <glyph glyph-name="Hcircumflex" unicode="&#x124;" horiz-adv-x="931" 
d="M73 750h189v-750h-189v750zM669 750h189v-750h-189v750zM178 463h571v-166h-571v166zM365 972h199l151 -165h-156l-137 104h85l-137 -104h-155z" />
    <glyph glyph-name="hcircumflex" unicode="&#x125;" horiz-adv-x="768" 
d="M60 770h185v-770h-185v770zM459 586q81 0 138.5 -32.5t88 -92.5t30.5 -143v-318h-186v290q0 71 -34.5 107.5t-100.5 36.5q-45 0 -79 -19.5t-52.5 -55t-18.5 -84.5l-59 31q12 91 50 153t95.5 94.5t127.5 32.5zM305 1012h192l143 -185h-149l-133 137h85l-132 -137h-149z
" />
    <glyph glyph-name="Hbar" unicode="&#x126;" horiz-adv-x="966" 
d="M90 750h189v-750h-189v750zM686 750h189v-750h-189v750zM182 439h571v-157h-571v157zM22 672h922v-129h-922v129z" />
    <glyph glyph-name="hbar" unicode="&#x127;" horiz-adv-x="768" 
d="M-14 712h541v-112h-541v112zM60 770h185v-770h-185v770zM459 560q81 0 138.5 -33t88 -93t30.5 -142v-292h-186v264q0 70 -34.5 107t-100.5 37q-45 0 -79 -19.5t-52.5 -55.5t-18.5 -84l-59 31q12 90 50 152.5t95.5 95t127.5 32.5z" />
    <glyph glyph-name="Itilde" unicode="&#x128;" horiz-adv-x="335" 
d="M-28 811q5 74 35.5 117t87.5 43q24 0 42 -7.5t32.5 -18t28 -18.5t28.5 -8q17 0 27.5 13.5t14.5 37.5h94q-4 -74 -34.5 -117.5t-87.5 -43.5q-24 0 -42 8t-32.5 18.5t-28 18.5t-28.5 8q-16 0 -27 -13.5t-15 -37.5h-95zM73 750h189v-750h-189v750z" />
    <glyph glyph-name="itilde" unicode="&#x129;" horiz-adv-x="305" 
d="M-42 636q5 81 35.5 128t87.5 47q24 0 42 -8t32.5 -18t28 -18t28.5 -8q17 0 27.5 13.5t14.5 37.5h94q-4 -80 -34.5 -127.5t-87.5 -47.5q-24 0 -42 8t-32.5 18t-28 18t-28.5 8q-16 0 -27 -13t-15 -38h-95zM60 578l92 -19l93 19v-578h-185v578z" />
    <glyph glyph-name="Imacron" unicode="&#x12a;" horiz-adv-x="335" 
d="M-15 829v114h365v-114h-365zM73 750h189v-750h-189v750z" />
    <glyph glyph-name="imacron" unicode="&#x12b;" horiz-adv-x="305" 
d="M-19 655v114h343v-114h-343zM60 578l92 -19l93 19v-578h-185v578z" />
    <glyph glyph-name="Ibreve" unicode="&#x12c;" horiz-adv-x="335" 
d="M-33 972h130q6 -32 23 -50t48 -18q30 0 47.5 18t22.5 50h130q-8 -79 -61 -125.5t-139 -46.5t-139.5 46.5t-61.5 125.5zM73 750h189v-750h-189v750z" />
    <glyph glyph-name="ibreve" unicode="&#x12d;" horiz-adv-x="305" 
d="M-41 811h124q5 -34 23.5 -54t45.5 -20q28 0 46.5 20t23.5 54h123q-7 -87 -58 -139t-135 -52q-82 0 -133.5 52t-59.5 139zM60 578l92 -19l93 19v-578h-185v578z" />
    <glyph glyph-name="Iogonek" unicode="&#x12e;" horiz-adv-x="335" 
d="M173 13h66v-13h23q-43 -16 -67 -33t-24 -38q0 -28 53 -28q13 0 29 1.5t28 4.5v-101q-12 -5 -41.5 -9.5t-61.5 -4.5q-67 0 -108.5 26t-41.5 70q0 42 37 72.5t108 52.5zM73 750h189v-750h-189v750z" />
    <glyph glyph-name="iogonek" unicode="&#x12f;" horiz-adv-x="305" 
d="M174 19l48 -6v-13h23q-41 -16 -67 -33.5t-26 -37.5q0 -28 51 -28q16 0 31 1.5t28 4.5v-101q-13 -5 -43 -9.5t-62 -4.5q-66 0 -107 26t-41 69q0 45 41 75.5t124 56.5zM60 578l92 -19l93 19v-578h-185v578zM152 630q-49 0 -79.5 25.5t-30.5 67.5q0 43 30.5 68t79.5 25
q51 0 81 -25t30 -68q0 -42 -30 -67.5t-81 -25.5z" />
    <glyph glyph-name="Idotaccent" unicode="&#x130;" horiz-adv-x="335" 
d="M73 750h189v-750h-189v750zM168 810q-49 0 -80 25.5t-31 67.5q0 43 31 68.5t80 25.5q50 0 80 -25.5t30 -68.5q0 -42 -30 -67.5t-80 -25.5z" />
    <glyph glyph-name="dotlessi" unicode="&#x131;" horiz-adv-x="305" 
d="M60 578l92 -19l93 19v-578h-185v578z" />
    <glyph glyph-name="IJ" unicode="&#x132;" horiz-adv-x="839" 
d="M57 750h189v-338h-189v338zM58 347h186v-27q0 -84 39.5 -129t130.5 -45t131.5 42.5t40.5 116.5v445h189v-454q0 -99 -45.5 -168.5t-126.5 -106.5t-189 -37q-106 0 -185.5 38t-123.5 110t-46 173z" />
    <glyph glyph-name="ij" unicode="&#x133;" horiz-adv-x="610" 
d="M60 578l92 -19l93 19v-578h-185v578zM153 630q-49 0 -80 25.5t-31 67.5q0 43 31 68t80 25q50 0 80 -25t30 -68q0 -42 -30 -67.5t-80 -25.5zM365 578l92 -19l93 19v-743h-185v743zM458 630q-49 0 -80 25.5t-31 67.5q0 43 31 68t80 25q50 0 80 -25t30 -68q0 -42 -30 -67.5
t-80 -25.5z" />
    <glyph glyph-name="Jcircumflex" unicode="&#x134;" horiz-adv-x="799" 
d="M545 972h192l110 -165h-133l-96 102h45l-96 -102h-133zM20 367h185v-27q0 -93 39.5 -142.5t130.5 -49.5q90 0 130.5 47t40.5 130v425h189v-434q0 -105 -45 -179.5t-126.5 -113.5t-188.5 -39q-106 0 -186 40.5t-124.5 116.5t-44.5 184v42z" />
    <glyph glyph-name="jcircumflex" unicode="&#x135;" horiz-adv-x="305" 
d="M66 812h192l95 -185h-127l-87 129h46l-87 -129h-126zM60 578l92 -19l93 19v-743h-185v743z" />
    <glyph glyph-name="uni0136" unicode="&#x136;" horiz-adv-x="860" 
d="M73 0v750h188v-598l-51 38l444 560h200l-611 -750h-170zM432 363l136 117l296 -480h-214zM354 -297l88 145l8 -51q-46 0 -74 21.5t-28 57.5t27.5 57.5t74.5 21.5q46 0 73.5 -22t27.5 -59q0 -26 -13 -47.5t-43 -60.5l-50 -63h-91z" />
    <glyph glyph-name="uni0137" unicode="&#x137;" horiz-adv-x="729" 
d="M245 151l-51 17l327 402h199l-493 -570h-167v770h185v-619zM359 279l138 101l238 -380h-211zM292 -297l88 145l8 -51q-46 0 -74 21.5t-28 57.5t27.5 57.5t74.5 21.5q46 0 73.5 -22t27.5 -59q0 -26 -13 -47.5t-43 -60.5l-50 -63h-91z" />
    <glyph glyph-name="kgreenlandic" unicode="&#x138;" horiz-adv-x="728" 
d="M245 570v-337l276 337h198l-493 -570h-167v570h186zM358 279l138 101l239 -380h-211z" />
    <glyph glyph-name="Lacute" unicode="&#x139;" horiz-adv-x="757" 
d="M262 750v-666l-85 83h562v-167h-666v750h189zM199 972h212l-171 -165h-188z" />
    <glyph glyph-name="lacute" unicode="&#x13a;" horiz-adv-x="305" 
d="M60 770h185v-770h-185v770zM174 1012h181l-133 -185h-173z" />
    <glyph glyph-name="uni013B" unicode="&#x13b;" horiz-adv-x="757" 
d="M262 750v-666l-85 83h562v-167h-666v750h189zM326 -297l88 145l8 -51q-46 0 -74 21.5t-28 57.5t27.5 57.5t74.5 21.5q46 0 73.5 -22t27.5 -59q0 -26 -13 -47.5t-43 -60.5l-50 -63h-91z" />
    <glyph glyph-name="uni013C" unicode="&#x13c;" horiz-adv-x="305" 
d="M60 770h185v-770h-185v770zM57 -297l88 145l8 -51q-46 0 -74 21.5t-28 57.5t27.5 57.5t74.5 21.5q46 0 73.5 -22t27.5 -59q0 -26 -13 -47.5t-43 -60.5l-50 -63h-91z" />
    <glyph glyph-name="Lcaron" unicode="&#x13d;" horiz-adv-x="757" 
d="M262 750v-666l-85 83h562v-167h-666v750h189zM407 750h163l-63 -236h-129z" />
    <glyph glyph-name="lcaron" unicode="&#x13e;" horiz-adv-x="305" 
d="M60 770h185v-770h-185v770zM311 833h163l-59 -202h-129z" />
    <glyph glyph-name="Ldot" unicode="&#x13f;" horiz-adv-x="757" 
d="M262 750v-666l-85 83h562v-167h-666v750h189zM546 351q-31 0 -56 14.5t-39.5 39.5t-14.5 56t14.5 56t39.5 39.5t56 14.5t56 -14.5t39.5 -39.5t14.5 -56t-14.5 -56t-39.5 -39.5t-56 -14.5z" />
    <glyph glyph-name="ldot" unicode="&#x140;" horiz-adv-x="530" 
d="M60 770h185v-770h-185v770zM418 287q-30 0 -54.5 14t-38.5 38.5t-14 53.5q0 31 14 55t38.5 38t54.5 14t54 -14t38 -38t14 -55q0 -29 -14 -53.5t-38 -38.5t-54 -14z" />
    <glyph glyph-name="Lslash" unicode="&#x141;" horiz-adv-x="794" 
d="M36 435l498 131v-130l-498 -132v131zM298 750v-666l-84 83h561v-167h-666v750h189z" />
    <glyph glyph-name="lslash" unicode="&#x142;" horiz-adv-x="410" 
d="M30 432l352 105v-127l-352 -104v126zM113 770h185v-770h-185v770z" />
    <glyph glyph-name="Nacute" unicode="&#x143;" horiz-adv-x="963" 
d="M768 129l-61 -11v632h183v-750h-238l-457 632l61 11v-643h-183v750h245zM527 972h212l-171 -165h-188z" />
    <glyph glyph-name="nacute" unicode="&#x144;" horiz-adv-x="778" 
d="M33 570h185l37 -222v-348h-186v376zM468 586q82 0 139.5 -32.5t88 -92.5t30.5 -143v-318h-186v290q0 71 -35 107.5t-100 36.5q-46 0 -79.5 -19.5t-52 -55t-18.5 -84.5l-59 31q11 91 49.5 153t96 94.5t126.5 32.5zM419 812h181l-133 -185h-173z" />
    <glyph glyph-name="uni0145" unicode="&#x145;" horiz-adv-x="963" 
d="M768 129l-61 -11v632h183v-750h-238l-457 632l61 11v-643h-183v750h245zM387 -297l88 145l8 -51q-46 0 -74 21.5t-28 57.5t27.5 57.5t74.5 21.5q46 0 73.5 -22t27.5 -59q0 -26 -13 -47.5t-43 -60.5l-50 -63h-91z" />
    <glyph glyph-name="uni0146" unicode="&#x146;" horiz-adv-x="778" 
d="M33 570h185l37 -222v-348h-186v376zM468 586q82 0 139.5 -32.5t88 -92.5t30.5 -143v-318h-186v290q0 71 -35 107.5t-100 36.5q-46 0 -79.5 -19.5t-52 -55t-18.5 -84.5l-59 31q11 91 49.5 153t96 94.5t126.5 32.5zM302 -297l88 145l8 -51q-46 0 -74 21.5t-28 57.5
t27.5 57.5t74.5 21.5q46 0 73.5 -22t27.5 -59q0 -26 -13 -47.5t-43 -60.5l-50 -63h-91z" />
    <glyph glyph-name="Ncaron" unicode="&#x147;" horiz-adv-x="963" 
d="M768 129l-61 -11v632h183v-750h-238l-457 632l61 11v-643h-183v750h245zM594 806h-198l-151 165h155l137 -104h-84l137 104h155z" />
    <glyph glyph-name="ncaron" unicode="&#x148;" horiz-adv-x="778" 
d="M33 570h185l37 -222v-348h-186v376zM468 586q82 0 139.5 -32.5t88 -92.5t30.5 -143v-318h-186v290q0 71 -35 107.5t-100 36.5q-46 0 -79.5 -19.5t-52 -55t-18.5 -84.5l-59 31q11 91 49.5 153t96 94.5t126.5 32.5zM494 627h-193l-143 185h149l133 -137h-85l132 137h150z
" />
    <glyph glyph-name="napostrophe" unicode="&#x149;" horiz-adv-x="982" 
d="M-3 420l94 201l12 -68q-30 0 -54 14t-38 37.5t-14 51.5q0 29 14 52.5t38 37.5t54 14q29 0 53 -14t38 -38t14 -54q0 -27 -13 -59t-46 -81l-61 -94h-91zM238 570h185l37 -222v-348h-186v376zM673 586q82 0 139.5 -32.5t88 -92.5t30.5 -143v-318h-186v290q0 71 -35 107.5
t-100 36.5q-46 0 -79.5 -19.5t-52 -55t-18.5 -84.5l-59 31q11 91 49.5 153t96 94.5t126.5 32.5z" />
    <glyph glyph-name="Eng" unicode="&#x14a;" horiz-adv-x="916" 
d="M73 750h189v-750h-189v750zM851 471v-422q0 -70 -28.5 -121.5t-87.5 -80t-151 -28.5q-52 0 -97 9t-74 21v143q28 -13 64.5 -20t75.5 -7q58 0 83.5 24.5t25.5 79.5v358q0 83 -49 126.5t-142 43.5q-66 0 -112.5 -22.5t-71.5 -63.5t-25 -98l-63 37q19 112 67 181.5
t118.5 102t155.5 32.5q97 0 166.5 -36t107 -102t37.5 -157z" />
    <glyph glyph-name="eng" unicode="&#x14b;" horiz-adv-x="778" 
d="M33 570h185l37 -222v-348h-186v376zM468 586q82 0 139.5 -32.5t88 -92.5t30.5 -143v-265q0 -68 -27.5 -121t-78.5 -83t-126 -30q-40 0 -78 9.5t-66 23.5v140q26 -13 50.5 -21t55.5 -8q47 0 65.5 20.5t18.5 71.5v235q0 71 -35 107.5t-100 36.5q-46 0 -79.5 -19.5t-52 -55
t-18.5 -84.5l-59 31q11 91 49.5 153t96 94.5t126.5 32.5z" />
    <glyph glyph-name="Omacron" unicode="&#x14c;" horiz-adv-x="961" 
d="M480 -16q-132 0 -231.5 49t-154.5 137t-55 205t55 205t154.5 137t231.5 49t231.5 -49t155 -137t55.5 -205t-55.5 -205t-155 -137t-231.5 -49zM480 153q78 0 134 26.5t86.5 76.5t30.5 119t-30.5 119t-86.5 76.5t-134 26.5q-77 0 -133 -26.5t-87 -76.5t-31 -119t31 -119
t87 -76.5t133 -26.5zM243 830v113h474v-113h-474z" />
    <glyph glyph-name="omacron" unicode="&#x14d;" horiz-adv-x="785" 
d="M392 -16q-108 0 -189 38t-126 106t-45 157q0 90 45 157.5t126.5 105.5t188.5 38q108 0 189.5 -38t126.5 -105.5t45 -157.5t-45 -157.5t-126.5 -105.5t-189.5 -38zM392 124q55 0 93.5 19.5t59 55.5t20.5 86t-20.5 86t-59 55.5t-93.5 19.5q-53 0 -92 -19.5t-60 -55.5
t-21 -86t21 -86t60 -55.5t92 -19.5zM156 655v114h473v-114h-473z" />
    <glyph glyph-name="Obreve" unicode="&#x14e;" horiz-adv-x="961" 
d="M480 -16q-132 0 -231.5 49t-154.5 137t-55 205t55 205t154.5 137t231.5 49t231.5 -49t155 -137t55.5 -205t-55.5 -205t-155 -137t-231.5 -49zM480 153q78 0 134 26.5t86.5 76.5t30.5 119t-30.5 119t-86.5 76.5t-134 26.5q-77 0 -133 -26.5t-87 -76.5t-31 -119t31 -119
t87 -76.5t133 -26.5zM235 975h143q14 -29 39 -45t62 -16q38 0 63.5 16t38.5 45h143q-23 -88 -87.5 -131.5t-157.5 -43.5q-91 0 -156 43.5t-88 131.5z" />
    <glyph glyph-name="obreve" unicode="&#x14f;" horiz-adv-x="785" 
d="M392 -16q-108 0 -189 38t-126 106t-45 157q0 90 45 157.5t126.5 105.5t188.5 38q108 0 189.5 -38t126.5 -105.5t45 -157.5t-45 -157.5t-126.5 -105.5t-189.5 -38zM392 124q55 0 93.5 19.5t59 55.5t20.5 86t-20.5 86t-59 55.5t-93.5 19.5q-53 0 -92 -19.5t-60 -55.5
t-21 -86t21 -86t60 -55.5t92 -19.5zM158 811h138q8 -36 33 -56.5t63 -20.5t63.5 20.5t33.5 56.5h138q-13 -89 -73.5 -140t-161.5 -51q-99 0 -159.5 51t-74.5 140z" />
    <glyph glyph-name="Ohungarumlaut" unicode="&#x150;" horiz-adv-x="961" 
d="M480 -16q-132 0 -231.5 49t-154.5 137t-55 205t55 205t154.5 137t231.5 49t231.5 -49t155 -137t55.5 -205t-55.5 -205t-155 -137t-231.5 -49zM480 153q78 0 134 26.5t86.5 76.5t30.5 119t-30.5 119t-86.5 76.5t-134 26.5q-77 0 -133 -26.5t-87 -76.5t-31 -119t31 -119
t87 -76.5t133 -26.5zM400 972h180l-139 -165h-164zM652 972h180l-138 -165h-164z" />
    <glyph glyph-name="ohungarumlaut" unicode="&#x151;" horiz-adv-x="785" 
d="M392 -16q-108 0 -189 38t-126 106t-45 157q0 90 45 157.5t126.5 105.5t188.5 38q108 0 189.5 -38t126.5 -105.5t45 -157.5t-45 -157.5t-126.5 -105.5t-189.5 -38zM392 124q55 0 93.5 19.5t59 55.5t20.5 86t-20.5 86t-59 55.5t-93.5 19.5q-53 0 -92 -19.5t-60 -55.5
t-21 -86t21 -86t60 -55.5t92 -19.5zM305 812h165l-120 -185h-157zM543 812h166l-120 -185h-157z" />
    <glyph glyph-name="OE" unicode="&#x152;" horiz-adv-x="1337" 
d="M480 0q-132 0 -231.5 47t-154.5 131.5t-55 196.5q0 113 54.5 197t152.5 131t230 47h806v-155h-455v-149h426v-141h-426v-150h460v-155h-807zM467 167h177v416h-177q-72 0 -125.5 -26t-83 -72t-29.5 -110q0 -63 29.5 -109.5t83 -72.5t125.5 -26z" />
    <glyph glyph-name="oe" unicode="&#x153;" horiz-adv-x="1243" 
d="M380 -16q-102 0 -180.5 38t-123 105.5t-44.5 157.5t44.5 157.5t123 105.5t180.5 38q104 0 178.5 -37t115 -104.5t40.5 -159.5t-40.5 -159.5t-115 -104.5t-178.5 -37zM389 124q53 0 91 19.5t58.5 55.5t20.5 86t-20.5 86t-58.5 55.5t-91 19.5q-52 0 -90 -19.5t-59 -55.5
t-21 -86t21 -86t59 -55.5t90 -19.5zM907 -16q-99 0 -172 36.5t-113 104.5t-40 162q0 86 40 153.5t111 106.5t162 39q97 0 167.5 -43t109 -121t38.5 -182h-506v102h404l-57 -37q-3 48 -22.5 82t-52.5 52.5t-78 18.5t-80.5 -19.5t-55.5 -54.5t-20 -83q0 -58 25.5 -97.5
t72.5 -60.5t110 -21q69 0 131.5 17.5t113.5 49.5v-116q-56 -41 -133 -65t-155 -24z" />
    <glyph glyph-name="Racute" unicode="&#x154;" horiz-adv-x="840" 
d="M204 420h281q53 0 84 24.5t31 68.5t-31 68.5t-84 24.5h-308l85 93v-699h-189v750h437q84 0 147 -30t98 -83t35 -124q0 -70 -35 -123t-98 -83t-147 -30h-306v143zM325 351h213l276 -351h-219zM441 972h212l-171 -165h-188z" />
    <glyph glyph-name="racute" unicode="&#x155;" horiz-adv-x="542" 
d="M33 570h188l34 -205v-365h-186v380zM527 578v-160q-27 6 -53.5 9t-48.5 3q-48 0 -86.5 -19.5t-61 -61.5t-22.5 -109l-37 46q7 61 23 115t44 95.5t69.5 65.5t100.5 24q17 0 36 -2t36 -6zM315 812h181l-133 -185h-173z" />
    <glyph glyph-name="uni0156" unicode="&#x156;" horiz-adv-x="840" 
d="M204 420h281q53 0 84 24.5t31 68.5t-31 68.5t-84 24.5h-308l85 93v-699h-189v750h437q84 0 147 -30t98 -83t35 -124q0 -70 -35 -123t-98 -83t-147 -30h-306v143zM325 351h213l276 -351h-219zM329 -297l88 145l8 -51q-46 0 -74 21.5t-28 57.5t27.5 57.5t74.5 21.5
q46 0 73.5 -22t27.5 -59q0 -26 -13 -47.5t-43 -60.5l-50 -63h-91z" />
    <glyph glyph-name="uni0157" unicode="&#x157;" horiz-adv-x="542" 
d="M33 570h188l34 -205v-365h-186v380zM527 578v-160q-27 6 -53.5 9t-48.5 3q-48 0 -86.5 -19.5t-61 -61.5t-22.5 -109l-37 46q7 61 23 115t44 95.5t69.5 65.5t100.5 24q17 0 36 -2t36 -6zM67 -297l88 145l8 -51q-46 0 -74 21.5t-28 57.5t27.5 57.5t74.5 21.5q46 0 73.5 -22
t27.5 -59q0 -26 -13 -47.5t-43 -60.5l-50 -63h-91z" />
    <glyph glyph-name="Rcaron" unicode="&#x158;" horiz-adv-x="840" 
d="M204 420h281q53 0 84 24.5t31 68.5t-31 68.5t-84 24.5h-308l85 93v-699h-189v750h437q84 0 147 -30t98 -83t35 -124q0 -70 -35 -123t-98 -83t-147 -30h-306v143zM325 351h213l276 -351h-219zM509 806h-199l-151 165h156l137 -104h-85l137 104h155z" />
    <glyph glyph-name="rcaron" unicode="&#x159;" horiz-adv-x="542" 
d="M33 570h188l34 -205v-365h-186v380zM527 578v-160q-27 6 -53.5 9t-48.5 3q-48 0 -86.5 -19.5t-61 -61.5t-22.5 -109l-37 46q7 61 23 115t44 95.5t69.5 65.5t100.5 24q17 0 36 -2t36 -6zM389 627h-192l-143 185h149l133 -137h-85l132 137h149z" />
    <glyph glyph-name="Sacute" unicode="&#x15a;" horiz-adv-x="833" 
d="M37 245h191q5 -34 31 -60t69.5 -40t101.5 -14q83 0 130.5 23t47.5 65q0 32 -27.5 49.5t-102.5 25.5l-145 15q-151 15 -218.5 70t-67.5 150q0 75 44.5 128t125 81t188.5 28q107 0 189 -31t131 -86t53 -129h-191q-4 31 -27.5 52.5t-63 34t-94.5 12.5q-76 0 -120.5 -21.5
t-44.5 -61.5q0 -30 26.5 -47t94.5 -25l153 -17q105 -11 168 -35t91 -66t28 -106q0 -77 -46.5 -134.5t-130 -89.5t-194.5 -32q-115 0 -201.5 33t-136 91.5t-52.5 136.5zM448 972h212l-171 -165h-188z" />
    <glyph glyph-name="sacute" unicode="&#x15b;" horiz-adv-x="734" 
d="M702 183q0 -64 -37.5 -108.5t-109.5 -67.5t-175 -23q-105 0 -184 26t-123 73t-47 109h189q6 -25 28.5 -44t58.5 -28.5t85 -9.5q66 0 100 14t34 42q0 21 -24.5 32t-87.5 16l-104 8q-98 7 -156 31t-82.5 61t-24.5 83q0 63 39.5 105t109.5 63t164 21t167.5 -25t118 -69
t50.5 -103h-189q-4 20 -21.5 37t-50 27.5t-84.5 10.5q-59 0 -90 -13t-31 -38q0 -19 19 -30t72 -16l135 -10q96 -8 150.5 -30.5t77.5 -58.5t23 -85zM388 812h181l-133 -185h-173z" />
    <glyph glyph-name="Scircumflex" unicode="&#x15c;" horiz-adv-x="833" 
d="M37 245h191q5 -34 31 -60t69.5 -40t101.5 -14q83 0 130.5 23t47.5 65q0 32 -27.5 49.5t-102.5 25.5l-145 15q-151 15 -218.5 70t-67.5 150q0 75 44.5 128t125 81t188.5 28q107 0 189 -31t131 -86t53 -129h-191q-4 31 -27.5 52.5t-63 34t-94.5 12.5q-76 0 -120.5 -21.5
t-44.5 -61.5q0 -30 26.5 -47t94.5 -25l153 -17q105 -11 168 -35t91 -66t28 -106q0 -77 -46.5 -134.5t-130 -89.5t-194.5 -32q-115 0 -201.5 33t-136 91.5t-52.5 136.5zM316 972h199l151 -165h-156l-137 104h85l-137 -104h-155z" />
    <glyph glyph-name="scircumflex" unicode="&#x15d;" horiz-adv-x="734" 
d="M702 183q0 -64 -37.5 -108.5t-109.5 -67.5t-175 -23q-105 0 -184 26t-123 73t-47 109h189q6 -25 28.5 -44t58.5 -28.5t85 -9.5q66 0 100 14t34 42q0 21 -24.5 32t-87.5 16l-104 8q-98 7 -156 31t-82.5 61t-24.5 83q0 63 39.5 105t109.5 63t164 21t167.5 -25t118 -69
t50.5 -103h-189q-4 20 -21.5 37t-50 27.5t-84.5 10.5q-59 0 -90 -13t-31 -38q0 -19 19 -30t72 -16l135 -10q96 -8 150.5 -30.5t77.5 -58.5t23 -85zM270 812h192l143 -185h-149l-133 137h85l-132 -137h-149z" />
    <glyph glyph-name="Scedilla" unicode="&#x15e;" horiz-adv-x="833" 
d="M37 245h191q5 -34 31 -60t69.5 -40t101.5 -14q83 0 130.5 23t47.5 65q0 32 -27.5 49.5t-102.5 25.5l-145 15q-151 15 -218.5 70t-67.5 150q0 75 44.5 128t125 81t188.5 28q107 0 189 -31t131 -86t53 -129h-191q-4 31 -27.5 52.5t-63 34t-94.5 12.5q-76 0 -120.5 -21.5
t-44.5 -61.5q0 -30 26.5 -47t94.5 -25l153 -17q105 -11 168 -35t91 -66t28 -106q0 -77 -46.5 -134.5t-130 -89.5t-194.5 -32q-115 0 -201.5 33t-136 91.5t-52.5 136.5zM377 18h92l-51 -88l-47 3q25 13 51.5 20t59.5 7q67 0 103 -26t36 -71q0 -48 -47 -79.5t-138 -31.5
q-78 0 -131.5 28.5t-68.5 79.5h123q8 -13 26.5 -20.5t50.5 -7.5q34 0 50.5 10t16.5 25q0 14 -14 22.5t-42 8.5q-17 0 -32.5 -2t-27.5 -7h-93z" />
    <glyph glyph-name="scedilla" unicode="&#x15f;" horiz-adv-x="734" 
d="M702 183q0 -64 -37.5 -108.5t-109.5 -67.5t-175 -23q-105 0 -184 26t-123 73t-47 109h189q6 -25 28.5 -44t58.5 -28.5t85 -9.5q66 0 100 14t34 42q0 21 -24.5 32t-87.5 16l-104 8q-98 7 -156 31t-82.5 61t-24.5 83q0 63 39.5 105t109.5 63t164 21t167.5 -25t118 -69
t50.5 -103h-189q-4 20 -21.5 37t-50 27.5t-84.5 10.5q-59 0 -90 -13t-31 -38q0 -19 19 -30t72 -16l135 -10q96 -8 150.5 -30.5t77.5 -58.5t23 -85zM333 14h95l-57 -85l-44 2q22 12 48 19.5t60 7.5q66 0 100 -25.5t34 -70.5q0 -46 -45 -77.5t-131 -31.5q-76 0 -128 29.5
t-67 77.5h114q8 -11 26.5 -20.5t54.5 -9.5q33 0 49.5 10t16.5 26q0 15 -13 24.5t-44 9.5q-16 0 -30 -3t-24 -8h-96z" />
    <glyph glyph-name="Scaron" unicode="&#x160;" horiz-adv-x="833" 
d="M37 245h191q5 -34 31 -60t69.5 -40t101.5 -14q83 0 130.5 23t47.5 65q0 32 -27.5 49.5t-102.5 25.5l-145 15q-151 15 -218.5 70t-67.5 150q0 75 44.5 128t125 81t188.5 28q107 0 189 -31t131 -86t53 -129h-191q-4 31 -27.5 52.5t-63 34t-94.5 12.5q-76 0 -120.5 -21.5
t-44.5 -61.5q0 -30 26.5 -47t94.5 -25l153 -17q105 -11 168 -35t91 -66t28 -106q0 -77 -46.5 -134.5t-130 -89.5t-194.5 -32q-115 0 -201.5 33t-136 91.5t-52.5 136.5zM515 806h-198l-151 165h156l137 -104h-85l137 104h155z" />
    <glyph glyph-name="scaron" unicode="&#x161;" horiz-adv-x="734" 
d="M702 183q0 -64 -37.5 -108.5t-109.5 -67.5t-175 -23q-105 0 -184 26t-123 73t-47 109h189q6 -25 28.5 -44t58.5 -28.5t85 -9.5q66 0 100 14t34 42q0 21 -24.5 32t-87.5 16l-104 8q-98 7 -156 31t-82.5 61t-24.5 83q0 63 39.5 105t109.5 63t164 21t167.5 -25t118 -69
t50.5 -103h-189q-4 20 -21.5 37t-50 27.5t-84.5 10.5q-59 0 -90 -13t-31 -38q0 -19 19 -30t72 -16l135 -10q96 -8 150.5 -30.5t77.5 -58.5t23 -85zM462 627h-192l-143 185h149l133 -137h-85l132 137h149z" />
    <glyph glyph-name="uni0162" unicode="&#x162;" horiz-adv-x="809" 
d="M310 666h189v-666h-189v666zM18 750h773v-167h-773v167zM366 18h92l-51 -88l-47 3q25 13 51.5 20t59.5 7q67 0 103 -26t36 -71q0 -48 -47 -79.5t-138 -31.5q-78 0 -131.5 28.5t-68.5 79.5h123q8 -13 26.5 -20.5t50.5 -7.5q34 0 50.5 10t16.5 25q0 14 -14 22.5t-42 8.5
q-17 0 -32.5 -2t-27.5 -7h-93z" />
    <glyph glyph-name="uni0163" unicode="&#x163;" horiz-adv-x="591" 
d="M5 432v81l118 43l80 166h106v-152h246v-138h-246v-188q0 -64 26 -89.5t93 -25.5q43 0 75.5 7.5t61.5 20.5v-141q-30 -12 -78.5 -22t-100.5 -10q-91 0 -149.5 29t-86 81.5t-27.5 123.5v214h-118zM290 14h95l-57 -85l-44 2q22 12 48 19.5t60 7.5q66 0 100 -25.5t34 -70.5
q0 -46 -45 -77.5t-131 -31.5q-76 0 -128 29.5t-67 77.5h114q8 -11 26.5 -20.5t54.5 -9.5q33 0 49.5 10t16.5 26q0 15 -13 24.5t-44 9.5q-16 0 -30 -3t-24 -8h-96z" />
    <glyph glyph-name="Tcaron" unicode="&#x164;" horiz-adv-x="809" 
d="M310 666h189v-666h-189v666zM18 750h773v-167h-773v167zM504 806h-199l-151 165h156l137 -104h-85l137 104h155z" />
    <glyph glyph-name="tcaron" unicode="&#x165;" horiz-adv-x="591" 
d="M5 432v81l118 43l80 166h106v-152h246v-138h-246v-188q0 -64 26 -89.5t93 -25.5q43 0 75.5 7.5t61.5 20.5v-141q-30 -12 -78.5 -22t-100.5 -10q-91 0 -149.5 29t-86 81.5t-27.5 123.5v214h-118zM395 853h163l-59 -202h-129z" />
    <glyph glyph-name="Tbar" unicode="&#x166;" horiz-adv-x="823" 
d="M122 399h578v-130h-578v130zM317 666h189v-666h-189v666zM25 750h773v-167h-773v167z" />
    <glyph glyph-name="tbar" unicode="&#x167;" horiz-adv-x="602" 
d="M28 350h473v-124h-473v124zM14 432v81l117 43l80 166h106v-152h246v-138h-246v-188q0 -64 26.5 -89.5t93.5 -25.5q42 0 75 7.5t61 20.5v-141q-29 -12 -77.5 -22t-100.5 -10q-92 0 -150 29t-86 81.5t-28 123.5v214h-117z" />
    <glyph glyph-name="Utilde" unicode="&#x168;" horiz-adv-x="874" 
d="M252 332q0 -55 21.5 -95.5t62.5 -62t101 -21.5t101 21.5t62.5 62t21.5 95.5v418h189v-427q0 -102 -47 -178t-131 -118.5t-196 -42.5t-196 42.5t-131 118.5t-47 178v427h189v-418zM173 813q10 75 50 119.5t117 44.5q27 0 53 -7.5t49.5 -17t44.5 -17t38 -7.5q22 0 36 11.5
t17 33.5h122q-10 -76 -50.5 -120.5t-116.5 -44.5q-27 0 -53 7.5t-49.5 17t-44.5 17t-38 7.5q-22 0 -36 -11.5t-17 -32.5h-122z" />
    <glyph glyph-name="utilde" unicode="&#x169;" horiz-adv-x="766" 
d="M303 -15q-80 0 -136 32.5t-85.5 92.5t-29.5 142v318h186v-291q0 -69 33 -106t95 -37q46 0 78 19t49.5 55t17.5 85l58 -31q-10 -90 -47.5 -152.5t-94 -94.5t-124.5 -32zM547 0l-36 222v348h186v-376l36 -194h-186zM136 635q5 83 40 131t104 48q27 0 52 -8t47.5 -18
t42.5 -18.5t37 -8.5q21 0 35 13.5t18 38.5h113q-4 -81 -39 -130t-105 -49q-26 0 -51.5 8t-48 18.5t-42 18.5t-36.5 8q-21 0 -35 -13.5t-19 -38.5h-113z" />
    <glyph glyph-name="Umacron" unicode="&#x16a;" horiz-adv-x="874" 
d="M252 332q0 -55 21.5 -95.5t62.5 -62t101 -21.5t101 21.5t62.5 62t21.5 95.5v418h189v-427q0 -102 -47 -178t-131 -118.5t-196 -42.5t-196 42.5t-131 118.5t-47 178v427h189v-418zM200 830v113h474v-113h-474z" />
    <glyph glyph-name="umacron" unicode="&#x16b;" horiz-adv-x="766" 
d="M303 -15q-80 0 -136 32.5t-85.5 92.5t-29.5 142v318h186v-291q0 -69 33 -106t95 -37q46 0 78 19t49.5 55t17.5 85l58 -31q-10 -90 -47.5 -152.5t-94 -94.5t-124.5 -32zM547 0l-36 222v348h186v-376l36 -194h-186zM144 655v114h473v-114h-473z" />
    <glyph glyph-name="Ubreve" unicode="&#x16c;" horiz-adv-x="874" 
d="M252 332q0 -55 21.5 -95.5t62.5 -62t101 -21.5t101 21.5t62.5 62t21.5 95.5v418h189v-427q0 -102 -47 -178t-131 -118.5t-196 -42.5t-196 42.5t-131 118.5t-47 178v427h189v-418zM192 975h143q14 -29 39 -45t62 -16q38 0 63.5 16t38.5 45h143q-23 -88 -87.5 -131.5
t-157.5 -43.5q-91 0 -156 43.5t-88 131.5z" />
    <glyph glyph-name="ubreve" unicode="&#x16d;" horiz-adv-x="766" 
d="M303 -15q-80 0 -136 32.5t-85.5 92.5t-29.5 142v318h186v-291q0 -69 33 -106t95 -37q46 0 78 19t49.5 55t17.5 85l58 -31q-10 -90 -47.5 -152.5t-94 -94.5t-124.5 -32zM547 0l-36 222v348h186v-376l36 -194h-186zM146 811h138q8 -36 33 -56.5t63 -20.5t63.5 20.5
t33.5 56.5h138q-13 -89 -73.5 -140t-161.5 -51q-99 0 -159.5 51t-74.5 140z" />
    <glyph glyph-name="Uring" unicode="&#x16e;" horiz-adv-x="874" 
d="M252 332q0 -55 21.5 -95.5t62.5 -62t101 -21.5t101 21.5t62.5 62t21.5 95.5v418h189v-427q0 -102 -47 -178t-131 -118.5t-196 -42.5t-196 42.5t-131 118.5t-47 178v427h189v-418zM436 791q-89 0 -139 34.5t-50 96.5t50 96.5t139 34.5q91 0 140.5 -34.5t49.5 -96.5
t-49.5 -96.5t-140.5 -34.5zM437 873q43 0 63.5 12.5t20.5 35.5q0 24 -20.5 36.5t-63.5 12.5q-44 0 -64.5 -12.5t-20.5 -36.5q0 -23 20.5 -35.5t64.5 -12.5z" />
    <glyph glyph-name="uring" unicode="&#x16f;" horiz-adv-x="766" 
d="M303 -15q-80 0 -136 32.5t-85.5 92.5t-29.5 142v318h186v-291q0 -69 33 -106t95 -37q46 0 78 19t49.5 55t17.5 85l58 -31q-10 -90 -47.5 -152.5t-94 -94.5t-124.5 -32zM547 0l-36 222v348h186v-376l36 -194h-186zM380 617q-85 0 -133.5 36t-48.5 99q0 62 48.5 98
t133.5 36t133.5 -36t48.5 -98q0 -63 -48.5 -99t-133.5 -36zM380 695q37 0 56.5 15t19.5 42t-19.5 42t-56.5 15q-36 0 -56 -15t-20 -42t20 -42t56 -15z" />
    <glyph glyph-name="Uhungarumlaut" unicode="&#x170;" horiz-adv-x="874" 
d="M252 332q0 -55 21.5 -95.5t62.5 -62t101 -21.5t101 21.5t62.5 62t21.5 95.5v418h189v-427q0 -102 -47 -178t-131 -118.5t-196 -42.5t-196 42.5t-131 118.5t-47 178v427h189v-418zM356 972h180l-139 -165h-164zM608 972h180l-138 -165h-164z" />
    <glyph glyph-name="uhungarumlaut" unicode="&#x171;" horiz-adv-x="766" 
d="M303 -15q-80 0 -136 32.5t-85.5 92.5t-29.5 142v318h186v-291q0 -69 33 -106t95 -37q46 0 78 19t49.5 55t17.5 85l58 -31q-10 -90 -47.5 -152.5t-94 -94.5t-124.5 -32zM547 0l-36 222v348h186v-376l36 -194h-186zM293 812h165l-120 -185h-157zM531 812h166l-120 -185
h-157z" />
    <glyph glyph-name="Uogonek" unicode="&#x172;" horiz-adv-x="874" 
d="M622 332v418h189v-427q0 -122 -66 -205.5t-177 -115.5q-56 -17 -86.5 -35t-30.5 -37q0 -29 70 -29q16 0 31 1.5t28 4.5v-101q-13 -5 -43 -9.5t-62 -4.5q-70 0 -113 26.5t-43 69.5q0 41 37 70.5t112 49.5l-4 -22q-118 -6 -208.5 34.5t-141.5 118.5t-51 184v427h189v-418
q0 -55 21.5 -95t62.5 -62t101 -22t101 21.5t62.5 62t21.5 95.5z" />
    <glyph glyph-name="uogonek" unicode="&#x173;" horiz-adv-x="766" 
d="M303 -15q-80 0 -136 32.5t-85.5 92.5t-29.5 142v318h186v-291q0 -69 33 -106t95 -37q46 0 78 19t49.5 55t17.5 85l58 -31q-10 -90 -47.5 -152.5t-94 -94.5t-124.5 -32zM547 0l-36 222v348h186v-376l36 -194h-186zM645 19l65 -6v-13h23q-37 -10 -64 -22t-42 -24t-15 -25
q0 -28 62 -28q16 0 31 1.5t28 4.5v-101q-13 -5 -43 -9.5t-62 -4.5q-68 0 -109.5 26.5t-41.5 69.5q0 44 41.5 76.5t126.5 54.5z" />
    <glyph glyph-name="Wcircumflex" unicode="&#x174;" horiz-adv-x="1349" 
d="M1003 79l-61 -1l197 672h199l-235 -750h-241l-227 652h79l-226 -652h-242l-235 750h200l197 -671l-60 1l227 670h200zM575 972h199l151 -165h-156l-137 104h85l-137 -104h-155z" />
    <glyph glyph-name="wcircumflex" unicode="&#x175;" horiz-adv-x="1130" 
d="M829 103h-59l169 467h186l-217 -570h-190l-184 482h64l-187 -482h-190l-216 570h187l170 -467h-61l176 467h179zM473 812h192l143 -185h-149l-133 137h85l-132 -137h-149z" />
    <glyph glyph-name="Ycircumflex" unicode="&#x176;" horiz-adv-x="910" 
d="M361 0v363h189v-363h-189zM9 750h209l280 -356h-87l280 356h209l-384 -488l-122 -2zM355 972h199l151 -165h-156l-137 104h85l-137 -104h-155z" />
    <glyph glyph-name="ycircumflex" unicode="&#x177;" horiz-adv-x="761" 
d="M234 -181q-60 0 -106.5 15t-90.5 45v131q45 -29 84.5 -41.5t86.5 -12.5q42 0 73.5 18t52.5 66l228 530h197l-279 -588q-28 -60 -67 -96t-84.5 -51.5t-94.5 -15.5zM256 45l-247 525h204l222 -525h-179zM294 812h192l143 -185h-149l-133 137h85l-132 -137h-149z" />
    <glyph glyph-name="Ydieresis" unicode="&#x178;" horiz-adv-x="910" 
d="M361 0v363h189v-363h-189zM9 750h209l280 -356h-87l280 356h209l-384 -488l-122 -2zM301 810q-47 0 -75 24t-28 66q0 40 28 63.5t75 23.5t75.5 -23.5t28.5 -63.5q0 -42 -28.5 -66t-75.5 -24zM608 810q-47 0 -75.5 24t-28.5 66q0 40 28.5 63.5t75.5 23.5q46 0 74.5 -23.5
t28.5 -63.5q0 -42 -28.5 -66t-74.5 -24z" />
    <glyph glyph-name="Zacute" unicode="&#x179;" horiz-adv-x="800" 
d="M41 0v138l507 507l134 -44h-637v149h710v-137l-507 -508l-115 45h625v-150h-717zM432 972h212l-171 -165h-188z" />
    <glyph glyph-name="zacute" unicode="&#x17a;" horiz-adv-x="683" 
d="M38 0v130l406 333l128 -28h-531v135h601v-130l-405 -333l-109 28h516v-135h-606zM363 812h181l-133 -185h-173z" />
    <glyph glyph-name="Zdotaccent" unicode="&#x17b;" horiz-adv-x="800" 
d="M41 0v138l507 507l134 -44h-637v149h710v-137l-507 -508l-115 45h625v-150h-717zM400 810q-49 0 -80 25.5t-31 67.5q0 43 31 68.5t80 25.5q50 0 80 -25.5t30 -68.5q0 -42 -30 -67.5t-80 -25.5z" />
    <glyph glyph-name="zdotaccent" unicode="&#x17c;" horiz-adv-x="683" 
d="M38 0v130l406 333l128 -28h-531v135h601v-130l-405 -333l-109 28h516v-135h-606zM342 630q-49 0 -80 25.5t-31 67.5q0 43 31 68t80 25q50 0 80 -25t30 -68q0 -42 -30 -67.5t-80 -25.5z" />
    <glyph glyph-name="Zcaron" unicode="&#x17d;" horiz-adv-x="800" 
d="M41 0v138l507 507l134 -44h-637v149h710v-137l-507 -508l-115 45h625v-150h-717zM499 806h-198l-151 165h155l138 -104h-85l137 104h155z" />
    <glyph glyph-name="zcaron" unicode="&#x17e;" horiz-adv-x="683" 
d="M38 0v130l406 333l128 -28h-531v135h601v-130l-405 -333l-109 28h516v-135h-606zM438 627h-192l-143 185h148l133 -137h-85l132 137h150z" />
    <glyph glyph-name="longs" unicode="&#x17f;" horiz-adv-x="305" 
d="M371 647q-69 0 -97.5 -26t-28.5 -82v-539h-185v528q0 81 32 138.5t96 88.5t160 31q44 0 78 -6.5t72 -17.5v-138q-31 11 -62 17t-65 6z" />
    <glyph glyph-name="uni0180" unicode="&#x180;" horiz-adv-x="807" 
d="M490 -16q-80 0 -144 36t-105.5 100.5t-57.5 150.5q15 88 57 152.5t106.5 100.5t143.5 36q84 0 147.5 -36.5t99.5 -101t36 -151.5q0 -85 -36 -150t-99.5 -101t-147.5 -36zM436 127q44 0 77.5 18.5t52.5 51.5t19 74q0 43 -19 75.5t-52.5 51t-77.5 18.5t-83.5 -18.5t-69 -51
t-45.5 -75.5q16 -41 45.5 -74t69 -51.5t83.5 -18.5zM245 0h-186v770h186v-387l-25 -48v-134l25 -49v-152zM522 600h-536v112h536v-112z" />
    <glyph glyph-name="uni0181" unicode="&#x181;" horiz-adv-x="1074" 
d="M210 750h560q104 0 162 -48.5t58 -133.5q0 -47 -22 -90t-70.5 -72.5t-129.5 -37.5l16 37q87 -2 144 -27t84.5 -68.5t27.5 -99.5q0 -61 -28.5 -108.5t-83.5 -74.5t-138 -27h-540l58 385l-51 321l69 -95h-73q-36 0 -55 -18t-19 -59q0 -31 6.5 -59t14.5 -52h-141
q-15 30 -27.5 69t-12.5 83q0 82 49 128.5t142 46.5zM436 46l-72 89h381q48 0 75.5 23.5t27.5 66.5t-30.5 68.5t-89.5 25.5h-312v132h287q41 0 68 23.5t27 64.5q0 33 -23 54.5t-66 21.5h-345l72 89l52 -319z" />
    <glyph glyph-name="uni0186" unicode="&#x186;" horiz-adv-x="929" 
d="M32 310h190q10 -52 41 -88t80.5 -55t114.5 -19q74 0 128 27.5t83.5 78.5t29.5 121t-29.5 121t-83.5 78.5t-128 27.5q-65 0 -114.5 -19.5t-80.5 -55.5t-41 -87h-190q12 98 68 171t147.5 114t209.5 41q130 0 227 -49t151.5 -137t54.5 -205t-54.5 -205t-151.5 -137t-227 -49
q-118 0 -209.5 41t-147.5 114.5t-68 170.5z" />
    <glyph glyph-name="uni0187" unicode="&#x187;" horiz-adv-x="968" 
d="M466 766q131 0 213 -52.5t125 -144.5l-53 12q-23 37 -43 78.5t-20 85.5t20.5 79.5t64 57t110.5 21.5q36 0 68 -5.5t61 -15.5v-141q-21 6 -41.5 10.5t-43.5 4.5q-48 0 -70 -21t-22 -56q0 -21 7.5 -47.5t19.5 -59.5q7 -24 18.5 -59t16.5 -73h-190q-10 51 -40.5 87t-80 55.5
t-115.5 19.5q-74 0 -128 -27.5t-83.5 -78.5t-29.5 -120q0 -70 29.5 -121t83.5 -79t128 -28q66 0 115.5 19t80 55t40.5 88h190q-11 -97 -67.5 -170.5t-148 -114.5t-209.5 -41q-130 0 -227 49t-151 137t-54 205t54 205t150 137t222 49z" />
    <glyph glyph-name="uni0188" unicode="&#x188;" horiz-adv-x="795" 
d="M737 739q43 0 74.5 -9t58.5 -21v-133q-29 13 -51.5 18t-45.5 5q-47 0 -68 -20t-21 -61q0 -32 9 -63.5t23 -77.5l12 -44h-185q-12 55 -55 84t-105 29q-49 0 -85.5 -19t-56.5 -55t-20 -87t20 -87t56.5 -55t85.5 -19q62 0 105.5 30.5t54.5 82.5h185q-9 -75 -56 -132
t-122 -89t-169 -32q-102 0 -180.5 38t-123 106.5t-44.5 158.5q0 88 42 155.5t116 105.5t171 38q62 0 117.5 -19.5t99.5 -62.5l21 -104q-33 45 -47.5 80t-14.5 77q0 91 54 136.5t145 45.5z" />
    <glyph glyph-name="uni0189" unicode="&#x189;" horiz-adv-x="946" 
d="M27 440h440v-128h-440v128zM466 750q132 0 231 -47t154.5 -131t55.5 -197q0 -112 -55.5 -196.5t-154.5 -131.5t-231 -47h-366v750h366zM288 77l-92 90h284q72 0 125 26t82 72.5t29 109.5q0 64 -29 110t-82 72t-125 26h-284l92 90v-596z" />
    <glyph glyph-name="uni018A" unicode="&#x18a;" horiz-adv-x="1144" 
d="M222 750h443q132 0 231 -47t154.5 -131t55.5 -197q0 -112 -55.5 -196.5t-154.5 -131.5t-231 -47h-366v663l54 -71h-95q-37 0 -57 -16.5t-20 -56.5q0 -26 6 -51t13 -45h-141q-15 30 -27.5 68t-12.5 83q0 82 50 129t153 47zM487 77l-92 90h284q72 0 125 26t82 72.5
t29 109.5q0 64 -29 110t-82 72t-125 26h-269l77 79v-585z" />
    <glyph glyph-name="uni018E" unicode="&#x18e;" horiz-adv-x="787" 
d="M83 445h542v-140h-542v140zM498 375l50 310l79 -90h-572v155h682l-58 -375l58 -375h-687v155h577l-79 -90z" />
    <glyph glyph-name="uni018F" unicode="&#x18f;" horiz-adv-x="928" 
d="M461 766q101 0 180 -29.5t134.5 -82.5t84.5 -124.5t29 -155.5q0 -117 -54.5 -204.5t-150 -136t-222.5 -48.5q-103 0 -182.5 32.5t-133.5 91.5t-81.5 138t-27.5 172h682v-127h-558l72 44q5 -60 33.5 -104.5t78 -69.5t116.5 -25q72 0 125 27.5t82.5 79.5t29.5 128
t-29 128.5t-82.5 81t-126.5 28.5q-62 0 -108 -17.5t-75 -48t-42 -69.5h-190q17 87 72 152.5t142.5 102t201.5 36.5z" />
    <glyph glyph-name="uni0190" unicode="&#x190;" horiz-adv-x="830" 
d="M780 510h-188q-9 52 -54.5 80.5t-127.5 28.5q-79 0 -118.5 -23t-39.5 -65q0 -38 34 -61.5t117 -23.5h131v-129h-131q-63 0 -99.5 -10t-51.5 -28.5t-15 -46.5q0 -48 45.5 -74.5t132.5 -26.5q93 0 141 29.5t56 84.5h188q-3 -79 -51 -137.5t-133.5 -91t-200.5 -32.5
q-117 0 -200 30.5t-126 83t-43 120.5q0 62 37 103t106.5 60t164.5 14v-20q-101 -1 -165.5 23.5t-95.5 66t-31 92.5q0 63 42 109.5t118 73t178 26.5q119 0 202 -34.5t128.5 -92.5t49.5 -129z" />
    <glyph glyph-name="uni0191" unicode="&#x191;" horiz-adv-x="763" 
d="M165 438h543v-161h-543v161zM262 62q0 -117 -61.5 -180t-182.5 -63q-34 0 -70 5t-65 16v141q18 -6 40.5 -11t49.5 -5q52 0 76 28.5t24 82.5v674h653v-161h-557l93 93v-620z" />
    <glyph glyph-name="florin" unicode="&#x192;" horiz-adv-x="602" 
d="M45 379v146h543v-146h-543zM452 786q43 0 77.5 -6.5t71.5 -17.5v-138q-30 11 -61.5 17t-65.5 6q-69 0 -97.5 -26t-28.5 -82v-462q0 -81 -31.5 -138.5t-94 -88.5t-156.5 -31q-40 0 -71 6.5t-65 17.5v138q27 -11 55 -17t59 -6q65 0 92 26t27 82v462q0 81 32 138.5
t96.5 88.5t160.5 31z" />
    <glyph glyph-name="uni0193" unicode="&#x193;" horiz-adv-x="986" 
d="M463 -16q-88 0 -165 26t-134.5 76t-90 123t-32.5 166q0 95 33.5 168t92 122.5t134.5 75t163 25.5q124 0 204.5 -46.5t131.5 -146.5l-45 8q-23 37 -43 78.5t-20 85.5t20.5 80t64 57t110.5 21q36 0 68 -5.5t61 -15.5v-141q-21 6 -41.5 10.5t-43.5 4.5q-48 0 -70 -21
t-22 -56q0 -21 7.5 -47.5t19.5 -59.5q7 -24 15.5 -49.5t14.5 -50.5h-190q-10 42 -41.5 72t-80.5 46.5t-111 16.5q-74 0 -128.5 -26.5t-84 -78t-29.5 -127.5q0 -77 31.5 -129.5t89.5 -79.5t138 -27q76 0 134.5 22.5t93 66t39.5 103.5l82 -6q-3 -68 -27.5 -129.5t-71.5 -109
t-116 -75t-161 -27.5zM511 263v120h393v-383h-134l-26 300l37 -37h-270z" />
    <glyph glyph-name="uni0194" unicode="&#x194;" horiz-adv-x="911" 
d="M306 102h291l-20 -61l-163 205h83l-166 -211zM112 0l283 358l-15 -107l-384 499h206l300 -388l-81 15l292 373h201l-383 -495l-20 109l290 -364h-689z" />
    <glyph glyph-name="uni0196" unicode="&#x196;" horiz-adv-x="419" 
d="M69 750h189v-528q0 -47 16.5 -69.5t58.5 -22.5q16 0 32.5 3.5t33.5 8.5v-142q-24 -6 -53 -11t-65 -5q-109 0 -160.5 58.5t-51.5 169.5v538z" />
    <glyph glyph-name="uni0197" unicode="&#x197;" horiz-adv-x="402" 
d="M20 321v130h362v-130h-362zM107 750h188v-750h-188v750z" />
    <glyph glyph-name="uni0198" unicode="&#x198;" horiz-adv-x="879" 
d="M424 367l135 117l306 -484h-216zM73 0v750h188v-598l-52 38l357 478q22 29 46.5 51t57 34.5t79.5 12.5q32 0 59 -5t50 -11v-142q-25 7 -43 10t-36 3q-35 0 -56 -15t-39 -38l-441 -568h-170z" />
    <glyph glyph-name="uni0199" unicode="&#x199;" horiz-adv-x="729" 
d="M245 151l-51 17l332 402h194l-493 -570h-167v534q0 127 66 189.5t215 62.5q46 0 88.5 -7.5t75.5 -17.5v-137q-27 11 -61 17.5t-70 6.5q-69 0 -99 -30t-30 -94v-373zM359 279l138 101l238 -380h-211z" />
    <glyph glyph-name="uni019A" unicode="&#x19a;" horiz-adv-x="423" 
d="M30 458h363v-112h-363v112zM119 770h186v-770h-186v770z" />
    <glyph glyph-name="uni019B" unicode="&#x19b;" horiz-adv-x="728" 
d="M128 483l-29 93l467 154l29 -94zM-12 0l243 480h179l-222 -480h-200zM192 786q74 0 135 -40.5t100 -122.5l299 -623h-200l-248 565q-19 43 -44 64.5t-67 21.5q-47 0 -87 -15t-78 -39v126q43 31 87 47t103 16z" />
    <glyph glyph-name="uni019C" unicode="&#x19c;" horiz-adv-x="1224" 
d="M1180 0h-189l-37 227v523h189v-556zM754 -16q-77 0 -131.5 33.5t-83 94.5t-28.5 145v493h188v-466q0 -67 31 -103t89 -36q42 0 72 19t46.5 53.5t16.5 81.5l59 -30q-11 -92 -47.5 -155.5t-91 -96.5t-120.5 -33zM313 -16q-78 0 -133 33t-84 93t-29 142v498h189v-466
q0 -67 31 -103t89 -36q42 0 72 19t46.5 53.5t16.5 81.5l61 -30q-11 -92 -47.5 -155.5t-91 -96.5t-120.5 -33z" />
    <glyph glyph-name="uni019D" unicode="&#x19d;" horiz-adv-x="963" 
d="M73 750h245l450 -621l-61 -11v632h183v-750h-238l-456 632l60 11v-577q0 -120 -60 -183.5t-184 -63.5q-34 0 -67 5t-62 14v141q19 -5 41 -9t46 -4q55 0 79 28t24 84v672z" />
    <glyph glyph-name="uni019E" unicode="&#x19e;" horiz-adv-x="777" 
d="M32 570h186l37 -222v-348h-186v376zM468 586q82 0 139 -32.5t87.5 -92.5t30.5 -143v-483h-186v455q0 71 -34.5 107.5t-100.5 36.5q-45 0 -79 -19.5t-52 -55t-18 -84.5l-60 31q12 91 50 153t96 94.5t127 32.5z" />
    <glyph glyph-name="uni019F" unicode="&#x19f;" horiz-adv-x="961" 
d="M91 446h754v-142h-754v142zM480 -16q-132 0 -231.5 49t-154.5 137t-55 205t55 205t154.5 137t231.5 49t231.5 -49t155 -137t55.5 -205t-55.5 -205t-155 -137t-231.5 -49zM480 145q79 0 136 27.5t88.5 79.5t31.5 123t-31.5 123t-88.5 79.5t-136 27.5q-78 0 -135.5 -27.5
t-88.5 -79.5t-31 -123t31 -123t88.5 -79.5t135.5 -27.5z" />
    <glyph glyph-name="Ohorn" unicode="&#x1a0;" horiz-adv-x="964" 
d="M480 -16q-132 0 -231.5 49t-154.5 137t-55 205t55 205t154.5 137t231.5 49q41 0 72.5 -4t57.5 -10q22 -4 43.5 -7.5t44.5 -3.5q51 0 72.5 19t21.5 46q0 17 -7 36t-21 39h147q14 -24 22 -50t8 -51q0 -50 -34 -85.5t-101 -47.5q55 -50 85 -119t30 -153q0 -117 -55.5 -205
t-154.5 -137t-231 -49zM480 153q77 0 133 26.5t86.5 76.5t30.5 119t-30.5 119t-86.5 76.5t-133 26.5t-133.5 -26.5t-87 -76.5t-30.5 -119t30.5 -119t87 -76.5t133.5 -26.5z" />
    <glyph glyph-name="ohorn" unicode="&#x1a1;" horiz-adv-x="804" 
d="M392 -16q-108 0 -189 38t-126 105.5t-45 157.5t45 157.5t126 105.5t189 38q44 0 73.5 -5t53.5 -10q14 -3 27.5 -4.5t26.5 -1.5q39 0 59.5 16t20.5 46q0 18 -6 38t-16 35h141q26 -45 26 -98q0 -50 -31.5 -83.5t-87.5 -44.5q35 -36 54.5 -84t19.5 -105q0 -90 -45 -157.5
t-126.5 -105.5t-189.5 -38zM392 124q55 0 93.5 19.5t59 55.5t20.5 86t-20.5 86t-59 55.5t-93.5 19.5q-53 0 -92 -19.5t-60 -55.5t-21 -86t21 -86t60 -55.5t92 -19.5z" />
    <glyph glyph-name="uni01A4" unicode="&#x1a4;" horiz-adv-x="1030" 
d="M222 750h492q92 0 158.5 -31.5t102 -88.5t35.5 -133t-35.5 -133t-102 -88.5t-158.5 -31.5h-328v153h317q55 0 85.5 26.5t30.5 73.5t-30.5 73.5t-85.5 26.5h-300l84 88v-685h-188v671l80 -79h-121q-37 0 -57 -16.5t-20 -56.5q0 -26 6 -51t13 -45h-141q-15 30 -27.5 68
t-12.5 83q0 82 50 129t153 47z" />
    <glyph glyph-name="uni01A5" unicode="&#x1a5;" horiz-adv-x="807" 
d="M183 276q15 89 57 154.5t106.5 101.5t143.5 36q84 0 147.5 -36.5t99.5 -102.5t36 -153t-36 -153t-99.5 -102.5t-147.5 -36.5q-80 0 -144 36.5t-105.5 102t-57.5 153.5zM585 276q0 44 -19 77t-52.5 52.5t-76.5 19.5q-44 0 -84 -19.5t-69.5 -52.5t-45.5 -77
q16 -44 45.5 -77t69.5 -52.5t84 -19.5q43 0 76.5 19.5t52.5 52.5t19 77zM59 534q0 127 66 189.5t215 62.5q46 0 88.5 -7.5t75.5 -17.5v-137q-27 11 -61 17.5t-70 6.5q-69 0 -99 -30t-30 -94v-126l-7 -24v-148l7 -44v-347h-185v699z" />
    <glyph glyph-name="uni01A9" unicode="&#x1a9;" horiz-adv-x="780" 
d="M40 0v138l336 266v-57l-327 266v137h681v-151h-608l66 99l320 -260v-125l-294 -233l-83 71h613v-151h-704z" />
    <glyph glyph-name="uni01AA" unicode="&#x1aa;" horiz-adv-x="580" 
d="M574 -36q26 0 49 5t41 11v-140q-29 -10 -64.5 -15.5t-71.5 -5.5q-120 0 -177.5 63t-57.5 179v503q0 26 -9.5 46.5t-28 32t-46.5 11.5q-40 0 -59.5 -20.5t-19.5 -53.5q0 -36 22.5 -58t59.5 -22q38 0 66.5 22t44.5 64l78 -42q-32 -82 -82.5 -120.5t-118.5 -38.5
q-61 0 -109.5 26t-77 71.5t-28.5 103.5t28 102.5t81.5 71t131.5 26.5q81 0 137.5 -28.5t86 -82.5t29.5 -132v-467q0 -56 21.5 -84t73.5 -28z" />
    <glyph glyph-name="uni01AC" unicode="&#x1ac;" horiz-adv-x="896" 
d="M397 666h189v-666h-189v666zM878 750v-167h-617q-39 0 -60 -17t-21 -55q0 -24 6 -46.5t14 -41.5h-142q-14 30 -26.5 68t-12.5 83q0 82 49.5 129t153.5 47h656z" />
    <glyph glyph-name="uni01AD" unicode="&#x1ad;" horiz-adv-x="592" 
d="M5 504l135 50l-17 -20q0 127 66.5 189.5t214.5 62.5q47 0 89 -7.5t75 -17.5v-137q-27 11 -61 17.5t-70 6.5q-69 0 -98.5 -30t-29.5 -94l-27 37h273v-138h-246v-179q0 -64 26 -90t93 -26q43 0 75.5 8t61.5 21v-141q-30 -12 -78.5 -22t-100.5 -10q-91 0 -149.5 29t-86 81.5
t-27.5 123.5v205h-118v81z" />
    <glyph glyph-name="uni01AE" unicode="&#x1ae;" horiz-adv-x="811" 
d="M18 750h773v-167h-773v167zM593 -35q27 0 49.5 5t40.5 11v-141q-29 -11 -64.5 -16t-70.5 -5q-121 0 -179.5 63t-58.5 180v604h189v-590q0 -54 21 -82.5t73 -28.5z" />
    <glyph glyph-name="Uhorn" unicode="&#x1af;" horiz-adv-x="942" 
d="M252 332q0 -55 21.5 -95.5t62.5 -62t101 -21.5t101 21.5t62.5 62t21.5 95.5v418h189v-427q0 -102 -47 -178t-131 -118.5t-196 -42.5t-196 42.5t-131 118.5t-47 178v427h189v-418zM989 782q0 -63 -52 -99.5t-143 -36.5h-9.5h-7.5v104h2h1q29 0 46.5 15t17.5 41
q0 16 -7 35.5t-21 38.5h142q31 -48 31 -98z" />
    <glyph glyph-name="uhorn" unicode="&#x1b0;" horiz-adv-x="839" 
d="M303 -15q-80 0 -136 32.5t-85.5 92.5t-29.5 142v318h186v-291q0 -69 33 -106t95 -37q46 0 78 19t49.5 55t17.5 85l58 -31q-10 -90 -47.5 -152.5t-94 -94.5t-124.5 -32zM547 0l-36 222v348h186v-376l36 -194h-186zM875 602q0 -63 -52 -99.5t-143 -36.5h-9.5h-7.5v104h2h1
q29 0 46.5 15t17.5 41q0 16 -7 35.5t-21 38.5h142q31 -48 31 -98z" />
    <glyph glyph-name="uni01B1" unicode="&#x1b1;" horiz-adv-x="972" 
d="M486 -16q-140 0 -234.5 47.5t-141.5 128.5t-47 182q0 126 79.5 218.5t222.5 133.5l-57 -85h-266v141h362v-128q-73 -37 -114.5 -97t-41.5 -140q0 -70 28.5 -122.5t82 -81t127.5 -28.5q75 0 128 28.5t81.5 81t28.5 122.5q0 80 -41.5 140t-114.5 97v128h362v-141h-266
l-56 85q142 -41 221.5 -133.5t79.5 -218.5q0 -101 -47 -182t-141 -128.5t-235 -47.5z" />
    <glyph glyph-name="uni01B2" unicode="&#x1b2;" horiz-adv-x="879" 
d="M65 321v429h188v-421q0 -56 17 -96t51 -61.5t84 -21.5q51 0 94.5 24.5t77.5 68.5t52.5 103.5t18.5 131.5q0 65 -31.5 102.5t-91.5 37.5q-29 0 -54 -6t-48 -16v144q25 10 64.5 18t86.5 8q127 0 195.5 -71.5t68.5 -215.5q0 -100 -31.5 -189.5t-90.5 -158.5t-142 -108
t-185 -39q-104 0 -176.5 42t-110 117.5t-37.5 177.5z" />
    <glyph glyph-name="uni01B3" unicode="&#x1b3;" horiz-adv-x="914" 
d="M358 0v363h189v-363h-189zM512 260h-121l-385 490h208l281 -356h-81l193 261q29 41 55.5 65t56.5 35t70 11q27 0 51.5 -4.5t48.5 -11.5v-140q-17 5 -32 7.5t-31 2.5q-30 0 -47 -12t-35 -37z" />
    <glyph glyph-name="uni01B4" unicode="&#x1b4;" horiz-adv-x="805" 
d="M255 45l-247 525h205l222 -525h-180zM234 -181q-60 0 -107 15t-90 45v131q44 -28 83.5 -41t87.5 -13q41 0 73 18.5t52 65.5l171 395q22 52 47 85t60 49.5t86 16.5q29 0 57 -6.5t46 -15.5v-124q-9 4 -25.5 9.5t-35.5 5.5q-31 0 -48.5 -16.5t-31.5 -47.5l-179 -409
q-26 -60 -65.5 -96t-86 -51.5t-94.5 -15.5z" />
    <glyph glyph-name="uni01B5" unicode="&#x1b5;" horiz-adv-x="806" 
d="M96 445h616v-130h-616v130zM44 0v138l507 507l134 -44h-637v149h710v-137l-507 -508l-115 45h625v-150h-717z" />
    <glyph glyph-name="uni01B6" unicode="&#x1b6;" horiz-adv-x="688" 
d="M64 344h562v-112h-562v112zM41 0v130l406 333l127 -28h-530v135h601v-130l-405 -333l-109 28h516v-135h-606z" />
    <glyph glyph-name="uni01B7" unicode="&#x1b7;" horiz-adv-x="810" 
d="M63 750h670v-137l-329 -227l-22 55h74q110 0 179.5 -26t102.5 -73t33 -112q0 -71 -41.5 -126.5t-123.5 -87.5t-203 -32q-115 0 -200.5 32.5t-133.5 91t-52 137.5h188q8 -55 56 -84.5t142 -29.5q87 0 132 28.5t45 79.5q0 31 -16 53t-53 34t-101 12h-117v125l343 232
l25 -92h-598v147z" />
    <glyph glyph-name="uni01B8" unicode="&#x1b8;" horiz-adv-x="810" 
d="M747 750v-147h-598l25 92l343 -232v-125h-117q-63 0 -100.5 -12t-53.5 -34t-16 -53q0 -51 45 -79.5t132 -28.5q94 0 142 29.5t56 84.5h188q-3 -79 -51.5 -137.5t-133.5 -91t-201 -32.5q-120 0 -202.5 32t-124 87.5t-41.5 126.5q0 65 33 112t102.5 73t179.5 26h74l-21 -55
l-330 227v137h670z" />
    <glyph glyph-name="uni01B9" unicode="&#x1b9;" horiz-adv-x="737" 
d="M678 570v-135h-541l24 83l337 -232v-115h-115q-62 0 -99 -14t-53.5 -37.5t-16.5 -53.5q0 -51 42.5 -81t120.5 -30q79 0 124 34t53 87h176q-3 -73 -46 -131.5t-120.5 -92t-186.5 -33.5q-114 0 -192.5 31t-118.5 85t-40 122q0 61 31.5 110.5t99 79.5t173.5 30h83l-21 -58
l-323 219v132h609z" />
    <glyph glyph-name="uni01C0" unicode="&#x1c0;" horiz-adv-x="293" 
d="M60 770h173v-875h-173v875z" />
    <glyph glyph-name="uni01C1" unicode="&#x1c1;" horiz-adv-x="585" 
d="M60 770h173v-875h-173v875zM353 770h173v-875h-173v875z" />
    <glyph glyph-name="uni01C2" unicode="&#x1c2;" horiz-adv-x="427" 
d="M48 507h332v-112h-332v112zM48 270h332v-112h-332v112zM127 770h173v-875h-173v875z" />
    <glyph glyph-name="uni01C3" unicode="&#x1c3;" horiz-adv-x="312" 
d="M59 750h194l-31 -494h-132zM156 -10q-46 0 -75.5 27.5t-29.5 71.5t29.5 71t75.5 27q47 0 76.5 -27t29.5 -71t-29.5 -71.5t-76.5 -27.5z" />
    <glyph glyph-name="uni01C4" unicode="&#x1c4;" horiz-adv-x="1699" 
d="M439 750q132 0 231 -47t154.5 -131t55.5 -197q0 -112 -55.5 -196.5t-154.5 -131.5t-231 -47h-366v750h366zM261 77l-92 90h284q72 0 125 26t82 72.5t29 109.5q0 64 -29 110t-82 72t-125 26h-284l92 90v-596zM940 0v138l507 507l134 -44h-637v149h710v-137l-507 -508
l-115 45h625v-150h-717zM1398 806h-198l-151 165h155l137 -104h-84l137 104h155z" />
    <glyph glyph-name="uni01C5" unicode="&#x1c5;" horiz-adv-x="1588" 
d="M439 750q132 0 231 -47t154.5 -131t55.5 -197q0 -112 -55.5 -196.5t-154.5 -131.5t-231 -47h-366v750h366zM261 77l-92 90h284q72 0 125 26t82 72.5t29 109.5q0 64 -29 110t-82 72t-125 26h-284l92 90v-596zM943 0v130l406 333l128 -28h-531v135h602v-130l-406 -333
l-109 28h517v-135h-607zM1343 627h-192l-143 185h149l132 -137h-85l133 137h149z" />
    <glyph glyph-name="uni01C6" unicode="&#x1c6;" horiz-adv-x="1501" 
d="M581 0l-25 215l34 68l-33 86l46 401h193l-57 -471l34 -299h-192zM624 285q-15 -91 -57 -158.5t-106 -105t-144 -37.5q-84 0 -147.5 38t-99.5 105.5t-36 157.5t36 157.5t99.5 105.5t147.5 38q80 0 144 -37.5t106.5 -104.5t56.5 -159zM222 285q0 -46 19 -81.5t52.5 -56
t77.5 -20.5t83.5 20.5t69.5 56t45 81.5q-15 46 -45 81.5t-69.5 56t-83.5 20.5t-77.5 -20.5t-52.5 -56t-19 -81.5zM856 0v130l406 333l128 -28h-531v135h602v-130l-406 -333l-109 28h517v-135h-607zM1256 627h-192l-143 185h149l132 -137h-85l133 137h149z" />
    <glyph glyph-name="uni01C7" unicode="&#x1c7;" horiz-adv-x="1541" 
d="M262 750v-666l-85 83h562v-167h-666v750h189zM762 367h185v-27q0 -93 39.5 -142.5t130.5 -49.5q90 0 130.5 47t40.5 130v425h189v-434q0 -105 -45 -179.5t-126.5 -113.5t-188.5 -39q-106 0 -186 40.5t-124.5 116.5t-44.5 184v42z" />
    <glyph glyph-name="uni01C8" unicode="&#x1c8;" horiz-adv-x="1062" 
d="M262 750v-666l-85 83h562v-167h-666v750h189zM817 578l92 -19l93 19v-743h-185v743zM910 630q-49 0 -80 25.5t-31 67.5q0 43 31 68t80 25q50 0 80 -25t30 -68q0 -42 -30 -67.5t-80 -25.5z" />
    <glyph glyph-name="uni01C9" unicode="&#x1c9;" horiz-adv-x="610" 
d="M60 770h185v-770h-185v770zM365 578l92 -19l93 19v-743h-185v743zM458 630q-49 0 -80 25.5t-31 67.5q0 43 31 68t80 25q50 0 80 -25t30 -68q0 -42 -30 -67.5t-80 -25.5z" />
    <glyph glyph-name="uni01CA" unicode="&#x1ca;" horiz-adv-x="1762" 
d="M768 129l-61 -11v632h183v-750h-238l-457 632l61 11v-643h-183v750h245zM983 367h185v-27q0 -93 39.5 -142.5t130.5 -49.5q90 0 130.5 47t40.5 130v425h189v-434q0 -105 -45 -179.5t-126.5 -113.5t-188.5 -39q-106 0 -186 40.5t-124.5 116.5t-44.5 184v42z" />
    <glyph glyph-name="uni01CB" unicode="&#x1cb;" horiz-adv-x="1268" 
d="M768 129l-61 -11v632h183v-750h-238l-457 632l61 11v-643h-183v750h245zM1023 578l92 -19l93 19v-743h-185v743zM1116 630q-49 0 -80 25.5t-31 67.5q0 43 31 68t80 25q50 0 80 -25t30 -68q0 -42 -30 -67.5t-80 -25.5z" />
    <glyph glyph-name="uni01CC" unicode="&#x1cc;" horiz-adv-x="1083" 
d="M33 570h185l37 -222v-348h-186v376zM468 586q82 0 139.5 -32.5t88 -92.5t30.5 -143v-318h-186v290q0 71 -35 107.5t-100 36.5q-46 0 -79.5 -19.5t-52 -55t-18.5 -84.5l-59 31q11 91 49.5 153t96 94.5t126.5 32.5zM838 578l92 -19l93 19v-743h-185v743zM930 630
q-49 0 -80 25.5t-31 67.5q0 43 31 68t80 25q50 0 80 -25t30 -68q0 -42 -30 -67.5t-80 -25.5z" />
    <glyph glyph-name="uni01CD" unicode="&#x1cd;" horiz-adv-x="943" 
d="M208 151v153h518v-153h-518zM594 750l346 -750h-201l-297 671h58l-296 -671h-202l347 750h245zM571 806h-199l-151 165h156l137 -104h-85l137 104h155z" />
    <glyph glyph-name="uni01CE" unicode="&#x1ce;" horiz-adv-x="816" 
d="M578 0l-25 207l27 78l-27 77l25 208h193l-35 -285l35 -285h-193zM624 285q-15 -91 -57 -158.5t-106 -105t-144 -37.5q-84 0 -147.5 38t-99.5 105.5t-36 157.5t36 157.5t99.5 105.5t147.5 38q80 0 144 -37.5t106.5 -104.5t56.5 -159zM222 285q0 -46 19 -81.5t52.5 -56
t77.5 -20.5t83.5 20.5t69.5 56t45 81.5q-15 46 -45 81.5t-69.5 56t-83.5 20.5t-77.5 -20.5t-52.5 -56t-19 -81.5zM501 627h-192l-143 185h149l133 -137h-85l132 137h149z" />
    <glyph glyph-name="uni01CF" unicode="&#x1cf;" horiz-adv-x="335" 
d="M73 750h189v-750h-189v750zM267 806h-199l-151 165h156l137 -104h-85l137 104h155z" />
    <glyph glyph-name="uni01D0" unicode="&#x1d0;" horiz-adv-x="305" 
d="M60 578l92 -19l93 19v-578h-185v578zM249 627h-193l-143 185h149l133 -137h-85l132 137h150z" />
    <glyph glyph-name="uni01D1" unicode="&#x1d1;" horiz-adv-x="961" 
d="M480 -16q-132 0 -231.5 49t-154.5 137t-55 205t55 205t154.5 137t231.5 49t231.5 -49t155 -137t55.5 -205t-55.5 -205t-155 -137t-231.5 -49zM480 153q78 0 134 26.5t86.5 76.5t30.5 119t-30.5 119t-86.5 76.5t-134 26.5q-77 0 -133 -26.5t-87 -76.5t-31 -119t31 -119
t87 -76.5t133 -26.5zM579 806h-198l-151 165h156l137 -104h-85l137 104h155z" />
    <glyph glyph-name="uni01D2" unicode="&#x1d2;" horiz-adv-x="785" 
d="M392 -16q-108 0 -189 38t-126 105.5t-45 157.5t45 157.5t126 105.5t189 38t189.5 -38t126.5 -105.5t45 -157.5t-45 -157.5t-126.5 -105.5t-189.5 -38zM392 124q55 0 93.5 19.5t59 55.5t20.5 86t-20.5 86t-59 55.5t-93.5 19.5q-53 0 -92 -19.5t-60 -55.5t-21 -86t21 -86
t60 -55.5t92 -19.5zM488 627h-192l-143 185h149l133 -137h-85l132 137h149z" />
    <glyph glyph-name="uni01D3" unicode="&#x1d3;" horiz-adv-x="874" 
d="M252 332q0 -55 21.5 -95.5t62.5 -62t101 -21.5t101 21.5t62.5 62t21.5 95.5v418h189v-427q0 -102 -47 -178t-131 -118.5t-196 -42.5t-196 42.5t-131 118.5t-47 178v427h189v-418zM536 806h-198l-151 165h155l137 -104h-85l138 104h155z" />
    <glyph glyph-name="uni01D4" unicode="&#x1d4;" horiz-adv-x="766" 
d="M303 -15q-80 0 -136 32.5t-85.5 92.5t-29.5 142v318h186v-291q0 -69 33 -106t95 -37q46 0 78 19t49.5 55t17.5 85l58 -31q-10 -90 -47.5 -152.5t-94 -94.5t-124.5 -32zM547 0l-36 222v348h186v-376l36 -194h-186zM476 627h-192l-143 185h149l133 -137h-85l132 137h149z
" />
    <glyph glyph-name="uni01D5" unicode="&#x1d5;" horiz-adv-x="874" 
d="M252 332q0 -55 21.5 -95.5t62.5 -62t101 -21.5t101 21.5t62.5 62t21.5 95.5v418h189v-427q0 -102 -47 -178t-131 -118.5t-196 -42.5t-196 42.5t-131 118.5t-47 178v427h189v-418zM284 810q-47 0 -75 24t-28 66q0 40 28 63.5t75 23.5t75.5 -23.5t28.5 -63.5
q0 -42 -28.5 -66t-75.5 -24zM591 810q-47 0 -75.5 24t-28.5 66q0 40 28.5 63.5t75.5 23.5q46 0 74.5 -23.5t28.5 -63.5q0 -42 -28.5 -66t-74.5 -24zM201 1037v113h474v-113h-474z" />
    <glyph glyph-name="uni01D6" unicode="&#x1d6;" horiz-adv-x="766" 
d="M303 -15q-80 0 -136 32.5t-85.5 92.5t-29.5 142v318h186v-291q0 -69 33 -106t95 -37q46 0 78 19t49.5 55t17.5 85l58 -31q-10 -90 -47.5 -152.5t-94 -94.5t-124.5 -32zM547 0l-36 222v348h186v-376l36 -194h-186zM229 630q-47 0 -75 24t-28 66q0 40 28 63.5t75 23.5
t75.5 -23.5t28.5 -63.5q0 -42 -28.5 -66t-75.5 -24zM532 630q-47 0 -75.5 24t-28.5 66q0 40 28.5 63.5t75.5 23.5q46 0 74.5 -23.5t28.5 -63.5q0 -42 -28.5 -66t-74.5 -24zM144 855v114h473v-114h-473z" />
    <glyph glyph-name="uni01D7" unicode="&#x1d7;" horiz-adv-x="874" 
d="M252 332q0 -55 21.5 -95.5t62.5 -62t101 -21.5t101 21.5t62.5 62t21.5 95.5v418h189v-427q0 -102 -47 -178t-131 -118.5t-196 -42.5t-196 42.5t-131 118.5t-47 178v427h189v-418zM283 810q-47 0 -75 24t-28 66q0 40 28 63.5t75 23.5t75.5 -23.5t28.5 -63.5
q0 -42 -28.5 -66t-75.5 -24zM590 810q-47 0 -75.5 24t-28.5 66q0 40 28.5 63.5t75.5 23.5q46 0 74.5 -23.5t28.5 -63.5q0 -42 -28.5 -66t-74.5 -24zM469 1189h212l-171 -165h-188z" />
    <glyph glyph-name="uni01D8" unicode="&#x1d8;" horiz-adv-x="766" 
d="M303 -15q-80 0 -136 32.5t-85.5 92.5t-29.5 142v318h186v-291q0 -69 33 -106t95 -37q46 0 78 19t49.5 55t17.5 85l58 -31q-10 -90 -47.5 -152.5t-94 -94.5t-124.5 -32zM547 0l-36 222v348h186v-376l36 -194h-186zM229 630q-47 0 -75 24t-28 66q0 40 28 63.5t75 23.5
t75.5 -23.5t28.5 -63.5q0 -42 -28.5 -66t-75.5 -24zM532 630q-47 0 -75.5 24t-28.5 66q0 40 28.5 63.5t75.5 23.5q46 0 74.5 -23.5t28.5 -63.5q0 -42 -28.5 -66t-74.5 -24zM412 1016h212l-171 -165h-188z" />
    <glyph glyph-name="uni01D9" unicode="&#x1d9;" horiz-adv-x="874" 
d="M252 332q0 -55 21.5 -95.5t62.5 -62t101 -21.5t101 21.5t62.5 62t21.5 95.5v418h189v-427q0 -102 -47 -178t-131 -118.5t-196 -42.5t-196 42.5t-131 118.5t-47 178v427h189v-418zM283 810q-46 0 -74.5 24t-28.5 66q0 40 28.5 63.5t74.5 23.5q47 0 75.5 -23.5t28.5 -63.5
q0 -42 -28.5 -66t-75.5 -24zM590 810q-47 0 -75.5 24t-28.5 66q0 40 28.5 63.5t75.5 23.5t75 -23.5t28 -63.5q0 -42 -28 -66t-75 -24zM536 1024h-198l-151 164h156l137 -104h-85l137 104h155z" />
    <glyph glyph-name="uni01DA" unicode="&#x1da;" horiz-adv-x="766" 
d="M303 -15q-80 0 -136 32.5t-85.5 92.5t-29.5 142v318h186v-291q0 -69 33 -106t95 -37q46 0 78 19t49.5 55t17.5 85l58 -31q-10 -90 -47.5 -152.5t-94 -94.5t-124.5 -32zM547 0l-36 222v348h186v-376l36 -194h-186zM229 630q-46 0 -74.5 24t-28.5 66q0 40 28.5 63.5
t74.5 23.5q47 0 75.5 -23.5t28.5 -63.5q0 -42 -28.5 -66t-75.5 -24zM532 630q-47 0 -75.5 24t-28.5 66q0 40 28.5 63.5t75.5 23.5q46 0 74.5 -23.5t28.5 -63.5q0 -42 -28.5 -66t-74.5 -24zM480 851h-198l-151 164h155l137 -104h-85l138 104h155z" />
    <glyph glyph-name="uni01DB" unicode="&#x1db;" horiz-adv-x="874" 
d="M252 332q0 -55 21.5 -95.5t62.5 -62t101 -21.5t101 21.5t62.5 62t21.5 95.5v418h189v-427q0 -102 -47 -178t-131 -118.5t-196 -42.5t-196 42.5t-131 118.5t-47 178v427h189v-418zM283 810q-46 0 -74.5 24t-28.5 66q0 40 28.5 63.5t74.5 23.5q47 0 75.5 -23.5t28.5 -63.5
q0 -42 -28.5 -66t-75.5 -24zM590 810q-47 0 -75.5 24t-28.5 66q0 40 28.5 63.5t75.5 23.5t75 -23.5t28 -63.5q0 -42 -28 -66t-75 -24zM394 1189l147 -165h-188l-172 165h213z" />
    <glyph glyph-name="uni01DC" unicode="&#x1dc;" horiz-adv-x="766" 
d="M303 -15q-80 0 -136 32.5t-85.5 92.5t-29.5 142v318h186v-291q0 -69 33 -106t95 -37q46 0 78 19t49.5 55t17.5 85l58 -31q-10 -90 -47.5 -152.5t-94 -94.5t-124.5 -32zM547 0l-36 222v348h186v-376l36 -194h-186zM229 630q-46 0 -74.5 24t-28.5 66q0 40 28.5 63.5
t74.5 23.5q47 0 75.5 -23.5t28.5 -63.5q0 -42 -28.5 -66t-75.5 -24zM532 630q-47 0 -75.5 24t-28.5 66q0 40 28.5 63.5t75.5 23.5q46 0 74.5 -23.5t28.5 -63.5q0 -42 -28.5 -66t-74.5 -24zM337 1016l147 -165h-188l-171 165h212z" />
    <glyph glyph-name="uni01DD" unicode="&#x1dd;" horiz-adv-x="728" 
d="M341 586q103 0 183 -38t126 -106t46 -159q0 -89 -44 -156t-121 -105t-176 -38t-171.5 44t-111.5 124t-39 188h514v-117h-412l67 42q4 -47 23 -79.5t51.5 -50t75.5 -17.5q48 0 83.5 19t54.5 53.5t19 78.5q0 57 -25.5 97t-74 61t-118.5 21q-63 0 -127 -17.5t-116 -49.5v121
q58 40 133 62t160 22z" />
    <glyph glyph-name="uni01DE" unicode="&#x1de;" horiz-adv-x="943" 
d="M208 151v153h518v-153h-518zM594 750l346 -750h-201l-297 671h58l-296 -671h-202l347 750h245zM318 810q-47 0 -75 24t-28 66q0 40 28 63.5t75 23.5t75.5 -23.5t28.5 -63.5q0 -42 -28.5 -66t-75.5 -24zM625 810q-47 0 -75.5 24t-28.5 66q0 40 28.5 63.5t75.5 23.5
q46 0 74.5 -23.5t28.5 -63.5q0 -42 -28.5 -66t-74.5 -24zM236 1037v113h474v-113h-474z" />
    <glyph glyph-name="uni01DF" unicode="&#x1df;" horiz-adv-x="816" 
d="M578 0l-25 207l27 78l-27 77l25 208h193l-35 -285l35 -285h-193zM624 285q-15 -91 -57 -158.5t-106 -105t-144 -37.5q-84 0 -147.5 38t-99.5 105.5t-36 157.5t36 157.5t99.5 105.5t147.5 38q80 0 144 -37.5t106.5 -104.5t56.5 -159zM222 285q0 -46 19 -81.5t52.5 -56
t77.5 -20.5t83.5 20.5t69.5 56t45 81.5q-15 46 -45 81.5t-69.5 56t-83.5 20.5t-77.5 -20.5t-52.5 -56t-19 -81.5zM254 630q-47 0 -75 24t-28 66q0 40 28 63.5t75 23.5t75.5 -23.5t28.5 -63.5q0 -42 -28.5 -66t-75.5 -24zM557 630q-47 0 -75.5 24t-28.5 66q0 40 28.5 63.5
t75.5 23.5q46 0 74.5 -23.5t28.5 -63.5q0 -42 -28.5 -66t-74.5 -24zM169 855v114h473v-114h-473z" />
    <glyph glyph-name="uni01E0" unicode="&#x1e0;" horiz-adv-x="943" 
d="M208 151v153h518v-153h-518zM594 750l346 -750h-201l-297 671h58l-296 -671h-202l347 750h245zM472 810q-49 0 -80 25.5t-31 67.5q0 43 31 68.5t80 25.5q50 0 80 -25.5t30 -68.5q0 -42 -30 -67.5t-80 -25.5zM235 1037v113h474v-113h-474z" />
    <glyph glyph-name="uni01E1" unicode="&#x1e1;" horiz-adv-x="816" 
d="M578 0l-25 207l27 78l-27 77l25 208h193l-35 -285l35 -285h-193zM624 285q-15 -91 -57 -158.5t-106 -105t-144 -37.5q-84 0 -147.5 38t-99.5 105.5t-36 157.5t36 157.5t99.5 105.5t147.5 38q80 0 144 -37.5t106.5 -104.5t56.5 -159zM222 285q0 -46 19 -81.5t52.5 -56
t77.5 -20.5t83.5 20.5t69.5 56t45 81.5q-15 46 -45 81.5t-69.5 56t-83.5 20.5t-77.5 -20.5t-52.5 -56t-19 -81.5zM406 630q-49 0 -80 25.5t-31 67.5q0 43 31 68t80 25q50 0 80 -25t30 -68q0 -42 -30 -67.5t-80 -25.5zM169 855v114h473v-114h-473z" />
    <glyph glyph-name="uni01E2" unicode="&#x1e2;" horiz-adv-x="1256" 
d="M767 305l61 -150h390v-155h-524l-270 701h67l-284 -701h-202l320 750h868v-155h-539l61 -150h450v-140h-398zM195 151v153h494v-153h-494zM504 830v113h474v-113h-474z" />
    <glyph glyph-name="uni01E3" unicode="&#x1e3;" horiz-adv-x="1261" 
d="M957 -16q-102 0 -177 39t-116.5 107t-41.5 155q0 90 37.5 157.5t105.5 105.5t161 38q98 0 166 -44t102.5 -122t31.5 -180h-502v102h399l-54 -41q-3 49 -22 84t-53 54t-82 19q-46 0 -81.5 -19t-55 -54.5t-19.5 -83.5q0 -56 25 -96t75 -61.5t124 -21.5q61 0 120 15.5
t110 45.5v-117q-34 -25 -72.5 -43.5t-82.5 -28.5t-98 -10zM564 0l-14 207l27 78l-27 77l14 208h136l14 -281l-14 -289h-136zM624 285q-15 -91 -57 -158.5t-106 -105t-144 -37.5q-84 0 -147.5 38t-99.5 105.5t-36 157.5t36 157.5t99.5 105.5t147.5 38q80 0 144 -37.5
t106.5 -104.5t56.5 -159zM222 285q0 -46 19 -81.5t52.5 -56t77.5 -20.5t83.5 20.5t69.5 56t45 81.5q-15 46 -45 81.5t-69.5 56t-83.5 20.5t-77.5 -20.5t-52.5 -56t-19 -81.5zM395 655v114h473v-114h-473z" />
    <glyph glyph-name="uni01E4" unicode="&#x1e4;" horiz-adv-x="992" 
d="M477 275h512v-97h-512v97zM521 418h382v-51h-62q0 -84 -23.5 -154t-70 -121t-117.5 -79.5t-166 -28.5q-125 0 -220.5 48.5t-149.5 136t-54 206.5q0 93 32.5 166t91 123t137 76t171.5 26q119 0 204.5 -35.5t139 -97t75.5 -140.5h-199q-9 32 -38 58t-74.5 41.5t-102.5 15.5
q-76 0 -131.5 -27t-86 -78.5t-30.5 -127.5q0 -70 28.5 -124t85 -84t140.5 -30q88 0 147.5 22.5t90 63.5t30.5 97v31l30 -48h-260v115zM760 395h143v-394h-121z" />
    <glyph glyph-name="uni01E5" unicode="&#x1e5;" horiz-adv-x="845" 
d="M273 66h556v-94h-556v94zM562 125v121l6 22v133l-6 20v149h186v-427q0 -104 -48.5 -176t-134.5 -110t-200 -38q-79 0 -145.5 20.5t-131.5 61.5v132q61 -46 128.5 -66.5t136.5 -20.5q101 0 155 44t54 135zM310 82q-80 0 -143 31.5t-99 88t-36 132.5t36 132.5t99 88
t143 31.5q75 0 134 -26.5t100.5 -67.5t63.5 -84t22 -76q0 -36 -22 -79t-63.5 -82t-100.5 -64t-134 -25zM372 210q62 0 111 30.5t85 93.5q-36 64 -85.5 94t-110.5 30q-47 0 -81.5 -15.5t-53 -43t-18.5 -65.5q0 -37 18 -65t52.5 -43.5t82.5 -15.5z" />
    <glyph glyph-name="Gcaron" unicode="&#x1e6;" horiz-adv-x="960" 
d="M837 325q-2 -68 -27 -129.5t-72 -109t-116 -75t-161 -27.5q-88 0 -164.5 26t-134.5 76t-90 123t-32 166t32.5 166t91 123t137 76t171.5 26q121 0 210.5 -38t144 -104t69.5 -152h-191q-10 42 -42 72t-80.5 46.5t-110.5 16.5q-75 0 -129 -26.5t-84 -78t-30 -127.5t32 -129
t90 -80t137 -27q77 0 135.5 23t93 66t39.5 103zM510 249v134h393v-383h-135l-26 300l38 -51h-270zM571 806h-198l-151 165h155l137 -104h-84l137 104h155z" />
    <glyph glyph-name="gcaron" unicode="&#x1e7;" horiz-adv-x="805" 
d="M562 143v97l6 23v132l-6 21v154h186v-418q0 -106 -48.5 -180.5t-134.5 -113.5t-200 -39q-79 0 -145.5 20.5t-131.5 61.5v142q61 -46 128.5 -66.5t136.5 -20.5q101 0 155 45.5t54 141.5zM310 56q-80 0 -143 33t-99 92.5t-36 139.5t36 139.5t99 92.5t143 33q60 0 110 -18.5
t89 -48.5t66 -65.5t41 -71t14 -63.5q0 -37 -22 -82.5t-63.5 -86.5t-100.5 -67.5t-134 -26.5zM372 185q62 0 111 33t85 103q-36 71 -85.5 104t-110.5 33q-47 0 -81.5 -17t-53 -47.5t-18.5 -72.5q0 -41 18 -71.5t52.5 -47.5t82.5 -17zM501 627h-192l-143 185h148l133 -137h-85
l133 137h149z" />
    <glyph glyph-name="uni01E8" unicode="&#x1e8;" horiz-adv-x="860" 
d="M73 0v750h188v-598l-51 38l444 560h200l-611 -750h-170zM432 363l136 117l296 -480h-214zM555 806h-198l-151 165h155l137 -104h-84l137 104h155z" />
    <glyph glyph-name="uni01E9" unicode="&#x1e9;" horiz-adv-x="729" 
d="M245 151l-51 17l327 402h199l-493 -570h-167v770h185v-619zM359 279l138 101l238 -380h-211zM484 826h-199l-151 165h156l137 -104h-85l137 104h155z" />
    <glyph glyph-name="uni01EA" unicode="&#x1ea;" horiz-adv-x="961" 
d="M618 -194q-13 -5 -43 -9.5t-61 -4.5q-69 0 -110.5 26t-41.5 69q0 40 37.5 70t112.5 51l-11 -24q-104 -3 -189 24t-146 79t-94 125.5t-33 162.5q0 117 55 205t154.5 137t231.5 49t231.5 -49t155 -137t55.5 -205q0 -95 -37.5 -171.5t-106 -128.5t-161.5 -75
q-60 -15 -90 -33t-30 -38q0 -28 62 -28q16 0 31 1.5t28 4.5v-101zM229 375q0 -69 31 -119t87 -76.5t133 -26.5q78 0 134 26.5t86.5 76.5t30.5 119t-30.5 119t-86.5 76.5t-134 26.5q-77 0 -133 -26.5t-87 -76.5t-31 -119z" />
    <glyph glyph-name="uni01EB" unicode="&#x1eb;" horiz-adv-x="785" 
d="M512 -2q-50 -15 -78 -32.5t-28 -36.5q0 -28 66 -28q16 0 31 1.5t28 4.5v-101q-13 -5 -43 -9.5t-62 -4.5q-70 0 -113 24.5t-43 66.5q0 44 45 77t133 56l-10 -30q-11 -1 -22 -1.5t-22 -0.5q-108 0 -190 37.5t-127 105.5t-45 158t45 157.5t126 105.5t189 38t189.5 -38
t126.5 -105.5t45 -157.5q0 -74 -30 -131.5t-84.5 -96.5t-126.5 -59zM219 285q0 -50 21 -86t60 -55.5t92 -19.5q55 0 93.5 19.5t59 55.5t20.5 86t-20.5 86t-59 55.5t-93.5 19.5q-53 0 -92 -19.5t-60 -55.5t-21 -86z" />
    <glyph glyph-name="uni01EC" unicode="&#x1ec;" horiz-adv-x="961" 
d="M618 -194q-13 -5 -43 -9.5t-61 -4.5q-69 0 -110.5 26t-41.5 69q0 40 37.5 70t112.5 51l-11 -24q-104 -3 -189 24t-146 79t-94 125.5t-33 162.5q0 117 55 205t154.5 137t231.5 49t231.5 -49t155 -137t55.5 -205q0 -95 -37.5 -171.5t-106 -128.5t-161.5 -75
q-60 -15 -90 -33t-30 -38q0 -28 62 -28q16 0 31 1.5t28 4.5v-101zM229 375q0 -69 31 -119t87 -76.5t133 -26.5q78 0 134 26.5t86.5 76.5t30.5 119t-30.5 119t-86.5 76.5t-134 26.5q-77 0 -133 -26.5t-87 -76.5t-31 -119zM243 830v113h474v-113h-474z" />
    <glyph glyph-name="uni01ED" unicode="&#x1ed;" horiz-adv-x="785" 
d="M512 -2q-50 -15 -78 -32.5t-28 -36.5q0 -28 66 -28q16 0 31 1.5t28 4.5v-101q-13 -5 -43 -9.5t-62 -4.5q-70 0 -113 24.5t-43 66.5q0 44 45 77t133 56l-10 -30q-11 -1 -22 -1.5t-22 -0.5q-108 0 -190 37.5t-127 105.5t-45 158t45 157.5t126 105.5t189 38t189.5 -38
t126.5 -105.5t45 -157.5q0 -74 -30 -131.5t-84.5 -96.5t-126.5 -59zM219 285q0 -50 21 -86t60 -55.5t92 -19.5q55 0 93.5 19.5t59 55.5t20.5 86t-20.5 86t-59 55.5t-93.5 19.5q-53 0 -92 -19.5t-60 -55.5t-21 -86zM156 655v114h473v-114h-473z" />
    <glyph glyph-name="uni01EE" unicode="&#x1ee;" horiz-adv-x="810" 
d="M63 750h670v-137l-329 -227l-22 55h74q110 0 179.5 -26t102.5 -73t33 -112q0 -71 -41.5 -126.5t-123.5 -87.5t-203 -32q-115 0 -200.5 32.5t-133.5 91t-52 137.5h188q8 -55 56 -84.5t142 -29.5q87 0 132 28.5t45 79.5q0 31 -16 53t-53 34t-101 12h-117v125l343 232
l25 -92h-598v147zM490 806h-198l-152 165h156l137 -104h-85l138 104h154z" />
    <glyph glyph-name="uni01EF" unicode="&#x1ef;" horiz-adv-x="737" 
d="M59 570h609v-132l-323 -219l-21 58h83q107 0 174 -30t98.5 -79.5t31.5 -110.5q0 -68 -40 -122t-117.5 -85t-193.5 -31q-109 0 -186.5 33.5t-120 92t-46.5 131.5h176q8 -53 53 -87t124 -34q78 0 120.5 30t42.5 81q0 30 -16.5 53.5t-53 37.5t-99.5 14h-115v115l337 232
l24 -83h-541v135zM466 627h-192l-143 185h149l132 -137h-85l133 137h149z" />
    <glyph glyph-name="uni01F0" unicode="&#x1f0;" horiz-adv-x="305" 
d="M60 578l92 -19l93 19v-743h-185v743zM249 627h-193l-143 185h149l133 -137h-85l132 137h150z" />
    <glyph glyph-name="uni01F1" unicode="&#x1f1;" horiz-adv-x="1699" 
d="M439 750q132 0 231 -47t154.5 -131t55.5 -197q0 -112 -55.5 -196.5t-154.5 -131.5t-231 -47h-366v750h366zM261 77l-92 90h284q72 0 125 26t82 72.5t29 109.5q0 64 -29 110t-82 72t-125 26h-284l92 90v-596zM940 0v138l507 507l134 -44h-637v149h710v-137l-507 -508
l-115 45h625v-150h-717z" />
    <glyph glyph-name="uni01F2" unicode="&#x1f2;" horiz-adv-x="1588" 
d="M439 750q132 0 231 -47t154.5 -131t55.5 -197q0 -112 -55.5 -196.5t-154.5 -131.5t-231 -47h-366v750h366zM261 77l-92 90h284q72 0 125 26t82 72.5t29 109.5q0 64 -29 110t-82 72t-125 26h-284l92 90v-596zM943 0v130l406 333l128 -28h-531v135h601v-130l-405 -333
l-109 28h516v-135h-606z" />
    <glyph glyph-name="uni01F3" unicode="&#x1f3;" horiz-adv-x="1501" 
d="M581 0l-25 215l34 68l-33 86l46 401h193l-57 -471l34 -299h-192zM624 285q-15 -91 -57 -158.5t-106 -105t-144 -37.5q-84 0 -147.5 38t-99.5 105.5t-36 157.5t36 157.5t99.5 105.5t147.5 38q80 0 144 -37.5t106.5 -104.5t56.5 -159zM222 285q0 -46 19 -81.5t52.5 -56
t77.5 -20.5t83.5 20.5t69.5 56t45 81.5q-15 46 -45 81.5t-69.5 56t-83.5 20.5t-77.5 -20.5t-52.5 -56t-19 -81.5zM856 0v130l406 333l128 -28h-531v135h601v-130l-405 -333l-109 28h516v-135h-606z" />
    <glyph glyph-name="uni01F4" unicode="&#x1f4;" horiz-adv-x="960" 
d="M837 325q-2 -68 -27 -129.5t-72 -109t-116 -75t-161 -27.5q-88 0 -164.5 26t-134.5 76t-90 123t-32 166t32.5 166t91 123t137 76t171.5 26q121 0 210.5 -38t144 -104t69.5 -152h-191q-10 42 -42 72t-80.5 46.5t-110.5 16.5q-75 0 -129 -26.5t-84 -78t-30 -127.5t32 -129
t90 -80t137 -27q77 0 135.5 23t93 66t39.5 103zM510 249v134h393v-383h-135l-26 300l38 -51h-270zM504 972h212l-171 -165h-188z" />
    <glyph glyph-name="uni01F5" unicode="&#x1f5;" horiz-adv-x="805" 
d="M562 143v97l6 23v132l-6 21v154h186v-418q0 -106 -48.5 -180.5t-134.5 -113.5t-200 -39q-79 0 -145.5 20.5t-131.5 61.5v142q61 -46 128.5 -66.5t136.5 -20.5q101 0 155 45.5t54 141.5zM310 56q-80 0 -143 33t-99 92.5t-36 139.5t36 139.5t99 92.5t143 33q60 0 110 -18.5
t89 -48.5t66 -65.5t41 -71t14 -63.5q0 -37 -22 -82.5t-63.5 -86.5t-100.5 -67.5t-134 -26.5zM372 185q62 0 111 33t85 103q-36 71 -85.5 104t-110.5 33q-47 0 -81.5 -17t-53 -47.5t-18.5 -72.5q0 -41 18 -71.5t52.5 -47.5t82.5 -17zM426 812h181l-133 -185h-173z" />
    <glyph glyph-name="uni01F8" unicode="&#x1f8;" horiz-adv-x="963" 
d="M768 129l-61 -11v632h183v-750h-238l-457 632l61 11v-643h-183v750h245zM452 972l146 -165h-188l-171 165h213z" />
    <glyph glyph-name="uni01F9" unicode="&#x1f9;" horiz-adv-x="778" 
d="M33 570h185l37 -222v-348h-186v376zM468 586q82 0 139.5 -32.5t88 -92.5t30.5 -143v-318h-186v290q0 71 -35 107.5t-100 36.5q-46 0 -79.5 -19.5t-52 -55t-18.5 -84.5l-59 31q11 91 49.5 153t96 94.5t126.5 32.5zM367 812l125 -185h-173l-133 185h181z" />
    <glyph glyph-name="Aringacute" unicode="&#x1fa;" horiz-adv-x="943" 
d="M469 1213h170l-103 -180h-138zM208 151v153h518v-153h-518zM594 750l346 -750h-201l-297 671h58l-296 -671h-202l347 750h245zM472 791q-90 0 -140 34.5t-50 96.5t50 96.5t140 34.5t139.5 -34.5t49.5 -96.5t-49.5 -96.5t-139.5 -34.5zM472 873q43 0 64 12.5t21 36.5
q0 23 -21 35.5t-64 12.5q-44 0 -64.5 -12.5t-20.5 -35.5q0 -24 20.5 -36.5t64.5 -12.5z" />
    <glyph glyph-name="aringacute" unicode="&#x1fb;" horiz-adv-x="816" 
d="M403 1048h170l-104 -181h-137zM578 0l-25 207l27 78l-27 77l25 208h193l-35 -285l35 -285h-193zM624 285q-15 -91 -57 -158.5t-106 -105t-144 -37.5q-84 0 -147.5 38t-99.5 105.5t-36 157.5t36 157.5t99.5 105.5t147.5 38q80 0 144 -37.5t106.5 -104.5t56.5 -159z
M222 285q0 -46 19 -81.5t52.5 -56t77.5 -20.5t83.5 20.5t69.5 56t45 81.5q-15 46 -45 81.5t-69.5 56t-83.5 20.5t-77.5 -20.5t-52.5 -56t-19 -81.5zM405 617q-84 0 -133 36t-49 99q0 62 49 98t133 36q86 0 134 -36t48 -98q0 -63 -48 -99t-134 -36zM405 695q37 0 57 15t20 42
t-20 42t-57 15q-35 0 -55.5 -15t-20.5 -42t20.5 -42t55.5 -15z" />
    <glyph glyph-name="AEacute" unicode="&#x1fc;" horiz-adv-x="1256" 
d="M767 305l61 -150h390v-155h-524l-270 701h67l-284 -701h-202l320 750h868v-155h-539l61 -150h450v-140h-398zM195 151v153h494v-153h-494zM772 972h212l-171 -165h-188z" />
    <glyph glyph-name="aeacute" unicode="&#x1fd;" horiz-adv-x="1261" 
d="M957 -16q-102 0 -177 39t-116.5 107t-41.5 155q0 90 37.5 157.5t105.5 105.5t161 38q98 0 166 -44t102.5 -122t31.5 -180h-502v102h399l-54 -41q-3 49 -22 84t-53 54t-82 19q-46 0 -81.5 -19t-55 -54.5t-19.5 -83.5q0 -56 25 -96t75 -61.5t124 -21.5q61 0 120 15.5
t110 45.5v-117q-34 -25 -72.5 -43.5t-82.5 -28.5t-98 -10zM564 0l-14 207l27 78l-27 77l14 208h136l14 -281l-14 -289h-136zM624 285q-15 -91 -57 -158.5t-106 -105t-144 -37.5q-84 0 -147.5 38t-99.5 105.5t-36 157.5t36 157.5t99.5 105.5t147.5 38q80 0 144 -37.5
t106.5 -104.5t56.5 -159zM222 285q0 -46 19 -81.5t52.5 -56t77.5 -20.5t83.5 20.5t69.5 56t45 81.5q-15 46 -45 81.5t-69.5 56t-83.5 20.5t-77.5 -20.5t-52.5 -56t-19 -81.5zM653 812h181l-133 -185h-173z" />
    <glyph glyph-name="Oslashacute" unicode="&#x1fe;" horiz-adv-x="960" 
d="M729 767h172l-670 -784h-172zM480 -16q-132 0 -231.5 49t-154.5 137t-55 205t55 205t154.5 137t231.5 49q97 0 177.5 -28t139.5 -80t91.5 -123.5t32.5 -159.5q0 -117 -55 -205t-154.5 -137t-231.5 -49zM480 145q79 0 136 27.5t88 79.5t31 123t-31 123t-88 79.5t-136 27.5
t-136 -27.5t-88 -79.5t-31 -123t31 -123t88 -79.5t136 -27.5zM511 972h212l-171 -165h-188z" />
    <glyph glyph-name="oslashacute" unicode="&#x1ff;" horiz-adv-x="785" 
d="M575 599h168l-534 -628h-167zM392 -16q-108 0 -189 38t-126 105.5t-45 157.5t45 157.5t126 105.5t189 38t189.5 -38t126.5 -105.5t45 -157.5t-45 -157.5t-126.5 -105.5t-189.5 -38zM392 110q58 0 98.5 21.5t62.5 60.5t22 93t-22 93.5t-62.5 60.5t-98.5 21q-56 0 -97 -21
t-63 -60.5t-22 -93.5t22 -93t63 -60.5t97 -21.5zM414 812h181l-133 -185h-173z" />
    <glyph glyph-name="uni0200" unicode="&#x200;" horiz-adv-x="943" 
d="M208 151v153h518v-153h-518zM594 750l346 -750h-201l-297 671h58l-296 -671h-202l347 750h245zM556 972l123 -165h-164l-139 165h180zM304 972l122 -165h-164l-138 165h180z" />
    <glyph glyph-name="uni0201" unicode="&#x201;" horiz-adv-x="816" 
d="M578 0l-25 207l27 78l-27 77l25 208h193l-35 -285l35 -285h-193zM624 285q-15 -91 -57 -158.5t-106 -105t-144 -37.5q-84 0 -147.5 38t-99.5 105.5t-36 157.5t36 157.5t99.5 105.5t147.5 38q80 0 144 -37.5t106.5 -104.5t56.5 -159zM222 285q0 -46 19 -81.5t52.5 -56
t77.5 -20.5t83.5 20.5t69.5 56t45 81.5q-15 46 -45 81.5t-69.5 56t-83.5 20.5t-77.5 -20.5t-52.5 -56t-19 -81.5zM491 812l112 -185h-157l-120 185h165zM252 812l112 -185h-157l-120 185h165z" />
    <glyph glyph-name="uni0202" unicode="&#x202;" horiz-adv-x="943" 
d="M208 151v153h518v-153h-518zM594 750l346 -750h-201l-297 671h58l-296 -671h-202l347 750h245zM716 803h-143q-14 29 -39 45t-62 16q-38 0 -63.5 -16t-38.5 -45h-143q23 88 88 131.5t157 43.5t156.5 -43.5t87.5 -131.5z" />
    <glyph glyph-name="uni0203" unicode="&#x203;" horiz-adv-x="816" 
d="M578 0l-25 207l27 78l-27 77l25 208h193l-35 -285l35 -285h-193zM624 285q-15 -91 -57 -158.5t-106 -105t-144 -37.5q-84 0 -147.5 38t-99.5 105.5t-36 157.5t36 157.5t99.5 105.5t147.5 38q80 0 144 -37.5t106.5 -104.5t56.5 -159zM222 285q0 -46 19 -81.5t52.5 -56
t77.5 -20.5t83.5 20.5t69.5 56t45 81.5q-15 46 -45 81.5t-69.5 56t-83.5 20.5t-77.5 -20.5t-52.5 -56t-19 -81.5zM640 627h-138q-8 37 -33.5 57t-63.5 20t-63 -20t-33 -57h-138q13 90 73.5 140.5t160.5 50.5t160.5 -50.5t74.5 -140.5z" />
    <glyph glyph-name="uni0204" unicode="&#x204;" horiz-adv-x="787" 
d="M704 445v-140h-543v140h543zM289 375l-50 -310l-79 90h576v-155h-686l58 375l-58 375h681v-155h-571l79 90zM481 972l123 -165h-164l-138 165h179zM230 972l122 -165h-164l-139 165h181z" />
    <glyph glyph-name="uni0205" unicode="&#x205;" horiz-adv-x="728" 
d="M387 -16q-102 0 -182.5 38t-126.5 106t-46 159q0 89 44 156t121.5 105t175.5 38q100 0 172 -44t111 -124t39 -188h-514v117h412l-67 -42q-3 47 -22.5 79.5t-51.5 50t-76 17.5q-48 0 -83 -19t-54.5 -53t-19.5 -79q0 -57 25.5 -97t74 -61t118.5 -21q64 0 128 17.5t115 49.5
v-121q-58 -40 -132.5 -62t-160.5 -22zM457 812l111 -185h-157l-119 185h165zM218 812l111 -185h-156l-121 185h166z" />
    <glyph glyph-name="uni0206" unicode="&#x206;" horiz-adv-x="787" 
d="M704 445v-140h-543v140h543zM289 375l-50 -310l-79 90h576v-155h-686l58 375l-58 375h681v-155h-571l79 90zM641 803h-143q-13 29 -38 45t-63 16t-63 -16t-39 -45h-143q24 88 88.5 131.5t156.5 43.5t157 -43.5t87 -131.5z" />
    <glyph glyph-name="uni0207" unicode="&#x207;" horiz-adv-x="728" 
d="M387 -16q-102 0 -182.5 38t-126.5 106t-46 159q0 89 44 156t121.5 105t175.5 38q100 0 172 -44t111 -124t39 -188h-514v117h412l-67 -42q-3 47 -22.5 79.5t-51.5 50t-76 17.5q-48 0 -83 -19t-54.5 -53t-19.5 -79q0 -57 25.5 -97t74 -61t118.5 -21q64 0 128 17.5t115 49.5
v-121q-58 -40 -132.5 -62t-160.5 -22zM606 627h-139q-7 37 -32.5 57t-63.5 20t-63.5 -20t-33.5 -57h-138q14 90 74.5 140.5t160.5 50.5t160.5 -50.5t74.5 -140.5z" />
    <glyph glyph-name="uni0208" unicode="&#x208;" horiz-adv-x="335" 
d="M277 972l92 -165h-143l-101 165h152zM66 972l92 -165h-143l-100 165h151zM73 750h189v-750h-189v750z" />
    <glyph glyph-name="uni0209" unicode="&#x209;" horiz-adv-x="305" 
d="M244 812l92 -185h-123l-101 185h132zM66 812l92 -185h-123l-101 185h132zM60 578l92 -19l93 19v-578h-185v578z" />
    <glyph glyph-name="uni020A" unicode="&#x20a;" horiz-adv-x="335" 
d="M73 750h189v-750h-189v750zM412 803h-143q-14 29 -39 45t-62 16q-38 0 -63.5 -16t-39.5 -45h-142q23 88 88 131.5t157 43.5t156.5 -43.5t87.5 -131.5z" />
    <glyph glyph-name="uni020B" unicode="&#x20b;" horiz-adv-x="305" 
d="M345 627h-123q-5 34 -23.5 54t-46.5 20t-46 -20t-23 -54h-124q8 87 59.5 139t133.5 52q83 0 134.5 -52t58.5 -139zM60 578l92 -19l93 19v-578h-185v578z" />
    <glyph glyph-name="uni020C" unicode="&#x20c;" horiz-adv-x="961" 
d="M480 -16q-132 0 -231.5 49t-154.5 137t-55 205t55 205t154.5 137t231.5 49t231.5 -49t155 -137t55.5 -205t-55.5 -205t-155 -137t-231.5 -49zM480 153q78 0 134 26.5t86.5 76.5t30.5 119t-30.5 119t-86.5 76.5t-134 26.5q-77 0 -133 -26.5t-87 -76.5t-31 -119t31 -119
t87 -76.5t133 -26.5zM565 972l123 -165h-165l-138 165h180zM313 972l122 -165h-164l-138 165h180z" />
    <glyph glyph-name="uni020D" unicode="&#x20d;" horiz-adv-x="785" 
d="M392 -16q-108 0 -189 38t-126 105.5t-45 157.5t45 157.5t126 105.5t189 38t189.5 -38t126.5 -105.5t45 -157.5t-45 -157.5t-126.5 -105.5t-189.5 -38zM392 124q55 0 93.5 19.5t59 55.5t20.5 86t-20.5 86t-59 55.5t-93.5 19.5q-53 0 -92 -19.5t-60 -55.5t-21 -86t21 -86
t60 -55.5t92 -19.5zM478 812l112 -185h-157l-120 185h165zM239 812l112 -185h-157l-120 185h165z" />
    <glyph glyph-name="uni020E" unicode="&#x20e;" horiz-adv-x="961" 
d="M480 -16q-132 0 -231.5 49t-154.5 137t-55 205t55 205t154.5 137t231.5 49t231.5 -49t155 -137t55.5 -205t-55.5 -205t-155 -137t-231.5 -49zM480 153q78 0 134 26.5t86.5 76.5t30.5 119t-30.5 119t-86.5 76.5t-134 26.5q-77 0 -133 -26.5t-87 -76.5t-31 -119t31 -119
t87 -76.5t133 -26.5zM725 803h-143q-14 29 -39 45t-63 16q-37 0 -62.5 -16t-39.5 -45h-143q24 88 89 131.5t156 43.5q93 0 157.5 -43.5t87.5 -131.5z" />
    <glyph glyph-name="uni020F" unicode="&#x20f;" horiz-adv-x="785" 
d="M392 -16q-108 0 -189 38t-126 105.5t-45 157.5t45 157.5t126 105.5t189 38t189.5 -38t126.5 -105.5t45 -157.5t-45 -157.5t-126.5 -105.5t-189.5 -38zM392 124q55 0 93.5 19.5t59 55.5t20.5 86t-20.5 86t-59 55.5t-93.5 19.5q-53 0 -92 -19.5t-60 -55.5t-21 -86t21 -86
t60 -55.5t92 -19.5zM627 627h-138q-8 37 -33.5 57t-63.5 20t-63 -20t-33 -57h-138q13 90 73.5 140.5t160.5 50.5t160.5 -50.5t74.5 -140.5z" />
    <glyph glyph-name="uni0210" unicode="&#x210;" horiz-adv-x="840" 
d="M204 420h281q53 0 84 24.5t31 68.5t-31 68.5t-84 24.5h-308l85 93v-699h-189v750h437q84 0 147 -30t98 -83t35 -124q0 -70 -35 -123t-98 -83t-147 -30h-306v143zM325 351h213l276 -351h-219zM494 972l123 -165h-164l-139 165h180zM242 972l122 -165h-164l-138 165h180z
" />
    <glyph glyph-name="uni0211" unicode="&#x211;" horiz-adv-x="542" 
d="M33 570h188l34 -205v-365h-186v380zM527 578v-160q-27 6 -53.5 9t-48.5 3q-48 0 -86.5 -19.5t-61 -61.5t-22.5 -109l-37 46q7 61 23 115t44 95.5t69.5 65.5t100.5 24q17 0 36 -2t36 -6zM379 812l112 -185h-157l-120 185h165zM140 812l111 -185h-156l-120 185h165z" />
    <glyph glyph-name="uni0212" unicode="&#x212;" horiz-adv-x="840" 
d="M204 420h281q53 0 84 24.5t31 68.5t-31 68.5t-84 24.5h-308l85 93v-699h-189v750h437q84 0 147 -30t98 -83t35 -124q0 -70 -35 -123t-98 -83t-147 -30h-306v143zM325 351h213l276 -351h-219zM654 803h-143q-14 29 -39 45t-62 16q-38 0 -63.5 -16t-39.5 -45h-142
q23 88 88 131.5t157 43.5t156.5 -43.5t87.5 -131.5z" />
    <glyph glyph-name="uni0213" unicode="&#x213;" horiz-adv-x="542" 
d="M33 570h188l34 -205v-365h-186v380zM527 578v-160q-27 6 -53.5 9t-48.5 3q-48 0 -86.5 -19.5t-61 -61.5t-22.5 -109l-37 46q7 61 23 115t44 95.5t69.5 65.5t100.5 24q17 0 36 -2t36 -6zM528 627h-138q-8 37 -33.5 57t-63.5 20t-63 -20t-34 -57h-137q13 90 73.5 140.5
t160.5 50.5t160.5 -50.5t74.5 -140.5z" />
    <glyph glyph-name="uni0214" unicode="&#x214;" horiz-adv-x="874" 
d="M252 332q0 -55 21.5 -95.5t62.5 -62t101 -21.5t101 21.5t62.5 62t21.5 95.5v418h189v-427q0 -102 -47 -178t-131 -118.5t-196 -42.5t-196 42.5t-131 118.5t-47 178v427h189v-418zM521 972l123 -165h-164l-138 165h179zM269 972l123 -165h-165l-138 165h180z" />
    <glyph glyph-name="uni0215" unicode="&#x215;" horiz-adv-x="766" 
d="M303 -15q-80 0 -136 32.5t-85.5 92.5t-29.5 142v318h186v-291q0 -69 33 -106t95 -37q46 0 78 19t49.5 55t17.5 85l58 -31q-10 -90 -47.5 -152.5t-94 -94.5t-124.5 -32zM547 0l-36 222v348h186v-376l36 -194h-186zM466 812l112 -185h-157l-120 185h165zM227 812l112 -185
h-157l-120 185h165z" />
    <glyph glyph-name="uni0216" unicode="&#x216;" horiz-adv-x="874" 
d="M252 332q0 -55 21.5 -95.5t62.5 -62t101 -21.5t101 21.5t62.5 62t21.5 95.5v418h189v-427q0 -102 -47 -178t-131 -118.5t-196 -42.5t-196 42.5t-131 118.5t-47 178v427h189v-418zM681 803h-143q-13 29 -38 45t-63 16t-63 -16t-39 -45h-143q24 88 88.5 131.5t156.5 43.5
t157 -43.5t87 -131.5z" />
    <glyph glyph-name="uni0217" unicode="&#x217;" horiz-adv-x="766" 
d="M303 -15q-80 0 -136 32.5t-85.5 92.5t-29.5 142v318h186v-291q0 -69 33 -106t95 -37q46 0 78 19t49.5 55t17.5 85l58 -31q-10 -90 -47.5 -152.5t-94 -94.5t-124.5 -32zM547 0l-36 222v348h186v-376l36 -194h-186zM615 627h-138q-8 37 -33.5 57t-63.5 20t-63 -20t-33 -57
h-138q13 90 73.5 140.5t160.5 50.5t160.5 -50.5t74.5 -140.5z" />
    <glyph glyph-name="uni0218" unicode="&#x218;" horiz-adv-x="833" 
d="M37 245h191q5 -34 31 -60t69.5 -40t101.5 -14q83 0 130.5 23t47.5 65q0 32 -27.5 49.5t-102.5 25.5l-145 15q-151 15 -218.5 70t-67.5 150q0 75 44.5 128t125 81t188.5 28q107 0 189 -31t131 -86t53 -129h-191q-4 31 -27.5 52.5t-63 34t-94.5 12.5q-76 0 -120.5 -21.5
t-44.5 -61.5q0 -30 26.5 -47t94.5 -25l153 -17q105 -11 168 -35t91 -66t28 -106q0 -77 -46.5 -134.5t-130 -89.5t-194.5 -32q-115 0 -201.5 33t-136 91.5t-52.5 136.5zM321 -297l88 145l8 -51q-46 0 -74 21.5t-28 57.5t27.5 57.5t74.5 21.5q46 0 73.5 -22t27.5 -59
q0 -26 -13 -47.5t-43 -60.5l-50 -63h-91z" />
    <glyph glyph-name="uni0219" unicode="&#x219;" horiz-adv-x="734" 
d="M702 183q0 -64 -37.5 -108.5t-109.5 -67.5t-175 -23q-105 0 -184 26t-123 73t-47 109h189q6 -25 28.5 -44t58.5 -28.5t85 -9.5q66 0 100 14t34 42q0 21 -24.5 32t-87.5 16l-104 8q-98 7 -156 31t-82.5 61t-24.5 83q0 63 39.5 105t109.5 63t164 21t167.5 -25t118 -69
t50.5 -103h-189q-4 20 -21.5 37t-50 27.5t-84.5 10.5q-59 0 -90 -13t-31 -38q0 -19 19 -30t72 -16l135 -10q96 -8 150.5 -30.5t77.5 -58.5t23 -85zM276 -297l88 145l8 -51q-46 0 -74 21.5t-28 57.5t27.5 57.5t74.5 21.5q46 0 73.5 -22t27.5 -59q0 -26 -13 -47.5t-43 -60.5
l-50 -63h-91z" />
    <glyph glyph-name="uni021A" unicode="&#x21a;" horiz-adv-x="809" 
d="M310 666h189v-666h-189v666zM18 750h773v-167h-773v167zM309 -297l88 145l8 -51q-46 0 -74 21.5t-28 57.5t27.5 57.5t74.5 21.5q46 0 73.5 -22t27.5 -59q0 -26 -13 -47.5t-43 -60.5l-50 -63h-91z" />
    <glyph glyph-name="uni021B" unicode="&#x21b;" horiz-adv-x="591" 
d="M5 432v81l118 43l80 166h106v-152h246v-138h-246v-188q0 -64 26 -89.5t93 -25.5q43 0 75.5 7.5t61.5 20.5v-141q-30 -12 -78.5 -22t-100.5 -10q-91 0 -149.5 29t-86 81.5t-27.5 123.5v214h-118zM233 -297l88 145l8 -51q-46 0 -74 21.5t-28 57.5t27.5 57.5t74.5 21.5
q46 0 73.5 -22t27.5 -59q0 -26 -13 -47.5t-43 -60.5l-50 -63h-91z" />
    <glyph glyph-name="uni021C" unicode="&#x21c;" horiz-adv-x="810" 
d="M63 750h670v-137l-329 -227l-22 55h74q110 0 179.5 -26t102.5 -73t33 -112q0 -71 -41.5 -126.5t-123.5 -87.5t-203 -32q-115 0 -200.5 32.5t-133.5 91t-52 137.5h188q8 -55 56 -84.5t142 -29.5q87 0 132 28.5t45 79.5q0 31 -16 53t-53 34t-101 12h-117v125l343 232
l25 -92h-598v147z" />
    <glyph glyph-name="uni021D" unicode="&#x21d;" horiz-adv-x="737" 
d="M59 570h609v-132l-323 -219l-21 58h83q107 0 174 -30t98.5 -79.5t31.5 -110.5q0 -68 -40 -122t-117.5 -85t-193.5 -31q-109 0 -186.5 33.5t-120 92t-46.5 131.5h176q8 -53 53 -87t124 -34q78 0 120.5 30t42.5 81q0 30 -16.5 53.5t-53 37.5t-99.5 14h-115v115l337 232
l24 -83h-541v135z" />
    <glyph glyph-name="uni021E" unicode="&#x21e;" horiz-adv-x="931" 
d="M73 750h189v-750h-189v750zM669 750h189v-750h-189v750zM178 463h571v-166h-571v166zM564 806h-198l-151 165h156l137 -104h-85l137 104h155z" />
    <glyph glyph-name="uni021F" unicode="&#x21f;" horiz-adv-x="768" 
d="M60 770h185v-770h-185v770zM459 586q81 0 138.5 -32.5t88 -92.5t30.5 -143v-318h-186v290q0 71 -34.5 107.5t-100.5 36.5q-45 0 -79 -19.5t-52.5 -55t-18.5 -84.5l-59 31q12 91 50 153t95.5 94.5t127.5 32.5zM500 826h-198l-152 165h156l137 -104h-85l137 104h155z" />
    <glyph glyph-name="uni0220" unicode="&#x220;" horiz-adv-x="889" 
d="M73 750h189v-750h-189v750zM525 766q93 0 160 -36.5t102 -103t35 -158.5v-633h-188v589q0 84 -46 128.5t-132 44.5q-61 0 -104 -22t-66.5 -61.5t-23.5 -94.5l-61 31q17 112 61.5 181.5t111.5 102t151 32.5z" />
    <glyph glyph-name="uni0226" unicode="&#x226;" horiz-adv-x="943" 
d="M208 151v153h518v-153h-518zM594 750l346 -750h-201l-297 671h58l-296 -671h-202l347 750h245zM472 810q-49 0 -80 25.5t-31 67.5q0 43 31 68.5t80 25.5q50 0 80 -25.5t30 -68.5q0 -42 -30 -67.5t-80 -25.5z" />
    <glyph glyph-name="uni0227" unicode="&#x227;" horiz-adv-x="816" 
d="M578 0l-25 207l27 78l-27 77l25 208h193l-35 -285l35 -285h-193zM624 285q-15 -91 -57 -158.5t-106 -105t-144 -37.5q-84 0 -147.5 38t-99.5 105.5t-36 157.5t36 157.5t99.5 105.5t147.5 38q80 0 144 -37.5t106.5 -104.5t56.5 -159zM222 285q0 -46 19 -81.5t52.5 -56
t77.5 -20.5t83.5 20.5t69.5 56t45 81.5q-15 46 -45 81.5t-69.5 56t-83.5 20.5t-77.5 -20.5t-52.5 -56t-19 -81.5zM406 630q-49 0 -80 25.5t-31 67.5q0 43 31 68t80 25q50 0 80 -25t30 -68q0 -42 -30 -67.5t-80 -25.5z" />
    <glyph glyph-name="uni0228" unicode="&#x228;" horiz-adv-x="787" 
d="M704 445v-140h-543v140h543zM289 375l-50 -310l-79 90h576v-155h-686l58 375l-58 375h681v-155h-571l79 90zM374 18h92l-51 -88l-47 3q25 13 51.5 20t59.5 7q67 0 103 -26t36 -71q0 -48 -47 -79.5t-138 -31.5q-78 0 -131.5 28.5t-68.5 79.5h123q8 -13 26.5 -20.5
t50.5 -7.5q34 0 50.5 10t16.5 25q0 14 -14 22.5t-42 8.5q-17 0 -32.5 -2t-27.5 -7h-93z" />
    <glyph glyph-name="uni0229" unicode="&#x229;" horiz-adv-x="728" 
d="M387 -16q-102 0 -182.5 38t-126.5 106t-46 159q0 89 44 156t121.5 105t175.5 38q100 0 172 -44t111 -124t39 -188h-514v117h412l-67 -42q-3 47 -22.5 79.5t-51.5 50t-76 17.5q-48 0 -83 -19t-54.5 -53t-19.5 -79q0 -57 25.5 -97t74 -61t118.5 -21q64 0 128 17.5t115 49.5
v-121q-58 -40 -132.5 -62t-160.5 -22zM337 14h95l-57 -85l-44 2q22 12 48 19.5t60 7.5q66 0 100 -25.5t34 -70.5q0 -46 -45 -77.5t-131 -31.5q-76 0 -128 29.5t-67 77.5h114q8 -11 26.5 -20.5t54.5 -9.5q33 0 49.5 10t16.5 26q0 15 -13 24.5t-44 9.5q-16 0 -30 -3t-24 -8
h-96z" />
    <glyph glyph-name="uni022A" unicode="&#x22a;" horiz-adv-x="961" 
d="M480 -16q-132 0 -231.5 49t-154.5 137t-55 205t55 205t154.5 137t231.5 49t231.5 -49t155 -137t55.5 -205t-55.5 -205t-155 -137t-231.5 -49zM480 153q78 0 134 26.5t86.5 76.5t30.5 119t-30.5 119t-86.5 76.5t-134 26.5q-77 0 -133 -26.5t-87 -76.5t-31 -119t31 -119
t87 -76.5t133 -26.5zM327 810q-47 0 -75 24t-28 66q0 40 28 63.5t75 23.5t75.5 -23.5t28.5 -63.5q0 -42 -28.5 -66t-75.5 -24zM634 810q-47 0 -75.5 24t-28.5 66q0 40 28.5 63.5t75.5 23.5q46 0 74.5 -23.5t28.5 -63.5q0 -42 -28.5 -66t-74.5 -24zM244 1037v113h474v-113
h-474z" />
    <glyph glyph-name="uni022B" unicode="&#x22b;" horiz-adv-x="785" 
d="M392 -16q-108 0 -189 38t-126 106t-45 157q0 90 45 157.5t126.5 105.5t188.5 38q108 0 189.5 -38t126.5 -105.5t45 -157.5t-45 -157.5t-126.5 -105.5t-189.5 -38zM392 124q55 0 93.5 19.5t59 55.5t20.5 86t-20.5 86t-59 55.5t-93.5 19.5q-53 0 -92 -19.5t-60 -55.5
t-21 -86t21 -86t60 -55.5t92 -19.5zM241 630q-47 0 -75 24t-28 66q0 40 28 63.5t75 23.5t75.5 -23.5t28.5 -63.5q0 -42 -28.5 -66t-75.5 -24zM544 630q-47 0 -75.5 24t-28.5 66q0 40 28.5 63.5t75.5 23.5q46 0 74.5 -23.5t28.5 -63.5q0 -42 -28.5 -66t-74.5 -24zM156 855
v114h473v-114h-473z" />
    <glyph glyph-name="uni022C" unicode="&#x22c;" horiz-adv-x="961" 
d="M480 -16q-132 0 -231.5 49t-154.5 137t-55 205t55 205t154.5 137t231.5 49t231.5 -49t155 -137t55.5 -205t-55.5 -205t-155 -137t-231.5 -49zM480 153q78 0 134 26.5t86.5 76.5t30.5 119t-30.5 119t-86.5 76.5t-134 26.5q-77 0 -133 -26.5t-87 -76.5t-31 -119t31 -119
t87 -76.5t133 -26.5zM216 813q10 75 50 119.5t117 44.5q27 0 53 -7.5t49.5 -17t44.5 -17t38 -7.5q22 0 36 11.5t17 33.5h122q-10 -76 -50.5 -120.5t-116.5 -44.5q-27 0 -53 7.5t-49.5 17t-44.5 17t-38 7.5q-22 0 -36 -11.5t-17 -32.5h-122zM243 1030v113h474v-113h-474z" />
    <glyph glyph-name="uni022D" unicode="&#x22d;" horiz-adv-x="785" 
d="M392 -16q-108 0 -189 38t-126 106t-45 157q0 90 45 157.5t126.5 105.5t188.5 38q108 0 189.5 -38t126.5 -105.5t45 -157.5t-45 -157.5t-126.5 -105.5t-189.5 -38zM392 124q55 0 93.5 19.5t59 55.5t20.5 86t-20.5 86t-59 55.5t-93.5 19.5q-53 0 -92 -19.5t-60 -55.5
t-21 -86t21 -86t60 -55.5t92 -19.5zM147 635q5 83 40 131t104 48q27 0 52 -8t47.5 -18t42.5 -18.5t37 -8.5q21 0 35 13.5t18 38.5h113q-4 -81 -39 -130t-105 -49q-26 0 -51.5 8t-48 18.5t-42 18.5t-36.5 8q-21 0 -35 -13.5t-19 -38.5h-113zM156 880v114h473v-114h-473z" />
    <glyph glyph-name="uni022E" unicode="&#x22e;" horiz-adv-x="961" 
d="M480 -16q-132 0 -231.5 49t-154.5 137t-55 205t55 205t154.5 137t231.5 49t231.5 -49t155 -137t55.5 -205t-55.5 -205t-155 -137t-231.5 -49zM480 153q78 0 134 26.5t86.5 76.5t30.5 119t-30.5 119t-86.5 76.5t-134 26.5q-77 0 -133 -26.5t-87 -76.5t-31 -119t31 -119
t87 -76.5t133 -26.5zM480 810q-49 0 -80 25.5t-31 67.5q0 43 31 68.5t80 25.5q50 0 80 -25.5t30 -68.5q0 -42 -30 -67.5t-80 -25.5z" />
    <glyph glyph-name="uni022F" unicode="&#x22f;" horiz-adv-x="785" 
d="M392 -16q-108 0 -189 38t-126 106t-45 157q0 90 45 157.5t126.5 105.5t188.5 38q108 0 189.5 -38t126.5 -105.5t45 -157.5t-45 -157.5t-126.5 -105.5t-189.5 -38zM392 124q55 0 93.5 19.5t59 55.5t20.5 86t-20.5 86t-59 55.5t-93.5 19.5q-53 0 -92 -19.5t-60 -55.5
t-21 -86t21 -86t60 -55.5t92 -19.5zM393 630q-49 0 -80 25.5t-31 67.5q0 43 31 68t80 25q50 0 80 -25t30 -68q0 -42 -30 -67.5t-80 -25.5z" />
    <glyph glyph-name="uni0230" unicode="&#x230;" horiz-adv-x="961" 
d="M480 -16q-132 0 -231.5 49t-154.5 137t-55 205t55 205t154.5 137t231.5 49t231.5 -49t155 -137t55.5 -205t-55.5 -205t-155 -137t-231.5 -49zM480 153q78 0 134 26.5t86.5 76.5t30.5 119t-30.5 119t-86.5 76.5t-134 26.5q-77 0 -133 -26.5t-87 -76.5t-31 -119t31 -119
t87 -76.5t133 -26.5zM481 810q-49 0 -80 25.5t-31 67.5q0 43 31 68.5t80 25.5q50 0 80 -25.5t30 -68.5q0 -42 -30 -67.5t-80 -25.5zM243 1037v113h474v-113h-474z" />
    <glyph glyph-name="uni0231" unicode="&#x231;" horiz-adv-x="785" 
d="M392 -16q-108 0 -189 38t-126 106t-45 157q0 90 45 157.5t126.5 105.5t188.5 38q108 0 189.5 -38t126.5 -105.5t45 -157.5t-45 -157.5t-126.5 -105.5t-189.5 -38zM392 124q55 0 93.5 19.5t59 55.5t20.5 86t-20.5 86t-59 55.5t-93.5 19.5q-53 0 -92 -19.5t-60 -55.5
t-21 -86t21 -86t60 -55.5t92 -19.5zM393 630q-49 0 -80 25.5t-31 67.5q0 43 31 68t80 25q50 0 80 -25t30 -68q0 -42 -30 -67.5t-80 -25.5zM156 855v114h473v-114h-473z" />
    <glyph glyph-name="uni0232" unicode="&#x232;" horiz-adv-x="910" 
d="M361 0v363h189v-363h-189zM9 750h209l280 -356h-87l280 356h209l-384 -488l-122 -2zM218 830v113h474v-113h-474z" />
    <glyph glyph-name="uni0233" unicode="&#x233;" horiz-adv-x="761" 
d="M234 -181q-60 0 -106.5 15t-90.5 45v131q45 -29 84.5 -41.5t86.5 -12.5q42 0 73.5 18t52.5 66l228 530h197l-279 -588q-28 -60 -67 -96t-84.5 -51.5t-94.5 -15.5zM256 45l-247 525h204l222 -525h-179zM153 655v114h473v-114h-473z" />
    <glyph glyph-name="uni0237" unicode="&#x237;" horiz-adv-x="305" 
d="M60 578l92 -19l93 19v-743h-185v743z" />
    <glyph glyph-name="uni0238" unicode="&#x238;" horiz-adv-x="1308" 
d="M622 285q-15 -91 -57 -158.5t-105 -105t-144 -37.5q-83 0 -146.5 38t-99.5 105.5t-36 157.5t36 157.5t99.5 105.5t146.5 38q80 0 144 -37.5t106 -104.5t56 -159zM222 285q0 -46 19 -81.5t52.5 -56t76.5 -20.5q44 0 83.5 20.5t69.5 56t45 81.5q-15 46 -45 81.5t-69.5 56
t-83.5 20.5q-43 0 -76.5 -20.5t-52.5 -56t-19 -81.5zM562 770h184v-373l-24 -49v-134l24 -48v-166h-184v172l24 72v111l-24 35v380zM686 285q15 92 56.5 159t105.5 104.5t144 37.5q84 0 147.5 -38t99 -105.5t35.5 -157.5t-35.5 -157.5t-99 -105.5t-147.5 -38
q-80 0 -143.5 37.5t-105.5 105t-57 158.5zM1086 285q0 46 -19 81.5t-52 56t-77 20.5t-83.5 -20.5t-69 -56t-46.5 -81.5q17 -46 46.5 -81.5t69 -56t83.5 -20.5t77 20.5t52 56t19 81.5z" />
    <glyph glyph-name="uni0239" unicode="&#x239;" horiz-adv-x="1308" 
d="M622 285q-15 -91 -57 -158.5t-105 -105t-144 -37.5q-83 0 -146.5 38t-99.5 105.5t-36 157.5t36 157.5t99.5 105.5t146.5 38q80 0 144 -37.5t106 -104.5t56 -159zM222 285q0 -46 19 -81.5t52.5 -56t76.5 -20.5q44 0 83.5 20.5t69.5 56t45 81.5q-15 46 -45 81.5t-69.5 56
t-83.5 20.5q-43 0 -76.5 -20.5t-52.5 -56t-19 -81.5zM562 570h184v-173l-24 -49v-134l24 -48v-331h-184v337l24 72v111l-24 35v180zM686 285q15 92 56.5 159t105.5 104.5t144 37.5q84 0 147.5 -38t99 -105.5t35.5 -157.5t-35.5 -157.5t-99 -105.5t-147.5 -38
q-80 0 -143.5 37.5t-105.5 105t-57 158.5zM1086 285q0 46 -19 81.5t-52 56t-77 20.5t-83.5 -20.5t-69 -56t-46.5 -81.5q17 -46 46.5 -81.5t69 -56t83.5 -20.5t77 20.5t52 56t19 81.5z" />
    <glyph glyph-name="uni023A" unicode="&#x23a;" horiz-adv-x="944" 
d="M637 872h120l-396 -994h-120zM209 151v153h518v-153h-518zM595 750l346 -750h-202l-296 671h58l-297 -671h-201l346 750h246z" />
    <glyph glyph-name="uni023B" unicode="&#x23b;" horiz-adv-x="929" 
d="M588 872h151l-396 -994h-151zM897 310q-11 -97 -67.5 -170.5t-148 -114.5t-209.5 -41q-130 0 -227 49t-151 137t-54 205t54 205t151 137t227 49q118 0 209.5 -41t148 -114t67.5 -171h-190q-10 51 -41 87t-80 55.5t-115 19.5q-74 0 -128 -27.5t-83.5 -78.5t-29.5 -121
t29.5 -121t83.5 -78.5t128 -27.5q66 0 115 19t80 55t41 88h190z" />
    <glyph glyph-name="uni023C" unicode="&#x23c;" horiz-adv-x="753" 
d="M445 690h122l-260 -810h-122zM727 237q-9 -75 -56 -132t-122 -89t-167 -32q-104 0 -182.5 38t-123 106t-44.5 157t44.5 157t123 106t182.5 38q92 0 167 -32t122 -88.5t56 -132.5h-185q-12 55 -55 84t-105 29q-49 0 -85.5 -19t-56.5 -55t-20 -87t20 -87t56.5 -55t85.5 -19
q62 0 105.5 30.5t54.5 82.5h185z" />
    <glyph glyph-name="uni023D" unicode="&#x23d;" horiz-adv-x="792" 
d="M21 485h518v-131h-518v131zM296 750v-666l-85 83h562v-167h-666v750h189z" />
    <glyph glyph-name="uni023E" unicode="&#x23e;" horiz-adv-x="825" 
d="M718 872h154l-548 -994h-154zM310 666h189v-666h-189v666zM18 750h773v-167h-773v167z" />
    <glyph glyph-name="uni0241" unicode="&#x241;" horiz-adv-x="744" 
d="M389 766q110 0 185.5 -30t114 -82.5t38.5 -121.5q0 -42 -11.5 -75t-38 -62t-70.5 -61l-63 -47q-35 -26 -54 -49.5t-25.5 -52t-6.5 -71.5v-114h-189v145q0 57 12 97t37.5 72t66.5 62l68 50q33 24 51 39.5t25.5 30t7.5 34.5q0 42 -40 65.5t-117 23.5q-83 0 -128.5 -29.5
t-54.5 -83.5h-188q5 72 50 131t128 94t202 35z" />
    <glyph glyph-name="uni0242" unicode="&#x242;" horiz-adv-x="689" 
d="M239 59q0 52 17.5 88.5t60.5 65.5l90 62q26 19 41 32t21 26.5t6 30.5q0 36 -32 59t-98 23q-76 0 -112.5 -30t-48.5 -88h-183q13 119 98.5 188.5t247.5 69.5q93 0 164 -26t111.5 -74.5t40.5 -116.5q0 -43 -12 -75t-35 -57t-59 -50l-81 -57q-29 -21 -40 -41t-11 -54v-35
h-186v59z" />
    <glyph glyph-name="uni0243" unicode="&#x243;" horiz-adv-x="924" 
d="M22 281h500v-111h-500v111zM618 368l17 37q87 -2 143.5 -27t84 -68.5t27.5 -99.5q0 -61 -28 -108.5t-83.5 -74.5t-138.5 -27h-540l58 385l-58 365h521q104 0 161.5 -48.5t57.5 -133.5q0 -47 -21.5 -90t-70 -72.5t-130.5 -37.5zM287 46l-73 87h380q49 0 76.5 24t27.5 68
q0 43 -30.5 69.5t-90.5 26.5h-311v128h287q41 0 68 24t27 66q0 34 -23 56t-67 22h-343l72 87l52 -319z" />
    <glyph glyph-name="uni0244" unicode="&#x244;" horiz-adv-x="966" 
d="M23 491h920v-130h-920v130zM298 332q0 -55 21.5 -95.5t63 -62t100.5 -21.5q61 0 102 21.5t62 62t21 95.5v418h189v-427q0 -102 -47 -178t-130.5 -118.5t-196.5 -42.5q-111 0 -195 42.5t-131 118.5t-47 178v427h188v-418z" />
    <glyph glyph-name="uni0245" unicode="&#x245;" horiz-adv-x="911" 
d="M3 0l345 750h214l346 -750h-193l-299 666h82l-298 -666h-197z" />
    <glyph glyph-name="uni0246" unicode="&#x246;" horiz-adv-x="787" 
d="M544 872h150l-315 -994h-149zM704 445v-140h-543v140h543zM289 375l-50 -310l-79 90h576v-155h-686l58 375l-58 375h681v-155h-571l79 90z" />
    <glyph glyph-name="uni0247" unicode="&#x247;" horiz-adv-x="728" 
d="M441 690h122l-260 -810h-122zM387 -16q-102 0 -182.5 38t-126.5 106t-46 159q0 89 44 156t121.5 105t175.5 38q100 0 172 -44t111 -124t39 -188h-514v117h412l-67 -42q-3 47 -22.5 79.5t-51.5 50t-76 17.5q-48 0 -83 -19t-54.5 -53t-19.5 -79q0 -57 25.5 -97t74 -61
t118.5 -21q64 0 128 17.5t115 49.5v-121q-58 -40 -132.5 -62t-160.5 -22z" />
    <glyph glyph-name="uni0248" unicode="&#x248;" horiz-adv-x="846" 
d="M377 507h445v-130h-445v130zM20 367h185v-27q0 -93 39.5 -142.5t130.5 -49.5q90 0 130.5 47t40.5 130v425h189v-434q0 -105 -45 -179.5t-126.5 -113.5t-188.5 -39q-106 0 -186 40.5t-124.5 116.5t-44.5 184v42z" />
    <glyph glyph-name="uni0249" unicode="&#x249;" horiz-adv-x="373" 
d="M21 399h332v-112h-332v112zM94 578l93 -19l93 19v-743h-186v743zM187 630q-49 0 -80 25.5t-31 67.5q0 43 31 68t80 25q50 0 80 -25t30 -68q0 -42 -30 -67.5t-80 -25.5z" />
    <glyph glyph-name="uni024A" unicode="&#x24a;" horiz-adv-x="972" 
d="M992 -35q27 0 49.5 5t40.5 11v-137q-29 -12 -65 -18.5t-70 -6.5q-121 0 -178 63t-57 180v212l31 102l-31 99v275h186v-674q0 -54 21.5 -82.5t72.5 -28.5zM787 376q-19 -118 -70.5 -206t-130.5 -137t-180 -49q-109 0 -191 49t-128 137t-46 205t46 205t128 137t191 49
q101 0 180 -48t131 -135.5t70 -206.5zM232 376q0 -66 28 -117t78 -79.5t116 -28.5q60 0 112.5 28.5t92 79.5t60.5 117q-21 65 -60.5 115.5t-92 79t-112.5 28.5q-66 0 -116 -28.5t-78 -79t-28 -115.5z" />
    <glyph glyph-name="uni024B" unicode="&#x24b;" horiz-adv-x="808" 
d="M624 285q-15 -91 -57 -158.5t-106 -105t-144 -37.5q-84 0 -147.5 38t-99.5 105.5t-36 157.5t36 157.5t99.5 105.5t147.5 38q80 0 144 -37.5t106.5 -104.5t56.5 -159zM222 285q0 -46 19 -81.5t52.5 -56t77.5 -20.5t83.5 20.5t69.5 56t45 81.5q-15 46 -45 81.5t-69.5 56
t-83.5 20.5t-77.5 -20.5t-52.5 -56t-19 -81.5zM749 76q0 -56 21.5 -84t72.5 -28q26 0 49 5t41 11v-140q-28 -10 -64 -15.5t-71 -5.5q-121 0 -178 63t-57 179v121l7 44v148l-7 24v172h186v-494z" />
    <glyph glyph-name="uni024C" unicode="&#x24c;" horiz-adv-x="880" 
d="M21 412h276v-131h-276v131zM244 420h281q53 0 83.5 24.5t30.5 68.5t-30.5 68.5t-83.5 24.5h-308l85 93v-699h-189v750h436q84 0 147 -30t98.5 -83t35.5 -124q0 -70 -35.5 -123t-98.5 -83t-147 -30h-305v143zM365 351h213l276 -351h-220z" />
    <glyph glyph-name="uni024D" unicode="&#x24d;" horiz-adv-x="562" 
d="M17 270h383v-112h-383v112zM53 570h188l34 -205v-365h-186v380zM547 578v-160q-27 6 -53.5 9t-48.5 3q-48 0 -86.5 -19.5t-61 -61.5t-22.5 -109l-37 46q7 61 23 115t44 95.5t69.5 65.5t100.5 24q17 0 36 -2t36 -6z" />
    <glyph glyph-name="uni024E" unicode="&#x24e;" horiz-adv-x="961" 
d="M19 670h922v-130h-922v130zM386 0v363h189v-363h-189zM34 750h210l280 -356h-87l280 356h209l-385 -488l-121 -2z" />
    <glyph glyph-name="uni024F" unicode="&#x24f;" horiz-adv-x="802" 
d="M16 433h774v-107h-774v107zM252 -181q-60 0 -106.5 15t-90.5 45v131q45 -29 84.5 -41.5t86.5 -12.5q42 0 73.5 18t52.5 66l228 530h197l-279 -588q-28 -60 -67 -96t-84.5 -51.5t-94.5 -15.5zM273 45l-247 525h205l222 -525h-180z" />
    <glyph glyph-name="uni0250" unicode="&#x250;" horiz-adv-x="723" 
d="M224 252q0 -60 45.5 -93t141.5 -33q60 0 120.5 14t113.5 42v-137q-66 -32 -134 -46.5t-144 -14.5q-100 0 -172.5 30t-111.5 87.5t-39 141.5v327h176v-99l-2 -16v-114l6 -21v-68zM443 210q-67 0 -119.5 19.5t-89 48.5t-56 61t-19.5 57q0 23 19 55t55.5 63t89 51.5
t120.5 20.5q72 0 129 -22.5t89.5 -64t32.5 -101.5q0 -58 -33 -100.5t-89.5 -65t-128.5 -22.5zM387 323q55 0 89 20.5t34 54.5q0 36 -34.5 55.5t-88.5 19.5t-96 -18.5t-73 -56.5q32 -36 74 -55.5t95 -19.5z" />
    <glyph glyph-name="uni0251" unicode="&#x251;" horiz-adv-x="816" 
d="M578 0l-25 207l27 78l-27 77l25 208h193l-35 -285l35 -285h-193zM624 285q-15 -91 -57 -158.5t-106 -105t-144 -37.5q-84 0 -147.5 38t-99.5 105.5t-36 157.5t36 157.5t99.5 105.5t147.5 38q80 0 144 -37.5t106.5 -104.5t56.5 -159zM222 285q0 -46 19 -81.5t52.5 -56
t77.5 -20.5t83.5 20.5t69.5 56t45 81.5q-15 46 -45 81.5t-69.5 56t-83.5 20.5t-77.5 -20.5t-52.5 -56t-19 -81.5z" />
    <glyph glyph-name="uni0252" unicode="&#x252;" horiz-adv-x="816" 
d="M238 0h-192l34 285l-34 285h192l25 -208l-27 -77l27 -78zM192 285q15 92 57 159t106.5 104.5t144.5 37.5q84 0 147.5 -38t99 -105.5t35.5 -157.5t-35.5 -157.5t-99 -105.5t-147.5 -38q-81 0 -144.5 37.5t-105.5 105t-58 158.5zM594 285q0 46 -19 81.5t-52.5 56
t-76.5 20.5q-44 0 -83.5 -20.5t-69.5 -56t-46 -81.5q16 -46 46 -81.5t69.5 -56t83.5 -20.5q43 0 76.5 20.5t52.5 56t19 81.5z" />
    <glyph glyph-name="uni0253" unicode="&#x253;" horiz-adv-x="808" 
d="M60 534q0 127 66 189.5t215 62.5q46 0 88.5 -7.5t75.5 -17.5v-137q-27 11 -61 17.5t-70 6.5q-70 0 -99.5 -31t-29.5 -96v-137l-25 -49v-134l25 -48v-153h-185v534zM773 271q0 -85 -35.5 -150t-99 -101t-147.5 -36q-80 0 -144.5 36t-106 100.5t-56.5 150.5
q15 88 56.5 152.5t106 100.5t144.5 36q84 0 147.5 -36.5t99 -101t35.5 -151.5zM586 271q0 43 -19 75.5t-53 51t-77 18.5q-44 0 -83.5 -18.5t-69 -51t-46.5 -75.5q17 -41 46.5 -74t69 -51.5t83.5 -18.5q43 0 77 18.5t53 51.5t19 74z" />
    <glyph glyph-name="uni0254" unicode="&#x254;" horiz-adv-x="752" 
d="M26 334q9 75 56 131.5t122 88.5t167 32q104 0 182.5 -38t123 -105.5t44.5 -157.5q0 -89 -44.5 -156.5t-123 -106t-182.5 -38.5q-92 0 -167 32t-122 89t-56 132h185q12 -54 55 -83.5t105 -29.5q50 0 86 19t56 55t20 87q0 52 -20 87.5t-56 54.5t-86 19q-62 0 -105 -30.5
t-55 -81.5h-185z" />
    <glyph glyph-name="uni0256" unicode="&#x256;" horiz-adv-x="864" 
d="M603 770h193l-57 -471l25 -218q7 -61 28 -86.5t72 -25.5q26 0 49.5 4.5t41.5 10.5v-142q-28 -11 -64.5 -17t-71.5 -6q-80 0 -130 21.5t-75.5 63t-32.5 100.5l-25 211l34 68l-33 86zM624 285q-15 -91 -57 -158.5t-106 -105t-144 -37.5q-84 0 -147.5 38t-99.5 105.5
t-36 157.5t36 157.5t99.5 105.5t147.5 38q80 0 144 -37.5t106.5 -104.5t56.5 -159zM222 285q0 -46 19 -81.5t52.5 -56t77.5 -20.5t83.5 20.5t69.5 56t45 81.5q-15 46 -45 81.5t-69.5 56t-83.5 20.5t-77.5 -20.5t-52.5 -56t-19 -81.5z" />
    <glyph glyph-name="uni0257" unicode="&#x257;" horiz-adv-x="806" 
d="M747 0h-185v152l25 49v134l-25 48v178q0 111 53 168t166 57q39 0 72.5 -7t55.5 -16v-133q-17 8 -38.5 13.5t-42.5 5.5q-42 0 -61.5 -21.5t-19.5 -64.5v-563zM624 285q-15 -91 -57 -158.5t-106 -105t-144 -37.5q-84 0 -147.5 38t-99.5 105.5t-36 157.5t36 157.5
t99.5 105.5t147.5 38q80 0 144 -37.5t106.5 -104.5t56.5 -159zM222 285q0 -46 19 -81.5t52.5 -56t77.5 -20.5t83.5 20.5t69.5 56t45 81.5q-15 46 -45 81.5t-69.5 56t-83.5 20.5t-77.5 -20.5t-52.5 -56t-19 -81.5z" />
    <glyph glyph-name="uni0259" unicode="&#x259;" horiz-adv-x="728" 
d="M340 586q103 0 183 -38t126.5 -106t46.5 -159q0 -89 -44 -156t-121.5 -105t-175.5 -38q-100 0 -172.5 44.5t-111 125.5t-38.5 190h513v-120h-411l62 41q4 -48 24 -82.5t53 -52.5t78 -18q48 0 83 20t54 55.5t19 81.5q0 57 -25.5 97t-73 61t-117.5 21q-64 0 -127 -16
t-114 -41v117q57 35 133.5 56.5t155.5 21.5z" />
    <glyph glyph-name="uni025B" unicode="&#x25b;" horiz-adv-x="725" 
d="M49 423q0 70 76 116.5t237 46.5q103 0 174 -27t109.5 -72t42.5 -101h-180q-8 29 -41 51t-102 22q-70 0 -99 -17.5t-29 -42.5q0 -16 10.5 -29t36.5 -20t70 -7h117v-105h-117q-50 0 -79.5 -6.5t-41.5 -19t-12 -32.5q0 -30 34 -49.5t113 -19.5q80 0 116 20.5t42 56.5h182
q-4 -55 -42.5 -101.5t-113.5 -74.5t-189 -28t-187 25t-108 65t-35 89q0 44 26.5 75t87.5 47.5t165 16.5v-18q-78 0 -129 11.5t-80.5 31.5t-41.5 45t-12 51z" />
    <glyph glyph-name="uni025F" unicode="&#x25f;" horiz-adv-x="373" 
d="M21 399h332v-112h-332v112zM94 578l93 -19l93 19v-743h-186v743z" />
    <glyph glyph-name="uni0260" unicode="&#x260;" horiz-adv-x="806" 
d="M310 56q-80 0 -143 33t-99 92.5t-36 139.5t36 139.5t99 92.5t143 33q60 0 110 -18.5t89 -48.5t66 -65.5t41 -71t14 -63.5q0 -37 -22 -82.5t-63.5 -86.5t-100.5 -67.5t-134 -26.5zM372 185q62 0 111 33t85 103q-36 71 -85.5 104t-110.5 33q-47 0 -81.5 -17t-53 -47.5
t-18.5 -72.5q0 -41 18 -71.5t52.5 -47.5t82.5 -17zM843 786q47 0 88.5 -7.5t75.5 -17.5v-133q-29 11 -62 18t-69 7q-68 0 -98 -32.5t-30 -96.5v-372q0 -106 -48.5 -180.5t-134.5 -113.5t-200 -39q-79 0 -145.5 21t-131.5 62v140q61 -46 128.5 -66.5t136.5 -20.5
q101 0 155 46t54 142v97l6 23v108l-6 8v148q0 133 69.5 196t211.5 63z" />
    <glyph glyph-name="uni0261" unicode="&#x261;" horiz-adv-x="805" 
d="M562 143v97l6 23v132l-6 21v154h186v-418q0 -106 -48.5 -180.5t-134.5 -113.5t-200 -39q-79 0 -145.5 20.5t-131.5 61.5v142q61 -46 128.5 -66.5t136.5 -20.5q101 0 155 45.5t54 141.5zM310 56q-80 0 -143 33t-99 92.5t-36 139.5t36 139.5t99 92.5t143 33q60 0 110 -18.5
t89 -48.5t66 -65.5t41 -71t14 -63.5q0 -37 -22 -82.5t-63.5 -86.5t-100.5 -67.5t-134 -26.5zM372 185q62 0 111 33t85 103q-36 71 -85.5 104t-110.5 33q-47 0 -81.5 -17t-53 -47.5t-18.5 -72.5q0 -41 18 -71.5t52.5 -47.5t82.5 -17z" />
    <glyph glyph-name="uni0263" unicode="&#x263;" horiz-adv-x="773" 
d="M386 -181q-90 0 -141.5 38t-51.5 102q0 31 12 59.5t36 62.5t61 81l-5 -74l-288 482h202l195 -355h-35l197 355h195l-280 -469l-12 61q37 -47 61 -81t35.5 -62.5t11.5 -59.5q0 -64 -51 -102t-142 -38zM386 -67q22 0 34.5 10.5t12.5 27.5q0 13 -7.5 28t-21 35t-31.5 44h27
q-19 -24 -32 -44t-20.5 -35t-7.5 -28q0 -17 12.5 -27.5t33.5 -10.5z" />
    <glyph glyph-name="uni0264" unicode="&#x264;" horiz-adv-x="773" 
d="M386 -181q-90 0 -141.5 38t-51.5 102q0 31 12 59.5t36 62.5t61 81l-5 -74l-288 482h202l195 -355h-35l197 355h195l-280 -469l-12 61q37 -47 61 -81t35.5 -62.5t11.5 -59.5q0 -64 -51 -102t-142 -38zM386 -67q22 0 34.5 10.5t12.5 27.5q0 13 -7.5 28t-21 35t-31.5 44h27
q-19 -24 -32 -44t-20.5 -35t-7.5 -28q0 -17 12.5 -27.5t33.5 -10.5z" />
    <glyph glyph-name="uni0265" unicode="&#x265;" horiz-adv-x="758" 
d="M698 -165h-185v735h185v-735zM304 -16q-80 0 -136.5 33t-86 93t-29.5 142v318h186v-291q0 -70 33.5 -106.5t96.5 -36.5q44 0 77 19.5t50.5 55t17.5 84.5l59 -31q-11 -90 -48.5 -152.5t-94 -95t-125.5 -32.5z" />
    <glyph glyph-name="uni0266" unicode="&#x266;" horiz-adv-x="768" 
d="M459 566q81 0 138.5 -32.5t88 -92.5t30.5 -143v-298h-186v270q0 71 -34.5 107.5t-100.5 36.5q-45 0 -79 -19.5t-52.5 -55t-18.5 -84.5l-59 31q12 91 50 153t95.5 94.5t127.5 32.5zM60 534q0 127 66 189.5t215 62.5q46 0 88.5 -7.5t75.5 -17.5v-137q-27 11 -61 17.5
t-70 6.5q-69 0 -99 -30t-30 -94v-524h-185v534z" />
    <glyph glyph-name="uni0267" unicode="&#x267;" horiz-adv-x="768" 
d="M60 534q0 127 66 189.5t215 62.5q46 0 88.5 -7.5t75.5 -17.5v-137q-27 11 -61 17.5t-70 6.5q-69 0 -99 -30t-30 -94v-524h-185v534zM459 566q81 0 138.5 -32.5t88 -92.5t30.5 -143v-237q0 -116 -57 -179t-178 -63q-35 0 -71 5.5t-64 15.5v140q18 -6 40.5 -11t49.5 -5
q52 0 73 28t21 84v194q0 71 -34.5 107.5t-100.5 36.5q-45 0 -79 -19.5t-52.5 -55t-18.5 -84.5l-59 31q12 91 50 153t95.5 94.5t127.5 32.5z" />
    <glyph glyph-name="uni0268" unicode="&#x268;" horiz-adv-x="373" 
d="M20 399h332v-112h-332v112zM93 578l93 -19l93 19v-578h-186v578zM186 630q-49 0 -79.5 25.5t-30.5 67.5q0 43 30.5 68t79.5 25q50 0 80.5 -25t30.5 -68q0 -42 -30.5 -67.5t-80.5 -25.5z" />
    <glyph glyph-name="uni0269" unicode="&#x269;" horiz-adv-x="441" 
d="M240 570v-363q0 -45 22 -63t63 -18q31 0 55.5 8t49.5 21v-145q-26 -11 -60.5 -18.5t-73.5 -7.5q-81 0 -134.5 26.5t-80 73t-26.5 108.5v378h185z" />
    <glyph glyph-name="uni026A" unicode="&#x26a;" horiz-adv-x="612" 
d="M213 0v524h186v-524h-186zM36 0v112h540v-112h-540zM36 458v112h540v-112h-540z" />
    <glyph glyph-name="uni026C" unicode="&#x26c;" horiz-adv-x="605" 
d="M161 565q58 0 97 -24.5t59.5 -66t20.5 -93.5v-121h-73v119q0 51 -25 74.5t-59 23.5q-27 0 -41.5 -13t-14.5 -34q0 -23 19 -38.5t65 -15.5q24 0 49 4t52 10l70 21q48 13 100.5 37.5t110.5 61.5v-117q-49 -28 -101.5 -51t-105.5 -37l-65 -16q-27 -5 -56 -8.5t-58 -3.5
q-92 0 -144 39.5t-52 108.5q0 61 39 100.5t113 39.5zM241 770h186v-770h-186v770z" />
    <glyph glyph-name="uni026F" unicode="&#x26f;" horiz-adv-x="1195" 
d="M1163 0h-186l-37 222v348h186v-376zM740 -16q-77 0 -132 33t-83.5 93t-28.5 142v318h186v-290q0 -70 31.5 -107t90.5 -37q42 0 72.5 19.5t47 55t16.5 84.5l59 -31q-11 -90 -47.5 -152.5t-91 -95t-120.5 -32.5zM297 -16q-78 0 -132.5 33t-83.5 93t-29 142v318h186v-290
q0 -70 31.5 -107t90.5 -37q42 0 72.5 19.5t47 55t16.5 84.5l59 -31q-11 -90 -47 -152.5t-90.5 -95t-120.5 -32.5z" />
    <glyph glyph-name="uni0271" unicode="&#x271;" horiz-adv-x="1195" 
d="M32 570h186l37 -222v-348h-186v376zM455 586q77 0 131.5 -32.5t83.5 -92.5t29 -143v-318h-186v290q0 71 -31.5 107.5t-90.5 36.5q-42 0 -73 -19.5t-47 -55t-16 -84.5l-60 31q12 91 48 153t91 94.5t121 32.5zM1143 318v-257q0 -116 -57.5 -179t-178.5 -63q-34 0 -70 5.5
t-65 15.5v140q18 -6 41 -11t49 -5q52 0 73.5 28t21.5 84v214q0 71 -31.5 107.5t-90.5 36.5q-42 0 -73 -19.5t-47 -55t-16 -84.5l-60 31q12 91 48 153t90.5 94.5t120.5 32.5q77 0 132 -32.5t84 -92.5t29 -143z" />
    <glyph glyph-name="uni0272" unicode="&#x272;" horiz-adv-x="777" 
d="M468 586q82 0 139 -32.5t87.5 -92.5t30.5 -143v-318h-186v290q0 71 -34.5 107.5t-100.5 36.5q-45 0 -79 -19.5t-52 -55t-18 -84.5l-60 31q12 91 50 153t96 94.5t127 32.5zM32 570h186l37 -222v-304q0 -110 -53.5 -167.5t-165.5 -57.5q-40 0 -72 7t-57 18v125
q17 -8 38 -13t43 -5q42 0 61.5 21t19.5 65v339z" />
    <glyph glyph-name="uni0275" unicode="&#x275;" horiz-adv-x="785" 
d="M108 345h562v-121h-562v121zM392 -16q-108 0 -189 38t-126 106t-45 157q0 90 45 157.5t126.5 105.5t188.5 38q108 0 189.5 -38t126.5 -105.5t45 -157.5t-45 -157.5t-126.5 -105.5t-189.5 -38zM392 124q55 0 93.5 19.5t59 55.5t20.5 86t-20.5 86t-59 55.5t-93.5 19.5
q-53 0 -92 -19.5t-60 -55.5t-21 -86t21 -86t60 -55.5t92 -19.5z" />
    <glyph glyph-name="uni0278" unicode="&#x278;" horiz-adv-x="950" 
d="M382 770h185v-935h-185v935zM392 123v-139q-108 0 -189 38t-126 106t-45 157q0 90 45 157.5t126 105.5t189 38v-139q-53 0 -92 -19.5t-60 -56t-21 -86.5q0 -51 21 -87t60 -55.5t92 -19.5zM557 123q54 0 93 19.5t59.5 55.5t20.5 87q0 50 -20.5 86.5t-59.5 56t-93 19.5v139
q108 0 189 -38t126.5 -105.5t45.5 -157.5t-45.5 -157.5t-126.5 -105.5t-189 -38v139z" />
    <glyph glyph-name="uni027D" unicode="&#x27d;" horiz-adv-x="541" 
d="M255 240v-164q0 -56 21.5 -84t72.5 -28q26 0 49 5t41 11v-140q-28 -10 -64 -15.5t-71 -5.5q-121 0 -178 63t-57 179v319l-37 190h189l25 -152q26 74 75.5 121t132.5 47q18 0 36.5 -2t36.5 -6v-160q-28 6 -54.5 9t-48.5 3q-47 0 -85.5 -19.5t-61 -61.5t-22.5 -109z" />
    <glyph glyph-name="uni027E" unicode="&#x27e;" horiz-adv-x="434" 
d="M289 586q36 0 71.5 -5t63.5 -15v-141q-18 6 -40.5 11t-49.5 5q-51 0 -72.5 -28t-21.5 -83v-330h-186v344q0 116 57 179t178 63z" />
    <glyph glyph-name="uni0283" unicode="&#x283;" horiz-adv-x="364" 
d="M406 786q43 0 78 -6.5t72 -17.5v-132q-28 11 -58 16t-62 5q-67 0 -99.5 -27.5t-32.5 -88.5v-458q0 -81 -31.5 -138.5t-94 -88.5t-156.5 -31q-40 0 -71.5 6.5t-64.5 17.5v138q27 -11 55 -17t58 -6q65 0 92 26t27 82v462q0 81 32.5 138.5t96.5 88.5t159 31z" />
    <glyph glyph-name="uni0284" unicode="&#x284;" horiz-adv-x="438" 
d="M22 212h342v-112h-342v112zM384 786q43 0 77.5 -6.5t71.5 -17.5v-138q-30 11 -61 17t-66 6q-69 0 -97 -26t-28 -82v-704h-186v693q0 81 32 138.5t96.5 88.5t160.5 31z" />
    <glyph glyph-name="uni0288" unicode="&#x288;" horiz-adv-x="550" 
d="M315 432v-358q0 -55 21.5 -83t73.5 -28q26 0 49 4.5t41 10.5v-138q-28 -10 -64 -15.5t-71 -5.5q-121 0 -178.5 63t-57.5 179v371h-117v81l117 43l80 166h106v-152h246v-138h-246z" />
    <glyph glyph-name="uni0289" unicode="&#x289;" horiz-adv-x="854" 
d="M351 -15q-80 0 -136 32.5t-85.5 92.5t-29.5 142v318h186v-291q0 -69 33 -106t95 -37q46 0 78 19t49 55t17 85l59 -31q-10 -90 -47.5 -152.5t-94 -94.5t-124.5 -32zM595 0l-37 222v348h186v-376l37 -194h-186zM24 399h809v-112h-809v112z" />
    <glyph glyph-name="uni028A" unicode="&#x28a;" horiz-adv-x="808" 
d="M404 -15q-105 0 -184 32.5t-123.5 93.5t-44.5 143q0 83 56.5 149.5t177.5 99.5l-33 -57h-218v124h310v-94q-57 -29 -86 -78t-29 -108q0 -73 46.5 -119.5t127.5 -46.5q54 0 93 21t60 58.5t21 86.5q0 59 -29 108t-86 78v94h309v-124h-217l-33 57q120 -33 177 -99.5
t57 -149.5q0 -82 -44.5 -143t-123.5 -93.5t-184 -32.5z" />
    <glyph glyph-name="uni028B" unicode="&#x28b;" horiz-adv-x="774" 
d="M741 356q0 -77 -28 -144.5t-79 -118.5t-121 -79.5t-154 -28.5q-110 0 -178 36t-99 102t-31 155v292h185v-291q0 -68 31.5 -107.5t101.5 -39.5q41 0 75 14.5t58.5 41t38 62.5t13.5 79q0 54 -24.5 86t-79.5 32q-22 0 -43 -6t-36 -13v135q24 8 58.5 15.5t77.5 7.5
q114 0 174 -59t60 -171z" />
    <glyph glyph-name="uni028C" unicode="&#x28c;" horiz-adv-x="755" 
d="M272 570h211l269 -570h-204l-204 486h64l-207 -486h-198z" />
    <glyph glyph-name="uni028E" unicode="&#x28e;" horiz-adv-x="761" 
d="M527 751q60 0 107 -14.5t90 -45.5v-131q-45 29 -84 41.5t-87 12.5q-41 0 -73 -18t-53 -66l-228 -530h-197l279 588q29 61 68 96.5t85 51t93 15.5zM506 525l247 -525h-205l-222 525h180z" />
    <glyph glyph-name="uni0292" unicode="&#x292;" horiz-adv-x="737" 
d="M59 570h609v-132l-323 -219l-21 58h83q107 0 174 -30t98.5 -79.5t31.5 -110.5q0 -68 -40 -122t-117.5 -85t-193.5 -31q-109 0 -186.5 33.5t-120 92t-46.5 131.5h176q8 -53 53 -87t124 -34q78 0 120.5 30t42.5 81q0 30 -16.5 53.5t-53 37.5t-99.5 14h-115v115l337 232
l24 -83h-541v135z" />
    <glyph glyph-name="uni0294" unicode="&#x294;" horiz-adv-x="670" 
d="M237 251q0 57 19.5 91.5t57.5 60.5l94 65q37 25 51 43.5t14 44.5q0 42 -31.5 65.5t-98.5 23.5q-76 0 -112.5 -30t-48.5 -87h-183q13 119 98.5 188.5t247.5 69.5q98 0 168.5 -26t109 -76t38.5 -122q0 -55 -24 -99.5t-83 -85.5l-90 -63q-24 -16 -32.5 -35.5t-8.5 -51.5
v-227h-186v251z" />
    <glyph glyph-name="uni0295" unicode="&#x295;" horiz-adv-x="670" 
d="M433 251v-251h-186v227q0 32 -8 51.5t-33 35.5l-90 63q-59 41 -83 85.5t-24 99.5q0 72 38.5 122t109.5 76t168 26q162 0 247.5 -69.5t98.5 -188.5h-183q-12 57 -48.5 87t-112.5 30q-67 0 -98.5 -23.5t-31.5 -65.5q0 -26 14.5 -44.5t50.5 -43.5l94 -65q38 -26 57.5 -60.5
t19.5 -91.5z" />
    <glyph glyph-name="uni0298" unicode="&#x298;" horiz-adv-x="939" 
d="M470 -16q-130 0 -228 50.5t-152 140.5t-54 210t54 210t152 140.5t228 50.5t227 -50.5t152 -140.5t55 -210t-55 -210t-152 -140.5t-227 -50.5zM470 124q76 0 131 31.5t85 90t30 139.5t-30 139.5t-85 90t-131 31.5t-131 -31.5t-85.5 -90t-30.5 -139.5t30.5 -139.5t85.5 -90
t131 -31.5zM469 292q-39 0 -66 27t-27 66q0 40 27 66.5t66 26.5q41 0 67.5 -26.5t26.5 -66.5q0 -39 -26.5 -66t-67.5 -27z" />
    <glyph glyph-name="uni029D" unicode="&#x29d;" horiz-adv-x="590" 
d="M227 -181q-72 0 -124.5 25.5t-80.5 69.5t-28 101q0 59 28 103t77 68t114 24q53 0 103.5 -12.5t96 -33t83 -44.5t63.5 -47v-133q-35 35 -78.5 65t-90 51t-90 33t-78.5 12q-48 0 -72.5 -22t-24.5 -57q0 -30 21 -51t61 -21q44 0 67 25t23 68v531l93 -18l93 18v-511
q0 -76 -31 -130.5t-88.5 -84t-136.5 -29.5zM390 630q-49 0 -79.5 25.5t-30.5 67.5q0 43 30.5 68t79.5 25q51 0 81 -25t30 -68q0 -42 -30 -67.5t-81 -25.5z" />
    <glyph glyph-name="uni02A7" unicode="&#x2a7;" horiz-adv-x="865" 
d="M6 431v82l118 43l80 166h106v-152h381v-139h-381v-177q0 -64 24 -89.5t86 -25.5q33 0 60.5 7.5t53.5 20.5v-138q-28 -13 -67.5 -23.5t-88.5 -10.5q-88 0 -144.5 29t-83 81.5t-26.5 123.5v202h-118zM907 786q43 0 78 -6.5t72 -17.5v-132q-28 11 -58 16t-62 5
q-67 0 -99.5 -27.5t-32.5 -88.5v-458q0 -81 -31.5 -138.5t-94.5 -88.5t-158 -31q-37 0 -69 5.5t-65 13.5v122q21 -7 42 -10.5t43 -3.5q78 3 112.5 33t34.5 99v450q0 81 32.5 138.5t96.5 88.5t159 31z" />
    <glyph glyph-name="uni02B0" unicode="&#x2b0;" horiz-adv-x="621" 
d="M52 881h153v-601h-153v601zM368 738q96 0 148.5 -56.5t52.5 -152.5v-249h-153v226q0 52 -26 79.5t-75 27.5q-50 0 -80 -32t-30 -86l-48 24q10 72 39.5 120.5t74 73.5t97.5 25z" />
    <glyph glyph-name="uni02B1" unicode="&#x2b1;" horiz-adv-x="621" 
d="M368 719q96 0 148.5 -56.5t52.5 -152.5v-230h-153v208q0 51 -26 79t-75 28q-50 0 -80 -32.5t-30 -86.5l-48 25q10 71 39.5 119.5t74.5 73.5t97 25zM52 694q0 101 53 150t169 49q35 0 69 -5.5t60 -13.5v-111q-21 8 -46.5 13t-54.5 5q-51 0 -74 -22.5t-23 -71.5v-407h-153
v414z" />
    <glyph glyph-name="uni02B2" unicode="&#x2b2;" horiz-adv-x="267" 
d="M57 729l77 -15l76 15v-578h-153v578zM134 770q-41 0 -66 20.5t-25 54.5t25 54.5t66 20.5q40 0 64.5 -20.5t24.5 -54.5t-24.5 -54.5t-64.5 -20.5z" />
    <glyph glyph-name="uni02B3" unicode="&#x2b3;" horiz-adv-x="384" 
d="M23 725h156l26 -159v-286h-153v296zM414 732v-132q-21 5 -42 7t-38 2q-35 0 -64.5 -14t-47 -45.5t-17.5 -84.5l-29 37q8 63 27.5 117t57 86.5t97.5 32.5q14 0 28 -1.5t28 -4.5z" />
    <glyph glyph-name="uni02B7" unicode="&#x2b7;" horiz-adv-x="787" 
d="M594 366h-49l123 359h154l-162 -445h-157l-134 372h51l-137 -372h-157l-161 445h154l123 -359h-49l128 359h146z" />
    <glyph glyph-name="uni02B8" unicode="&#x2b8;" horiz-adv-x="524" 
d="M185 140q-47 0 -84.5 11.5t-73.5 36.5v107q38 -24 69.5 -33.5t67.5 -9.5q34 0 57.5 14.5t39.5 51.5l172 407h163l-214 -455q-23 -48 -54.5 -77t-67.5 -41t-75 -12zM195 319l-190 406h169l168 -406h-147z" />
    <glyph glyph-name="uni02B9" unicode="&#x2b9;" horiz-adv-x="282" 
d="M49 750h184l-36 -319h-112z" />
    <glyph glyph-name="uni02BB" unicode="&#x2bb;" horiz-adv-x="258" 
d="M222 872l-88 -145l-7 51q45 0 73 -21t28 -58q0 -36 -27.5 -58t-73.5 -22q-47 0 -74.5 22.5t-27.5 58.5q0 29 13 50.5t43 58.5l51 63h90z" />
    <glyph glyph-name="uni02BC" unicode="&#x2bc;" horiz-adv-x="287" 
d="M50 420l94 201l12 -68q-30 0 -54 14t-38 37.5t-14 51.5q0 29 14 52.5t38 37.5t54 14q29 0 53 -14t38 -38t14 -54q0 -27 -13 -59t-46 -81l-61 -94h-91z" />
    <glyph glyph-name="uni02BE" unicode="&#x2be;" horiz-adv-x="246" 
d="M41 759q55 0 96 -20t64.5 -54.5t23.5 -81.5q0 -45 -23.5 -80.5t-64.5 -55t-96 -19.5v90q40 0 60 17t20 48q0 32 -20 49t-60 17v90z" />
    <glyph glyph-name="uni02BF" unicode="&#x2bf;" horiz-adv-x="246" 
d="M205 759v-90q-39 0 -59.5 -17t-20.5 -49q0 -31 20.5 -48t59.5 -17v-90q-54 0 -95 19.5t-64.5 55t-23.5 80.5q0 47 23.5 81.5t64.5 54.5t95 20z" />
    <glyph glyph-name="uni02C0" unicode="&#x2c0;" horiz-adv-x="315" 
d="M51 474q0 46 15 73.5t45 47.5l73 50q27 19 38 33t11 34q0 32 -23.5 49.5t-72.5 17.5q-55 0 -83 -22.5t-36 -66.5h-151q9 92 76 147.5t196 55.5q115 0 181.5 -46t66.5 -130q0 -43 -18.5 -78.5t-63.5 -66.5l-70 -50q-18 -12 -24.5 -27.5t-6.5 -39.5v-175h-153v194z" />
    <glyph glyph-name="uni02C1" unicode="&#x2c1;" horiz-adv-x="314" 
d="M264 474v-194h-153v175q0 24 -6.5 39.5t-24.5 27.5l-70 50q-45 31 -64 66t-19 79q0 84 67 130t182 46q125 0 193.5 -54t77.5 -149h-150q-8 43 -35.5 66t-83.5 23q-50 0 -72.5 -17.5t-22.5 -49.5q0 -20 10 -33.5t38 -33.5l73 -50q30 -20 45 -48t15 -73z" />
    <glyph glyph-name="circumflex" unicode="&#x2c6;" horiz-adv-x="531" 
d="M170 812h192l143 -185h-149l-133 137h85l-132 -137h-149z" />
    <glyph glyph-name="caron" unicode="&#x2c7;" horiz-adv-x="531" 
d="M362 627h-192l-143 185h148l133 -137h-85l132 137h150z" />
    <glyph glyph-name="uni02C8" unicode="&#x2c8;" horiz-adv-x="267" 
d="M53 750h160v-319h-160v319z" />
    <glyph glyph-name="uni02C9" unicode="&#x2c9;" horiz-adv-x="518" 
d="M31 655v114h473v-114h-473z" />
    <glyph glyph-name="breve" unicode="&#x2d8;" horiz-adv-x="523" 
d="M27 811h138q8 -36 33 -56.5t63 -20.5t63.5 20.5t33.5 56.5h138q-13 -89 -73.5 -140t-161.5 -51q-99 0 -159.5 51t-74.5 140z" />
    <glyph glyph-name="dotaccent" unicode="&#x2d9;" horiz-adv-x="306" 
d="M153 630q-49 0 -80 25.5t-31 67.5q0 43 31 68t80 25q50 0 80 -25t30 -68q0 -42 -30 -67.5t-80 -25.5z" />
    <glyph glyph-name="ring" unicode="&#x2da;" horiz-adv-x="418" 
d="M209 617q-85 0 -133.5 36t-48.5 99q0 62 48.5 98t133.5 36t133.5 -36t48.5 -98q0 -63 -48.5 -99t-133.5 -36zM209 695q37 0 56.5 15t19.5 42t-19.5 42t-56.5 15q-36 0 -56 -15t-20 -42t20 -42t56 -15z" />
    <glyph glyph-name="ogonek" unicode="&#x2db;" horiz-adv-x="316" 
d="M201 19l65 -6v-13h23q-37 -10 -64 -22t-42 -24t-15 -25q0 -28 62 -28q16 0 31 1.5t28 4.5v-101q-13 -5 -43 -9.5t-62 -4.5q-68 0 -109.5 26.5t-41.5 69.5q0 44 41.5 76.5t126.5 54.5z" />
    <glyph glyph-name="tilde" unicode="&#x2dc;" horiz-adv-x="535" 
d="M23 635q5 83 40 131t104 48q27 0 52 -8t47.5 -18t42.5 -18.5t37 -8.5q21 0 35 13.5t18 38.5h113q-4 -81 -39 -130t-105 -49q-26 0 -51.5 8t-48 18.5t-42 18.5t-36.5 8q-21 0 -35 -13.5t-19 -38.5h-113z" />
    <glyph glyph-name="hungarumlaut" unicode="&#x2dd;" horiz-adv-x="570" 
d="M140 812h165l-120 -185h-157zM378 812h166l-120 -185h-157z" />
    <glyph glyph-name="uni02E1" unicode="&#x2e1;" horiz-adv-x="257" 
d="M52 881h153v-601h-153v601z" />
    <glyph glyph-name="uni02E2" unicode="&#x2e2;" horiz-adv-x="595" 
d="M561 424q0 -50 -30 -85t-87 -53.5t-138 -18.5q-82 0 -144 20.5t-96.5 57.5t-37.5 86h156q8 -30 41 -46.5t88 -16.5q48 0 73 11t25 33q0 17 -18.5 25.5t-64.5 11.5l-79 6q-112 9 -160 42.5t-48 91.5q0 74 68 111.5t179 37.5q74 0 132 -19.5t92.5 -54.5t39.5 -82h-155
q-6 24 -33 42t-83 18q-43 0 -66.5 -11t-23.5 -31q0 -15 14 -23.5t53 -11.5l104 -8q74 -6 117.5 -22.5t62.5 -44t19 -66.5z" />
    <glyph glyph-name="uni02E3" unicode="&#x2e3;" horiz-adv-x="588" 
d="M9 280l205 250v-47l-193 242h170l127 -156h-46l127 156h168l-200 -244l-8 63l220 -264h-174l-138 168h49l-136 -168h-171z" />
    <glyph glyph-name="gravecomb" unicode="&#x300;" 
d="M208 812l125 -185h-173l-133 185h181z" />
    <glyph glyph-name="acutecomb" unicode="&#x301;" 
d="M152 812h181l-133 -185h-173z" />
    <glyph glyph-name="uni0302" unicode="&#x302;" 
d="M170 812h192l143 -185h-149l-133 137h85l-132 -137h-149z" />
    <glyph glyph-name="tildecomb" unicode="&#x303;" 
d="M23 635q5 83 40 131t104 48q27 0 52 -8t47.5 -18t42.5 -18.5t37 -8.5q21 0 35 13.5t18 38.5h113q-4 -81 -39 -130t-105 -49q-26 0 -51.5 8t-48 18.5t-42 18.5t-36.5 8q-21 0 -35 -13.5t-19 -38.5h-113z" />
    <glyph glyph-name="uni0304" unicode="&#x304;" 
d="M31 655v114h473v-114h-473z" />
    <glyph glyph-name="uni0306" unicode="&#x306;" 
d="M27 811h138q8 -36 33 -56.5t63 -20.5t63.5 20.5t33.5 56.5h138q-13 -89 -73.5 -140t-161.5 -51q-99 0 -159.5 51t-74.5 140z" />
    <glyph glyph-name="uni0307" unicode="&#x307;" 
d="M153 630q-49 0 -80 25.5t-31 67.5q0 43 31 68t80 25q50 0 80 -25t30 -68q0 -42 -30 -67.5t-80 -25.5z" />
    <glyph glyph-name="uni0308" unicode="&#x308;" 
d="M141 630q-47 0 -75 24t-28 66q0 40 28 63.5t75 23.5t75.5 -23.5t28.5 -63.5q0 -42 -28.5 -66t-75.5 -24zM444 630q-47 0 -75.5 24t-28.5 66q0 40 28.5 63.5t75.5 23.5q46 0 74.5 -23.5t28.5 -63.5q0 -42 -28.5 -66t-74.5 -24z" />
    <glyph glyph-name="hookabovecomb" unicode="&#x309;" 
d="M127 613l-35 53q29 10 45 23t16 28q0 16 -15.5 24t-44.5 8q-18 0 -34.5 -2t-31.5 -6v102q18 5 48.5 9.5t63.5 4.5q77 0 120 -27.5t43 -76.5t-41 -84t-134 -56z" />
    <glyph glyph-name="uni030A" unicode="&#x30a;" 
d="M209 617q-85 0 -133.5 36t-48.5 99q0 62 48.5 98t133.5 36t133.5 -36t48.5 -98q0 -63 -48.5 -99t-133.5 -36zM209 695q37 0 56.5 15t19.5 42t-19.5 42t-56.5 15q-36 0 -56 -15t-20 -42t20 -42t56 -15z" />
    <glyph glyph-name="uni030B" unicode="&#x30b;" 
d="M139 812h165l-120 -185h-157zM377 812h166l-120 -185h-157z" />
    <glyph glyph-name="uni030C" unicode="&#x30c;" 
d="M362 627h-192l-143 185h148l133 -137h-85l132 137h150z" />
    <glyph glyph-name="uni030D" unicode="&#x30d;" 
d="M68 832h148v-205h-148v205z" />
    <glyph glyph-name="uni030F" unicode="&#x30f;" 
d="M430 812l112 -185h-157l-120 185h165zM192 812l111 -185h-157l-120 185h166z" />
    <glyph glyph-name="uni0311" unicode="&#x311;" 
d="M496 627h-138q-8 37 -33.5 57t-63.5 20t-63 -20t-33 -57h-138q13 90 73.5 140.5t160.5 50.5t160.5 -50.5t74.5 -140.5z" />
    <glyph glyph-name="uni0312" unicode="&#x312;" 
d="M234 873l-89 -145l-7 51q46 0 73.5 -21t27.5 -58q0 -36 -27.5 -58t-73.5 -22t-74 22.5t-28 58.5q0 27 13 48.5t44 60.5l50 63h91z" />
    <glyph glyph-name="uni0313" unicode="&#x313;" 
d="M41 627l88 145l8 -51q-46 0 -74 21.5t-28 57.5t27.5 57.5t74.5 21.5q46 0 73.5 -22t27.5 -59q0 -26 -13 -47.5t-43 -60.5l-50 -63h-91z" />
    <glyph glyph-name="uni0315" unicode="&#x315;" 
d="M41 627l88 145l8 -51q-46 0 -74 21.5t-28 57.5t27.5 57.5t74.5 21.5q46 0 73.5 -22t27.5 -59q0 -26 -13 -47.5t-43 -60.5l-50 -63h-91z" />
    <glyph glyph-name="uni031B" unicode="&#x31b;" 
d="M239 598q0 -63 -52 -99.5t-143 -36.5h-9.5h-7.5v104h2h1q29 0 46.5 15t17.5 41q0 16 -7 35.5t-21 38.5h142q31 -48 31 -98z" />
    <glyph glyph-name="uni0320" unicode="&#x320;" 
d="M31 -179v114h473v-114h-473z" />
    <glyph glyph-name="dotbelowcomb" unicode="&#x323;" 
d="M153 -237q-49 0 -80 25.5t-31 67.5q0 43 31 68t80 25q50 0 80 -25t30 -68q0 -42 -30 -67.5t-80 -25.5z" />
    <glyph glyph-name="uni0324" unicode="&#x324;" 
d="M141 -228q-47 0 -75 24t-28 66q0 40 28 63.5t75 23.5t75.5 -23.5t28.5 -63.5q0 -42 -28.5 -66t-75.5 -24zM444 -228q-47 0 -75.5 24t-28.5 66q0 40 28.5 63.5t75.5 23.5q46 0 74.5 -23.5t28.5 -63.5q0 -42 -28.5 -66t-74.5 -24z" />
    <glyph glyph-name="uni0325" unicode="&#x325;" 
d="M209 -311q-85 0 -133.5 36t-48.5 99q0 62 48.5 98t133.5 36t133.5 -36t48.5 -98q0 -63 -48.5 -99t-133.5 -36zM209 -233q37 0 56.5 15t19.5 42t-19.5 42t-56.5 15q-36 0 -56 -15t-20 -42t20 -42t56 -15z" />
    <glyph glyph-name="uni0326" unicode="&#x326;" 
d="M38 -297l88 145l8 -51q-46 0 -74 21.5t-28 57.5t27.5 57.5t74.5 21.5q46 0 73.5 -22t27.5 -59q0 -26 -13 -47.5t-43 -60.5l-50 -63h-91z" />
    <glyph glyph-name="uni0327" unicode="&#x327;" 
d="M161 14h95l-57 -85l-44 2q22 12 48 19.5t60 7.5q66 0 100 -25.5t34 -70.5q0 -46 -45 -77.5t-131 -31.5q-76 0 -128 29.5t-67 77.5h114q8 -11 26.5 -20.5t54.5 -9.5q33 0 49.5 10t16.5 26q0 15 -13 24.5t-44 9.5q-16 0 -30 -3t-24 -8h-96z" />
    <glyph glyph-name="uni0328" unicode="&#x328;" 
d="M201 19l65 -6v-13h23q-37 -10 -64 -22t-42 -24t-15 -25q0 -28 62 -28q16 0 31 1.5t28 4.5v-101q-13 -5 -43 -9.5t-62 -4.5q-68 0 -109.5 26.5t-41.5 69.5q0 44 41.5 76.5t126.5 54.5z" />
    <glyph glyph-name="uni0329" unicode="&#x329;" 
d="M68 -42h148v-205h-148v205z" />
    <glyph glyph-name="uni032D" unicode="&#x32d;" 
d="M170 -42h192l143 -185h-149l-133 137h85l-132 -137h-149z" />
    <glyph glyph-name="uni032E" unicode="&#x32e;" 
d="M27 -42h138q8 -36 33 -56.5t63 -20.5t63.5 20.5t33.5 56.5h138q-13 -89 -73.5 -140t-161.5 -51q-99 0 -159.5 51t-74.5 140z" />
    <glyph glyph-name="uni032F" unicode="&#x32f;" 
d="M496 -233h-138q-8 37 -33.5 57t-63.5 20t-63 -20t-33 -57h-138q13 90 73.5 140.5t160.5 50.5t160.5 -50.5t74.5 -140.5z" />
    <glyph glyph-name="uni0330" unicode="&#x330;" 
d="M23 -218q5 83 40 131t104 48q27 0 52 -8t47.5 -18t42.5 -18.5t37 -8.5q21 0 35 13.5t18 38.5h113q-4 -81 -39 -130t-105 -49q-26 0 -51.5 8t-48 18.5t-42 18.5t-36.5 8q-21 0 -35 -13.5t-19 -38.5h-113z" />
    <glyph glyph-name="uni0331" unicode="&#x331;" 
d="M31 -179v114h473v-114h-473z" />
    <glyph glyph-name="uni0332" unicode="&#x332;" 
d="M-4 -143h543v-125h-543v125z" />
    <glyph glyph-name="uni0335" unicode="&#x335;" 
d="M29 345h431v-112h-431v112z" />
    <glyph glyph-name="uni035C" unicode="&#x35c;" 
d="M446 -260q-120 0 -210.5 26.5t-149.5 73.5t-86 107h154q20 -22 58.5 -41.5t96.5 -31t137 -11.5q80 0 138 11.5t97 31t58 41.5h154q-26 -60 -85.5 -107t-150 -73.5t-211.5 -26.5z" />
    <glyph glyph-name="uni035D" unicode="&#x35d;" 
d="M446 621q-120 0 -210.5 26.5t-149.5 73.5t-86 107h154q20 -22 58.5 -41.5t96.5 -31t137 -11.5q80 0 138 11.5t97 31t58 41.5h154q-26 -60 -85.5 -107t-150 -73.5t-211.5 -26.5z" />
    <glyph glyph-name="uni0361" unicode="&#x361;" 
d="M446 834q121 0 211.5 -26.5t150 -73.5t85.5 -107h-154q-19 23 -58 42t-97 30.5t-138 11.5q-79 0 -137 -11.5t-96.5 -30.5t-58.5 -42h-154q27 60 86 107t149.5 73.5t210.5 26.5z" />
    <glyph glyph-name="Beta" unicode="&#x392;" horiz-adv-x="874" 
d="M568 368l16 37q88 -2 144.5 -27t84 -68.5t27.5 -99.5q0 -61 -28 -108.5t-83.5 -74.5t-138.5 -27h-540l58 385l-58 365h521q104 0 161.5 -48.5t57.5 -133.5q0 -47 -22 -90t-70 -72.5t-130 -37.5zM236 46l-72 89h381q49 0 76.5 23.5t27.5 66.5t-30.5 68.5t-90.5 25.5h-312
v132h288q41 0 68 23.5t27 64.5q0 33 -23.5 54.5t-66.5 21.5h-344l71 89l53 -319z" />
    <glyph glyph-name="Epsilon" unicode="&#x395;" horiz-adv-x="787" 
d="M704 445v-140h-543v140h543zM289 375l-50 -310l-79 90h576v-155h-686l58 375l-58 375h681v-155h-571l79 90z" />
    <glyph glyph-name="Theta" unicode="&#x398;" horiz-adv-x="961" 
d="M295 446h372v-142h-372v142zM480 -16q-132 0 -231.5 49t-154.5 137t-55 205t55 205t154.5 137t231.5 49t231.5 -49t155 -137t55.5 -205t-55.5 -205t-155 -137t-231.5 -49zM480 145q79 0 136 27.5t88.5 79.5t31.5 123t-31.5 123t-88.5 79.5t-136 27.5q-78 0 -135.5 -27.5
t-88.5 -79.5t-31 -123t31 -123t88.5 -79.5t135.5 -27.5z" />
    <glyph glyph-name="Lambda" unicode="&#x39b;" horiz-adv-x="922" 
d="M505 666l-300 -666h-203l353 750h213l352 -750h-200l-298 666h83z" />
    <glyph glyph-name="uni03A9" unicode="&#x3a9;" horiz-adv-x="989" 
d="M495 766q98 0 178.5 -27t138.5 -76t89.5 -116t31.5 -148q0 -87 -38.5 -154.5t-113.5 -113t-185 -67.5l81 77h267v-141h-396v128q62 13 105.5 46.5t66 81.5t22.5 107q0 68 -28 121t-83 83.5t-136 30.5t-136.5 -30.5t-83.5 -83.5t-28 -121q0 -59 22.5 -107t66 -81.5
t105.5 -46.5v-128h-396v141h267l81 -77q-109 22 -184.5 67.5t-114 113t-38.5 154.5q0 81 31.5 148t89.5 116t138.5 76t179.5 27z" />
    <glyph glyph-name="beta" unicode="&#x3b2;" horiz-adv-x="853" 
d="M59 -165v620q0 100 45 174t129 115.5t201 41.5q92 0 162.5 -24t110.5 -67.5t40 -103.5q0 -73 -60.5 -122t-165.5 -63l21 17q138 -5 210 -59.5t72 -149.5q0 -68 -40 -120t-112 -81t-169 -29q-126 0 -205.5 50t-105.5 157l51 134q0 -107 60.5 -157t166.5 -50q77 0 121.5 29
t44.5 79q0 31 -16 54.5t-50.5 37t-89.5 13.5h-90v125h50q61 0 94 25t33 66q0 47 -39.5 73.5t-106.5 26.5q-56 0 -95.5 -21t-61 -60.5t-21.5 -93.5v-637h-184z" />
    </font>
</defs>
</svg>
