<?xml version="1.0" standalone="no"?>
<!DOCTYPE svg PUBLIC "-//W3C//DTD SVG 1.1//EN" "http://www.w3.org/Graphics/SVG/1.1/DTD/svg11.dtd" >
<svg xmlns="http://www.w3.org/2000/svg" xmlns:xlink="http://www.w3.org/1999/xlink" version="1.1">
<metadata>
Created by FontForge 20190801 at Thu May 19 11:11:33 2022
 By www-data
Copyright 2020 The Gluten Project Authors (https://github.com/Etcetera-Type-Co/Gluten)
</metadata>
<defs>
<font id="GlutenRegular" horiz-adv-x="0" >
  <font-face 
    font-family="GlutenRegular"
    font-weight="400"
    font-stretch="normal"
    units-per-em="2000"
    panose-1="0 0 0 0 0 0 0 0 0 0"
    ascent="1600"
    descent="-400"
    x-height="874"
    cap-height="1186"
    bbox="-413 -469 3132 2064"
    underline-thickness="50"
    underline-position="-125"
    unicode-range="U+000D-FB02"
  />
<missing-glyph horiz-adv-x="610" 
d="M100 0v1042h348v-1042h-348zM202 80l-20 20l75 76l-75 76l20 20l75 -76l75 76l20 -20l-75 -76l75 -76l-20 -20l-75 76zM202 418l-20 20l75 76l-75 76l20 20l75 -76l75 76l20 -20l-75 -76l75 -76l-20 -20l-75 76zM126 26h296v990h-296v-990zM202 756l-20 20l75 76l-75 76
l20 20l75 -76l75 76l20 -20l-75 -76l75 -76l-20 -20l-75 76z" />
    <glyph glyph-name="fi" unicode="fi" horiz-adv-x="1497" 
d="M511 -61q-52 0 -78.5 21.5t-37.5 66.5q-4 22 -8.5 59t-10 82.5t-11.5 94.5t-12 96t-10.5 86.5t-8.5 65.5q-2 23 -13.5 32t-31.5 9q-14 0 -39.5 -4.5t-67.5 -14.5q-44 -9 -70 -15.5t-42 -6.5q-27 0 -44 18.5t-17 46.5q0 22 17 42.5t56 36.5q17 7 57.5 18.5t84.5 22.5
t71 18q12 3 17 13t5 30q0 30 -4.5 60.5t-9.5 64t-5 71.5q0 109 44 182.5t126.5 111t195.5 37.5q59 0 109.5 -11.5t82 -33t31.5 -50.5q0 -20 -10 -31.5t-29 -18.5q-19 -4 -48.5 -3.5t-68.5 -0.5q-110 -1 -155.5 -55t-45.5 -158q0 -16 1 -35.5t3.5 -38t4.5 -35.5q4 -26 13 -35
t25 -9q6 0 35.5 3t71 7.5t86 8.5t79.5 6q105 5 190 3.5t131 -5.5q51 -5 80.5 -28t41.5 -60.5t12 -85.5q0 -30 -2 -76t-6 -99.5t-9 -110t-11 -107.5t-13 -91.5t-14 -63.5q-20 -54 -52.5 -75.5t-80.5 -21.5q-47 0 -74 18.5t-38.5 59t-11.5 102.5q0 26 2 60t5 72.5t6 79.5
t5.5 82t4.5 77t2 65q0 22 -8 30.5t-28 8.5q-43 0 -105 -3t-124 -7.5t-105 -10.5q-47 -4 -61.5 -28.5t-14.5 -56.5q0 -23 2.5 -60.5t6.5 -83.5t8 -95t7 -96t4.5 -85.5t-1.5 -63.5q-7 -53 -28 -76t-59 -23zM1191 1028q-62 0 -99.5 16.5t-54 43.5t-16.5 56q0 35 21 59.5
t56.5 39.5t77 21.5t80.5 6.5q40 0 72.5 -12t52 -37.5t19.5 -66.5q0 -45 -28 -73t-75.5 -41t-105.5 -13z" />
    <glyph glyph-name="fl" unicode="fl" horiz-adv-x="1696" 
d="M503 -61q-46 0 -72 21.5t-36 66.5q-3 34 -7.5 72.5t-10 79.5t-11.5 81.5t-12 78.5t-11 70.5t-9 56.5q-2 23 -13.5 32t-31.5 9q-15 0 -45 -6.5t-65.5 -14.5t-65.5 -14t-43 -6q-27 0 -44 18.5t-17 46.5q0 22 17 42.5t56 36.5q17 7 58 18.5t85.5 22.5t71.5 18q24 6 24 36
q0 23 -2 46t-4.5 48.5t-2.5 60.5q0 106 42 185.5t115 132.5t168 79.5t201 26.5q105 0 194 -18.5t155 -62t103 -119t37 -189.5q0 -55 -2 -104t-4.5 -94.5t-5.5 -88t-4.5 -83.5t-1.5 -82q0 -133 13.5 -204.5t39.5 -98.5t63 -27t63 14.5t46.5 29t43.5 14.5t37 -17t14 -44
q0 -32 -20 -61.5t-54 -52t-77 -36t-89 -13.5q-98 0 -158 40t-91 125.5t-42 222.5q-5 41 -7 89t-1.5 102t1.5 112.5t2 121t1 128.5q0 145 -62 196.5t-183 51.5q-81 0 -152.5 -25.5t-115.5 -82.5t-44 -152q0 -31 1 -50t3 -47q1 -27 11.5 -36t26.5 -9q17 0 56 8t85 18.5t86 19
t57 8.5q28 0 41.5 -15t13.5 -41q0 -29 -16 -46.5t-68 -35.5q-24 -9 -48.5 -17.5t-57 -19t-81.5 -25.5q-45 -14 -60.5 -37t-15.5 -56q0 -22 2.5 -55t6.5 -73.5t8 -84.5t7 -87.5t4.5 -83.5t-1.5 -73q-7 -53 -31.5 -76t-63.5 -23z" />
    <glyph glyph-name="f_f" unicode="ff" horiz-adv-x="1707" 
d="M490 -54q-48 0 -71 21t-34 59q-4 22 -9 51.5t-9 63.5t-8.5 69.5t-8.5 70t-8 64t-8 52.5q-3 23 -14 31.5t-31 8.5q-15 0 -45 -6t-65.5 -14t-65.5 -14.5t-43 -6.5q-19 0 -32.5 8.5t-21 23.5t-7.5 33q0 28 26 48t67 35.5t85 27.5q75 20 102.5 33t27.5 38q0 31 -4.5 61
t-9.5 63t-5 72q0 108 44 181.5t126.5 111t195.5 37.5q44 0 84 -6.5t71.5 -18.5t49.5 -30t18 -40q0 -19 -10 -31t-29 -19q-19 -4 -48.5 -3.5t-68.5 -0.5q-73 0 -117 -24.5t-64 -71.5t-20 -116q0 -27 4 -51.5t11.5 -44t18 -30.5t25.5 -11q16 0 66 5.5t116 14.5t130 19.5
t107 19.5q23 5 31 20t8 32q0 40 -3 69.5t-5.5 57.5t-2.5 62q0 105 46.5 174.5t130.5 104.5t197 35q44 0 84.5 -6.5t71.5 -18t49.5 -28t18.5 -37.5q0 -18 -10 -29t-29 -18q-19 -3 -48.5 -2.5t-69.5 -0.5q-55 0 -92.5 -12.5t-59.5 -38t-32 -63.5t-10 -89q0 -27 2 -54t7 -50
t14.5 -37t23.5 -14q29 0 71 4t86 8.5t81 7.5t54 2q20 -3 33 -16t13 -40q0 -31 -18.5 -49t-74.5 -31q-34 -8 -79.5 -18t-101.5 -23q-46 -12 -61 -28t-15 -47q0 -22 1.5 -59.5t4 -83.5t5 -96t4 -97t2 -85.5t-1.5 -63.5q-8 -51 -34.5 -73t-64.5 -22q-77 0 -112.5 40.5
t-36.5 120.5q-1 18 -3 47.5t-4.5 66.5t-5.5 76.5t-6.5 77t-5.5 68.5t-4 49q-2 26 -14.5 33.5t-36.5 4.5q-27 -2 -61 -7t-72.5 -11t-77.5 -13t-76.5 -14t-70.5 -15q-45 -12 -60.5 -30.5t-15.5 -50.5q0 -28 1.5 -67.5t4.5 -83.5t5 -88.5t2 -83t-3 -64.5q-8 -44 -30 -65.5
t-61 -21.5z" />
    <glyph glyph-name="f_f_i" unicode="ffi" horiz-adv-x="2303" 
d="M490 -54q-48 0 -71 21t-34 59q-4 22 -9 51.5t-9 63.5t-8.5 69.5t-8.5 70t-8 64t-8 52.5q-3 23 -14 31.5t-31 8.5q-15 0 -45 -6t-65.5 -14t-65.5 -14.5t-43 -6.5q-19 0 -32.5 8.5t-21 23.5t-7.5 33q0 28 26 48t67 35.5t85 27.5q75 20 102.5 33t27.5 38q0 31 -4.5 61
t-9.5 63t-5 72q0 108 44 181.5t126.5 111t195.5 37.5q44 0 84 -6.5t71.5 -18.5t49.5 -30t18 -40q0 -19 -10 -31t-29 -19q-19 -4 -48.5 -3.5t-68.5 -0.5q-73 0 -117 -24.5t-64 -71.5t-20 -116q0 -27 4 -51.5t11.5 -44t18 -30.5t25.5 -11q16 0 66 5.5t116 14.5t130 19.5
t107 19.5q23 5 31 20t8 32q0 40 -3 69.5t-5.5 57.5t-2.5 62q0 105 46.5 174.5t130.5 104.5t197 35q44 0 84.5 -6.5t71.5 -18t49.5 -28t18.5 -37.5q0 -18 -10 -29t-29 -18q-19 -3 -48.5 -2.5t-69.5 -0.5q-55 0 -92.5 -12.5t-59.5 -38t-32 -63.5t-10 -89q0 -27 2 -54t7 -50
t14.5 -37t23.5 -14q29 0 71 4t86 8.5t81 7.5t54 2q20 -3 33 -16t13 -40q0 -31 -18.5 -49t-74.5 -31q-34 -8 -79.5 -18t-101.5 -23q-46 -12 -61 -28t-15 -47q0 -22 1.5 -59.5t4 -83.5t5 -96t4 -97t2 -85.5t-1.5 -63.5q-8 -51 -34.5 -73t-64.5 -22q-77 0 -112.5 40.5
t-36.5 120.5q-1 18 -3 47.5t-4.5 66.5t-5.5 76.5t-6.5 77t-5.5 68.5t-4 49q-2 26 -14.5 33.5t-36.5 4.5q-27 -2 -61 -7t-72.5 -11t-77.5 -13t-76.5 -14t-70.5 -15q-45 -12 -60.5 -30.5t-15.5 -50.5q0 -28 1.5 -67.5t4.5 -83.5t5 -88.5t2 -83t-3 -64.5q-8 -44 -30 -65.5
t-61 -21.5zM1922 -27q-47 0 -74.5 18.5t-38.5 59t-11 102.5q0 34 1.5 82t4.5 104.5t7 114.5t9 111.5t10 96.5t10 69q20 63 59.5 94t99.5 31q57 0 83 -43t26 -124q0 -30 -2 -81t-6 -113t-8.5 -127t-11 -124.5t-12.5 -105t-14 -68.5q-20 -54 -52.5 -75.5t-79.5 -21.5z
M1990 1011q-94 0 -129 32t-35 72q0 51 37 85.5t91 52.5t108 18q39 0 72 -13t52.5 -40t19.5 -71q0 -48 -30 -78t-79 -44t-107 -14z" />
    <glyph glyph-name="f_f_l" unicode="ffl" horiz-adv-x="2186" 
d="M490 -54q-48 0 -71 21t-34 59q-4 22 -9 51.5t-9 63.5t-8.5 69.5t-8.5 70t-8 64t-8 52.5q-3 23 -14 31.5t-31 8.5q-15 0 -45 -6t-65.5 -14t-65.5 -14.5t-43 -6.5q-19 0 -32.5 8.5t-21 23.5t-7.5 33q0 28 26 48t67 35.5t85 27.5q75 20 102.5 33t27.5 38q0 31 -4.5 61
t-9.5 63t-5 72q0 108 44 181.5t126.5 111t195.5 37.5q44 0 84 -6.5t71.5 -18.5t49.5 -30t18 -40q0 -19 -10 -31t-29 -19q-19 -4 -48.5 -3.5t-68.5 -0.5q-73 0 -117 -24.5t-64 -71.5t-20 -116q0 -27 4 -51.5t11.5 -44t18 -30.5t25.5 -11q16 0 66 5.5t116 14.5t130 19.5
t107 19.5q23 5 31 20t8 32q0 40 -3 69.5t-5.5 57.5t-2.5 62q0 105 46.5 174.5t130.5 104.5t197 35q44 0 84.5 -6.5t71.5 -18t49.5 -28t18.5 -37.5q0 -18 -10 -29t-29 -18q-19 -3 -48.5 -2.5t-69.5 -0.5q-55 0 -92.5 -12.5t-59.5 -38t-32 -63.5t-10 -89q0 -27 2 -54t7 -50
t14.5 -37t23.5 -14q29 0 71 4t86 8.5t81 7.5t54 2q20 -3 33 -16t13 -40q0 -31 -18.5 -49t-74.5 -31q-34 -8 -79.5 -18t-101.5 -23q-46 -12 -61 -28t-15 -47q0 -22 1.5 -59.5t4 -83.5t5 -96t4 -97t2 -85.5t-1.5 -63.5q-8 -51 -34.5 -73t-64.5 -22q-77 0 -112.5 40.5
t-36.5 120.5q-1 18 -3 47.5t-4.5 66.5t-5.5 76.5t-6.5 77t-5.5 68.5t-4 49q-2 26 -14.5 33.5t-36.5 4.5q-27 -2 -61 -7t-72.5 -11t-77.5 -13t-76.5 -14t-70.5 -15q-45 -12 -60.5 -30.5t-15.5 -50.5q0 -28 1.5 -67.5t4.5 -83.5t5 -88.5t2 -83t-3 -64.5q-8 -44 -30 -65.5
t-61 -21.5zM1878 -60q-66 0 -91.5 43.5t-25.5 123.5q0 29 2 85.5t6 132.5t9 163.5t11.5 178t13 176t14 158t14.5 121.5q16 83 41.5 114.5t66.5 31.5q26 0 44.5 -26t30.5 -66.5t20 -83.5q5 -44 8 -112t4.5 -149.5t2 -166.5t-0.5 -163.5t-3 -142t-3 -99.5q-2 -71 -11 -129.5
t-27 -101t-49 -65.5t-77 -23z" />
    <glyph glyph-name=".notdef" horiz-adv-x="610" 
d="M100 0v1042h348v-1042h-348zM202 80l-20 20l75 76l-75 76l20 20l75 -76l75 76l20 -20l-75 -76l75 -76l-20 -20l-75 76zM202 418l-20 20l75 76l-75 76l20 20l75 -76l75 76l20 -20l-75 -76l75 -76l-20 -20l-75 76zM126 26h296v990h-296v-990zM202 756l-20 20l75 76l-75 76
l20 20l75 -76l75 76l20 -20l-75 -76l75 -76l-20 -20l-75 76z" />
    <glyph glyph-name=".null" 
 />
    <glyph glyph-name="nonmarkingreturn" horiz-adv-x="666" 
 />
    <glyph glyph-name="CR" unicode="&#xd;" horiz-adv-x="1200" 
 />
    <glyph glyph-name="space" unicode=" " horiz-adv-x="613" 
 />
    <glyph glyph-name="exclam" unicode="!" horiz-adv-x="423" 
d="M184 267q-22 0 -38.5 8t-29 28t-20.5 55t-13.5 88t-8.5 127t-4 173t-1 226q0 53 0.5 95.5t3 75.5t7.5 58t13 42t20.5 28t29.5 15.5t40 4.5q22 0 38.5 -6t27.5 -19.5t18.5 -34.5t11.5 -50.5t6 -68t2.5 -87t0.5 -108.5q0 -115 -2.5 -206t-7 -159.5t-11.5 -117.5
t-15.5 -81.5t-19 -51.5t-23 -26.5t-25.5 -7.5zM171 -54q-29 0 -60 6.5t-52 25.5t-21 56q0 36 19.5 61.5t51 39.5t64.5 14q27 0 55.5 -9.5t48 -28.5t19.5 -51q0 -40 -18.5 -65.5t-47 -37t-59.5 -11.5z" />
    <glyph glyph-name="quotedbl" unicode="&#x22;" horiz-adv-x="506" 
d="M389 821q-16 0 -30 11t-24.5 33.5t-17 55.5t-10.5 77t-4 99q0 33 3 61.5t10 51t17 38.5t25.5 24.5t36.5 8.5q16 0 29 -6t23 -18.5t16.5 -31t9.5 -44t3 -57.5q0 -61 -3 -110t-10 -85.5t-17.5 -60t-24.5 -35.5t-32 -12zM121 794q-19 0 -34 16t-25.5 44.5t-17.5 67t-10.5 84
t-3.5 95.5q0 37 4 65t11.5 48t19 33t26 19t31.5 6q16 0 28 -10t21 -27t14.5 -39.5t8.5 -48.5t3 -52q0 -60 -2 -108t-7.5 -84.5t-14 -60.5t-21 -36t-31.5 -12z" />
    <glyph glyph-name="numbersign" unicode="#" horiz-adv-x="1680" 
d="M1124 -51q-41 0 -60 16.5t-22 48.5q0 26 0.5 55t1 56t1 49.5t0.5 35.5q0 37 -14.5 47.5t-65.5 10.5q-70 0 -120 -1l-100 -2t-120 -1q-23 0 -37 -12t-21 -37q-3 -13 -6.5 -35.5t-6.5 -48t-5 -49t-3 -38.5q-2 -42 -24.5 -66.5t-75.5 -24.5q-38 0 -56 17.5t-19 60.5
q0 21 1.5 52t3 62.5t-0.5 52.5q-6 60 -43 65q-14 2 -43.5 3.5t-64.5 2t-65.5 1t-46.5 0.5q-47 0 -74 15.5t-27 55.5q0 31 21 46t66 19q37 2 91 4.5t95 4.5q35 3 56 11.5t24 34.5q4 26 6.5 54.5t5 60.5t4 66t1.5 72q0 31 -22 45t-66 15q-34 2 -80 4.5t-84 4.5
q-41 2 -61.5 20.5t-20.5 45.5q0 30 28 49t87 22q56 1 106.5 4.5t87.5 6.5q38 7 54.5 37.5t23.5 99.5q5 28 11 55.5t13 50.5q14 38 36.5 60t63.5 22q36 0 57 -17.5t21 -52.5q0 -23 -1 -48.5t-2.5 -49t-2.5 -42.5t-1 -29q2 -40 17.5 -60.5t57.5 -20.5q68 0 142.5 1t135 3
t84.5 4q31 3 48 25t19 71q2 34 5 61t11 49q15 38 39 56.5t55 18.5q40 0 60.5 -37.5t20.5 -81.5q0 -13 -0.5 -30.5t-1 -36t-0.5 -36v-31.5q4 -45 41 -46q44 -1 90.5 -3t96.5 -2q51 0 77.5 -16t26.5 -49t-37.5 -50.5t-102.5 -17.5q-41 0 -82.5 -1.5t-79.5 -1.5q-13 0 -21.5 -9
t-14 -34t-9.5 -76q-1 -20 -3 -43.5l-4 -47t-3.5 -43.5t-1.5 -33q0 -35 11.5 -53.5t48.5 -19.5q46 -1 83.5 -3.5t65.5 -6.5q42 -8 62.5 -24.5t20.5 -39.5q0 -37 -21.5 -55.5t-57.5 -23.5q-47 -6 -97.5 -8t-107.5 -3q-41 -1 -50 -45q-3 -22 -7 -47t-7 -51.5t-6.5 -51
t-6.5 -44.5q-5 -24 -15 -40.5t-30.5 -25t-56.5 -8.5zM842 413q35 0 57 0.5t43 1.5t52 1q46 2 65 21.5t24 57.5q3 22 6 55t5 68t3.5 65.5t1.5 48.5q0 38 -16.5 48t-61.5 10q-65 0 -115 -1t-99.5 -2t-115.5 -2q-44 -1 -63.5 -15.5t-22.5 -40.5q-1 -17 -4.5 -49.5t-7 -71
t-5.5 -74t-2 -58.5q0 -38 17 -50.5t51 -12.5h96h92z" />
    <glyph glyph-name="dollar" unicode="$" horiz-adv-x="1056" 
d="M480 966q-31 0 -49.5 10t-26.5 30t-8 49q0 52 5.5 90t15.5 62.5t26 36.5t38 12q17 0 30.5 -10.5t23 -32.5t14.5 -55.5t5 -79.5q0 -39 -6 -64t-22 -36.5t-46 -11.5zM478 -53q-20 0 -35 8.5t-25 27.5t-15 49.5t-5 74.5q0 38 4 65.5t14 45.5t27 27t41 9q19 0 33 -7.5
t24 -21.5t15.5 -35t5.5 -50q0 -55 -5.5 -92t-16 -59.5t-26.5 -32t-36 -9.5zM488 134q-65 0 -135.5 5.5t-133.5 15.5t-106 25q-38 13 -62 30.5t-24 47.5q0 35 23.5 53.5t68.5 18.5q33 0 82 -10.5t111.5 -20.5t133.5 -10q70 0 133.5 10.5t104 36t40.5 70.5q0 41 -25.5 66.5
t-88 44.5t-174.5 38q-122 21 -206 55t-128 84.5t-44 120.5q0 60 39 104.5t107.5 73.5t156.5 43.5t185 14.5q57 0 118.5 -6t114.5 -17.5t85.5 -29t32.5 -41.5q0 -25 -14 -40.5t-37 -23t-51 -7.5q-45 0 -104 9t-129 9q-62 0 -115 -11t-85.5 -34.5t-32.5 -61.5q0 -37 31 -62.5
t91.5 -43.5t150.5 -34q124 -21 206 -54t122.5 -83.5t40.5 -124.5q0 -70 -39 -120t-107 -81t-155 -45.5t-182 -14.5z" />
    <glyph glyph-name="percent" unicode="%" horiz-adv-x="1488" 
d="M318 674q-83 0 -147.5 28t-101.5 79.5t-37 121.5q0 90 47.5 158.5t127.5 107.5t177 39q84 0 151.5 -27t107.5 -78t40 -126q0 -66 -30 -121t-81.5 -96t-117 -63.5t-136.5 -22.5zM332 791q51 0 101 24t83 63t33 84t-21 77.5t-62 50.5t-104 18q-58 0 -103 -26t-70.5 -67.5
t-25.5 -86.5q0 -55 24.5 -85t63 -41t81.5 -11zM1086 96q55 0 98.5 22t68.5 62t25 92q0 41 -20 75.5t-60 54.5t-100 20q-49 0 -98 -22t-81.5 -64t-32.5 -102q0 -49 30.5 -79t76 -44.5t93.5 -14.5zM1085 -20q-82 0 -159 23t-127.5 77.5t-50.5 149.5q0 104 56.5 173t144 103
t181.5 34q81 0 145.5 -32.5t101.5 -91t37 -137.5q0 -88 -43.5 -155.5t-118.5 -105.5t-167 -38zM247 46q-30 0 -47.5 17t-17.5 45q0 21 29.5 59.5t78.5 91t108 113.5q27 24 71.5 70t101 106t119 126.5t124.5 132.5t118 126t99.5 106t68.5 71q44 46 76 70t63 24q25 0 42.5 -11
t17.5 -40q0 -30 -27 -64.5t-69 -77.5q-45 -43 -109.5 -112t-141.5 -153t-159.5 -174.5t-162.5 -177t-150 -160.5q-39 -40 -84 -84t-85 -74t-64 -30z" />
    <glyph glyph-name="ampersand" unicode="&#x26;" horiz-adv-x="1401" 
d="M533 -109q-138 0 -247 41.5t-172 126t-63 211.5q0 80 27.5 143.5t72.5 113.5t100.5 86.5t112.5 61.5q54 24 84.5 38t42 22t11.5 14q0 7 -6 13.5t-18 16.5q-41 34 -75 77.5t-54.5 94t-20.5 101.5q0 89 49.5 142.5t129.5 78t172 24.5t170.5 -30t127 -87t48.5 -139
q0 -75 -33 -130t-86 -94.5t-113 -67.5q-19 -9 -27 -17t-8 -15q0 -10 32.5 -48.5t87.5 -99.5q31 -34 60.5 -65.5t52 -51t33.5 -19.5t23.5 26.5t24.5 57.5q23 54 46.5 79.5t51.5 25.5q25 0 42.5 -16t17.5 -45q0 -16 -7.5 -44t-20.5 -60t-31 -61q-14 -24 -20 -40t-6 -29
q0 -17 17 -38t60 -64q34 -27 66.5 -60.5t53.5 -66t21 -56.5q0 -42 -25.5 -59t-61.5 -17t-71.5 30t-65.5 68q-26 33 -48.5 57t-34.5 24q-11 0 -22.5 -8.5t-30.5 -35.5q-25 -38 -65.5 -76t-98 -68t-133.5 -48t-173 -18zM558 62q83 0 149.5 25t113 62t71 75t24.5 62
q0 11 -15.5 34t-44.5 58t-72 81q-35 40 -69 76t-60 59t-39 23q-18 0 -59 -14.5t-91 -41.5t-95.5 -67t-75.5 -90.5t-30 -112.5q0 -72 38.5 -123.5t105 -78.5t149.5 -27zM651 812q29 0 65 17.5t69.5 48t55 70t21.5 83.5q0 69 -47.5 109t-144.5 40q-44 0 -84.5 -14.5t-66 -44
t-25.5 -78.5q0 -42 18.5 -83t45.5 -74.5t53 -53.5t40 -20z" />
    <glyph glyph-name="quotesingle" unicode="'" horiz-adv-x="332" 
d="M160 850q-21 0 -37.5 21t-27.5 56t-16.5 77.5t-5.5 85.5q0 53 3.5 89.5t13 58t28 31t47.5 9.5q24 0 41 -10t27 -29.5t15 -48t5 -65.5q0 -78 -6 -131t-18 -84.5t-29.5 -45.5t-39.5 -14z" />
    <glyph glyph-name="parenleft" unicode="(" horiz-adv-x="616" 
d="M492 -401q-53 0 -99.5 30t-84.5 80q-62 67 -110.5 156t-82 190.5t-51.5 205t-18 201.5q0 128 24.5 249.5t71.5 228t113 186.5q38 46 86.5 85t94 63t75.5 24q34 0 58 -15.5t24 -56.5q0 -24 -19 -50.5t-55 -68t-88 -112.5q-59 -80 -93.5 -169.5t-48.5 -182t-14 -182.5
q0 -115 30.5 -233.5t84.5 -227t123 -195.5q24 -30 38.5 -60.5t14.5 -59.5q0 -34 -17 -60t-57 -26z" />
    <glyph glyph-name="parenright" unicode=")" horiz-adv-x="588" 
d="M106 -393q-24 0 -45.5 10t-35.5 29t-14 46q0 41 19 77t62 80q41 32 80.5 79.5t73 108.5t59.5 132t40 150t14 164q0 145 -32.5 269t-101.5 221q-45 61 -89.5 104t-74 74.5t-29.5 53.5q0 31 12.5 51t34 29.5t47.5 9.5q36 0 83.5 -27t95 -68.5t82.5 -85.5
q56 -72 96.5 -159.5t62.5 -196.5t22 -248q0 -112 -23.5 -228.5t-66.5 -226t-100 -200.5t-125 -150q-32 -42 -71 -70t-76 -28z" />
    <glyph glyph-name="asterisk" unicode="*" horiz-adv-x="970" 
d="M477 510q-33 0 -50 22.5t-17 66.5v36t0.5 51.5t0.5 50.5t-1 34q-1 35 -7 46.5t-19 11.5q-11 0 -37 -15.5t-61.5 -40t-75.5 -52t-80 -50.5q-27 -14 -50 -14q-24 0 -38 16t-14 36q0 14 7 27.5t24 25.5q35 22 82 47t91.5 48t74 41t29.5 25t-22.5 17t-59 23.5t-77.5 26.5
t-79 26q-24 6 -42 24.5t-18 41.5q0 19 9 34t24 24t33 9q14 0 32 -5t36 -16q38 -19 86 -42.5t87.5 -41t49.5 -17.5q9 0 12.5 16.5t4.5 42.5v32.5v35t-0.5 34t-0.5 30.5q0 44 17 66t59 22q31 0 41 -21.5t10 -65.5q0 -15 -0.5 -36t-0.5 -43.5v-43.5q2 -27 9.5 -46t25.5 -19
q11 0 37 12.5t60 30.5t69.5 36.5t65.5 30.5q27 12 49 12q17 0 31 -9.5t22 -24.5t8 -30t-10.5 -28t-29.5 -23q-26 -13 -69 -29t-86.5 -31.5t-73.5 -29t-30 -22.5q0 -6 23.5 -20.5t59.5 -32.5t73.5 -36.5t67.5 -35t41 -27.5q17 -14 25 -30t8 -38q0 -21 -17.5 -36t-42.5 -15
q-15 0 -30 7.5t-28 17.5q-23 19 -58 47.5t-71.5 57t-67 47.5t-45.5 19q-12 0 -15.5 -16.5t-3.5 -47.5q0 -17 1 -39.5t2.5 -46.5t3 -47.5t1.5 -43.5q0 -47 -13.5 -73.5t-51.5 -26.5z" />
    <glyph glyph-name="plus" unicode="+" horiz-adv-x="1105" 
d="M547 167q-38 0 -53.5 44t-25.5 113q-1 17 -2 31.5t-2 28.5t-2 26t-2 22q-5 40 -15.5 60.5t-28.5 28t-48 7.5h-43h-63t-66.5 1t-53.5 3q-52 6 -84.5 23.5t-32.5 54.5q0 25 20.5 41.5t59.5 25.5t93 10q41 2 83.5 4.5t77 6t51.5 6.5q20 5 30 21.5t13 63.5q1 15 2 30.5
t2 33.5t2 38t3 42q10 84 30.5 114.5t67.5 30.5q31 0 51 -37t27 -76q3 -25 4.5 -46.5t3 -41.5t2 -38t1.5 -34q1 -54 12.5 -77.5t35.5 -23.5q18 -2 54 -3.5t78 -3.5t81 -5t62 -6q50 -9 76 -26t26 -44q0 -32 -32.5 -47.5t-87.5 -21.5q-40 -5 -88 -7.5t-91 -3.5t-71 -2
q-27 0 -42.5 -21.5t-17.5 -76.5q0 -13 -1 -27.5t-2.5 -30t-3 -30.5t-2.5 -30q-7 -65 -27.5 -108t-60.5 -43z" />
    <glyph glyph-name="comma" unicode="," horiz-adv-x="501" 
d="M175 -253q-27 9 -27 27t12 39q20 26 35.5 60.5t21.5 63.5q7 18 8.5 32.5t-4.5 19.5q-7 3 -19 1.5t-31 -1.5q-33 0 -60 17.5t-35 48.5q-12 23 -12.5 46t10 45t35.5 43q30 29 67.5 35t74 -7.5t61.5 -42.5q49 -48 56.5 -113t-17.5 -146q-9 -28 -24 -55t-34 -49t-39 -35
q-18 -18 -39.5 -26t-39.5 -3z" />
    <glyph glyph-name="hyphen" unicode="-" horiz-adv-x="1145" 
d="M488 513q-124 0 -213.5 4t-147.5 14t-86 29t-28 49q0 37 25.5 60t86.5 35t163.5 15.5t255.5 3.5q162 0 272 -2.5t176.5 -13t96 -33t29.5 -62.5q0 -35 -32 -55t-104.5 -29t-194 -12t-299.5 -3z" />
    <glyph glyph-name="period" unicode="." horiz-adv-x="472" 
d="M227 -27q-58 0 -97 20t-60 51.5t-21 66.5q0 48 32 80t79 49t92 17q42 0 74 -15.5t51 -45t19 -70.5q0 -44 -22.5 -79t-60.5 -54.5t-86 -19.5z" />
    <glyph glyph-name="slash" unicode="/" horiz-adv-x="1173" 
d="M89 46q-31 0 -48 17t-17 45q0 21 29 59.5t78.5 91t108.5 113.5q27 24 71.5 70t101 106t119 126.5t124.5 132.5t118 126t99.5 106t68.5 71q43 46 75 70t64 24q25 0 42 -11t17 -40q0 -30 -26.5 -64.5t-69.5 -77.5q-44 -43 -108.5 -112t-141.5 -153t-159.5 -174.5
t-162.5 -177t-151 -160.5q-38 -40 -83.5 -84t-85 -74t-63.5 -30z" />
    <glyph glyph-name="zero" unicode="0" horiz-adv-x="1012" 
d="M441 -46q-80 0 -143.5 31.5t-112 89t-81.5 135t-49 169t-16 192.5q0 145 31 268.5t92.5 216.5t151 145t207.5 52q101 0 178.5 -42t130 -118.5t79 -181.5t26.5 -232q0 -108 -18 -213.5t-55.5 -198t-96 -163t-139 -110.5t-185.5 -40zM453 195q57 0 102 27t79.5 73t58 106
t35 126.5t11.5 132.5q0 69 -11.5 135.5t-37.5 120t-66.5 85t-98.5 31.5q-71 0 -124 -36.5t-88 -98.5t-53 -140.5t-18 -162.5q0 -57 9.5 -114.5t27.5 -108.5t44 -90.5t58.5 -62.5t71.5 -23z" />
    <glyph glyph-name="one" unicode="1" horiz-adv-x="621" 
d="M338 -67q-58 0 -90 35.5t-32 99.5q0 40 3 100t8 132t11 149.5t12 154t11 145t8 121.5t3 85q0 35 -6 49t-29 18q-21 3 -49.5 -5.5t-54.5 -17t-42 -6.5q-20 9 -28.5 21.5t-8.5 30.5q0 30 33.5 64t85 64t104.5 49.5t90 19.5q49 0 78.5 -28t44.5 -75t20.5 -105t5.5 -118
q0 -39 -2 -91.5t-5 -113t-7.5 -125.5t-9.5 -132t-10 -131t-9.5 -122.5t-9.5 -107.5q-13 -81 -42 -120.5t-83 -39.5z" />
    <glyph glyph-name="two" unicode="2" horiz-adv-x="1034" 
d="M295 -41q-63 6 -112.5 20t-78 43t-28.5 81q0 47 16.5 88t69.5 83q40 38 105 93t140.5 119.5t143.5 128.5q48 44 84 89t57 89t21 82q0 95 -50.5 132t-139.5 37q-81 0 -139 -25.5t-96 -60.5q-26 -25 -49 -54t-44 -49.5t-44 -20.5q-29 0 -52 19t-23 55q0 53 32 110t92 106
t144 79.5t187 30.5q88 0 163 -17.5t130.5 -55.5t86 -99.5t30.5 -150.5q0 -63 -22 -120t-62 -110t-94 -108q-35 -35 -79 -76.5t-90 -83.5t-88 -78t-72 -61q-27 -22 -40 -41t-13 -39q0 -14 18.5 -20t45.5 -8t54 -2q45 0 111 8.5l132 17t108 8.5q41 0 66.5 -18t25.5 -52
q0 -45 -24.5 -75t-73 -49t-120.5 -29t-168 -16q-59 -2 -128.5 -3.5t-132.5 3.5z" />
    <glyph glyph-name="three" unicode="3" horiz-adv-x="1082" 
d="M479 -86q-88 0 -168 14.5t-144 39.5t-101 57.5t-37 67.5q0 27 9 45t23 27.5t29.5 14t28.5 4.5q33 0 87 -21t125 -42t156 -21q67 0 123 12t98 35.5t65 57t23 75.5q0 60 -28.5 97t-78 58t-112.5 34q-57 12 -99 30t-64.5 45t-22.5 62q0 52 38 77.5t104 44.5q60 16 105 39.5
t70.5 59t25.5 86.5q0 59 -34 90t-94 43t-137 12q-78 0 -143.5 -11.5t-113 -23.5t-73.5 -12q-43 0 -67.5 23t-24.5 56q0 35 39.5 63.5t104 47.5t143.5 29.5t159 10.5q159 0 262.5 -36.5t154.5 -103t51 -155.5q0 -62 -26 -112.5t-71.5 -86.5t-106.5 -58q-42 -19 -62 -34
t-20 -38q0 -26 31 -40.5t72 -27.5q61 -16 119 -47.5t95.5 -88t37.5 -148.5q0 -82 -34.5 -147t-103.5 -110.5t-172 -69.5t-241 -24z" />
    <glyph glyph-name="four" unicode="4" horiz-adv-x="1036" 
d="M663 -49q-39 0 -65.5 20.5t-26.5 72.5q0 16 0.5 40t1 50t0.5 51v46q-3 46 -22 66t-90 21q-75 2 -147.5 6t-125.5 16q-47 11 -75 42.5t-40 79t-12 105.5q0 44 9.5 102t23.5 119.5t30 118t30 97.5q17 55 35.5 94.5t42 60.5t57.5 21q20 0 34 -7.5t21.5 -22.5t7.5 -39
q0 -28 -9 -71t-21.5 -94.5t-25 -106.5t-21.5 -108t-9 -100q0 -41 6 -66t20.5 -38t39.5 -21q31 -9 81 -11.5t96 -2.5q52 0 70 15.5t18 56.5q0 16 1.5 52.5t3.5 86.5t4.5 105.5t5 109t4.5 96.5t3 67q5 56 25 98.5t60 42.5q27 0 45 -12.5t28.5 -44.5t14.5 -92q2 -23 3 -59
t1 -80v-94.5t-0.5 -103l-1 -105t-0.5 -100.5q0 -24 11.5 -33.5t34.5 -9.5q29 0 58.5 3t54.5 0q27 -5 43.5 -17.5t16.5 -45.5q0 -46 -23.5 -62.5t-61.5 -21.5q-23 -3 -52.5 -7.5t-52.5 -9.5q-27 -6 -36.5 -26t-13.5 -67q-2 -29 -4.5 -65t-5 -70.5t-6.5 -56.5
q-9 -46 -31.5 -68.5t-62.5 -22.5z" />
    <glyph glyph-name="five" unicode="5" horiz-adv-x="990" 
d="M259 -13q-47 0 -85 3.5t-66 10.5q-38 12 -59 32.5t-21 55.5q0 46 32 68.5t92 22.5q25 0 65.5 -1t81.5 -1q80 0 151.5 12t127 39t87 71.5t31.5 109.5q0 89 -56.5 126t-158.5 37q-76 0 -132.5 -13t-127.5 -13q-96 0 -139.5 45.5t-43.5 133.5q0 53 9.5 110t24.5 112t32 97
q24 61 59 96t89.5 50t134.5 15q59 0 102.5 -1t93 -2t123.5 -1q48 0 87.5 -6t63.5 -24.5t24 -54.5q0 -34 -25.5 -51.5t-68 -23t-91.5 -5.5q-59 0 -131 3t-138 3q-62 0 -95 -16.5t-48 -63.5q-7 -25 -15 -57.5t-14.5 -67t-6.5 -66.5q0 -31 8 -45t24.5 -18t42.5 -4t65 5.5
t83.5 10.5t85.5 5q116 0 198.5 -34.5t127 -105t44.5 -178.5q0 -117 -51.5 -197.5t-142.5 -130t-212.5 -71.5t-261.5 -22z" />
    <glyph glyph-name="six" unicode="6" horiz-adv-x="1066" 
d="M532 -28q-123 0 -211.5 34t-145.5 103t-84.5 173.5t-27.5 245.5q0 119 26 231t67 204.5t86 152.5q36 48 76.5 73.5t83.5 25.5q40 0 61.5 -18.5t21.5 -58.5q0 -29 -15 -56t-35 -56q-22 -31 -45.5 -76t-43 -94.5t-31.5 -94.5t-12 -77q0 -10 3 -16t9 -6q9 0 33 17.5t68 39.5
q51 25 110 37t118 12q105 0 186.5 -45t127.5 -124.5t46 -181.5q0 -99 -34 -181t-96.5 -141t-149 -91t-192.5 -32zM523 131q87 0 147.5 36.5t92 96t31.5 128.5q0 74 -33.5 122t-88.5 71.5t-119 23.5q-62 0 -121.5 -21.5t-99 -68.5t-39.5 -122q0 -58 14.5 -107t44 -84.5
t72 -55t99.5 -19.5z" />
    <glyph glyph-name="seven" unicode="7" horiz-adv-x="941" 
d="M317 -36q-27 0 -51.5 9.5t-40 31t-15.5 59.5q0 101 16.5 188.5t44.5 162t64 137.5t75 114q49 68 97 122t87 97t62 78t23 65q0 42 -38.5 55.5t-107.5 13.5q-83 0 -167.5 -7.5t-151.5 -15t-101 -7.5q-39 0 -60.5 10.5t-21.5 50.5q0 35 40 62.5t107 45.5q49 10 116 17
t137 11t129 4q79 0 144 -8t111.5 -29.5t71.5 -61.5t25 -103q0 -52 -29.5 -107.5t-77 -116t-101.5 -126.5t-103 -139q-63 -91 -111 -213t-57 -279q-6 -40 -19 -67t-36.5 -40.5t-60.5 -13.5z" />
    <glyph glyph-name="eight" unicode="8" horiz-adv-x="1197" 
d="M593 -25q-115 0 -213.5 19t-172 60.5t-114.5 108.5t-41 163q0 62 24 119.5t62.5 100t80.5 58.5q31 12 44 21t13 17t-12.5 16.5t-30.5 16.5q-63 32 -98 88.5t-35 118.5q0 86 43.5 150.5t117 107t166.5 64t191 21.5q94 0 183 -22.5t160 -66.5t113 -107.5t42 -146.5
q0 -51 -22.5 -97t-57.5 -81t-75 -54q-12 -6 -19.5 -12t-7.5 -14q0 -7 5 -13t24 -15q57 -24 94 -64t55 -93.5t18 -119.5q0 -95 -43.5 -160.5t-118.5 -106t-172 -59t-203 -18.5zM601 137q88 0 156.5 23.5t107 68.5t38.5 110q0 84 -36.5 134t-101.5 72t-148 22
q-99 0 -174.5 -22.5t-118 -72.5t-42.5 -133q0 -69 43 -113.5t115.5 -66.5t160.5 -22zM598 696q61 0 115.5 15t95.5 40.5t64.5 60.5t23.5 74q0 44 -21.5 80t-60.5 62.5t-92 41t-116 14.5q-89 0 -157 -27t-106 -73.5t-38 -105.5q0 -36 23 -68.5t64.5 -58t94 -40.5t110.5 -15z
" />
    <glyph glyph-name="nine" unicode="9" horiz-adv-x="1058" 
d="M344 -34q-38 0 -60.5 10t-32 27.5t-9.5 41.5q0 35 22 57.5t73 38.5q39 17 89.5 45.5t103.5 64t97.5 76t72 81.5t27.5 78q0 18 -3.5 25.5t-13.5 7.5q-11 0 -38 -17q-27 -18 -82 -42t-146 -24q-114 0 -200 40.5t-134 120.5t-48 198q0 96 36 170t100 125t148 77t179 26
q138 0 245 -44t168 -138.5t61 -247.5q0 -169 -53.5 -302t-158.5 -238.5t-260 -194.5q-48 -28 -94.5 -45t-88.5 -17zM502 588q52 0 102.5 16t91.5 47t65 77t24 106q0 69 -35 117t-93.5 73t-127.5 25q-80 0 -139.5 -29t-92 -84.5t-32.5 -135.5q0 -64 33 -112t87 -74t117 -26z
" />
    <glyph glyph-name="colon" unicode=":" horiz-adv-x="403" 
d="M171 75q-34 0 -66 15.5t-52 42.5t-20 62q0 36 18.5 63.5t48.5 43.5t63 16q37 0 71 -15.5t56 -43.5t22 -68q0 -38 -21.5 -64t-54 -39t-65.5 -13zM185 658q-32 0 -60 12.5t-45.5 34.5t-17.5 51q0 30 15.5 57t47.5 44t83 17q28 0 56.5 -12.5t48 -34.5t19.5 -52
q0 -37 -21 -63.5t-54.5 -40t-71.5 -13.5z" />
    <glyph glyph-name="semicolon" unicode=";" horiz-adv-x="510" 
d="M228 652q-59 0 -101 31t-42 78q0 45 33 78.5t110 33.5q62 0 96.5 -31t34.5 -83q0 -37 -20 -60.5t-50.5 -35t-60.5 -11.5zM192 -180q-22 7 -21 24t9 36q16 24 28.5 54.5t17.5 55.5q5 18 6.5 31.5t-3.5 17.5q-6 4 -15.5 3t-24.5 -1q-27 0 -48.5 14.5t-28.5 40.5
q-13 29 -8 59.5t35 60.5q24 29 54.5 37.5t59.5 -1.5t49 -34q39 -40 45.5 -99t-14.5 -135q-11 -40 -32.5 -76.5t-44.5 -56.5q-15 -17 -32 -26t-32 -5z" />
    <glyph glyph-name="less" unicode="&#x3c;" horiz-adv-x="730" 
d="M600 210q-35 0 -95.5 20.5t-129.5 48.5q-62 25 -125 61t-115.5 78t-84.5 86.5t-32 85.5q0 46 23.5 91.5t63 90.5t89 88t101.5 83q30 23 73 51t89.5 53.5t87 42t66.5 16.5q33 0 51.5 -12t18.5 -44q0 -26 -30.5 -58.5t-83 -70.5t-119.5 -83q-30 -19 -65 -47.5t-67.5 -60
t-53.5 -61.5t-21 -52q0 -23 20.5 -49t52.5 -50.5t69.5 -45.5t70.5 -35q131 -53 182 -86t51 -63q0 -35 -21 -56.5t-66 -21.5z" />
    <glyph glyph-name="equal" unicode="=" horiz-adv-x="949" 
d="M270 745q-73 0 -130.5 8.5t-90 27t-32.5 48.5q0 22 24.5 38.5t66.5 27t95.5 16t113.5 5.5q39 0 96.5 -0.5t121.5 -2t123 -5t101 -7.5q64 -7 101.5 -22.5t37.5 -42.5q0 -25 -34 -42t-96 -25q-50 -7 -116 -11.5t-136.5 -7t-134.5 -4t-111 -1.5zM303 318q-55 0 -104 5.5
t-87.5 16.5t-60 29t-21.5 43q0 36 35.5 53t98.5 22.5t144 5.5h96.5t115.5 -0.5t114.5 -3t92.5 -8.5q71 -10 106 -26t35 -40q0 -28 -56.5 -50t-160.5 -32q-31 -4 -76.5 -6.5t-96.5 -4.5t-97 -3t-78 -1z" />
    <glyph glyph-name="greater" unicode="&#x3e;" horiz-adv-x="774" 
d="M210 212q-33 0 -54 17.5t-21 43.5q0 21 17.5 45.5t59.5 50.5q26 16 68 45t89 65.5t88.5 74.5t67.5 73.5t26 62.5q0 29 -26 61t-70 64t-98 61t-109 52.5t-104 38.5q-27 11 -49 24t-34 30.5t-12 41.5q0 30 25 43t62 13q36 0 87 -16t106 -41.5t106 -52t87 -48.5
q50 -30 97 -68.5t77 -85.5t30 -103q0 -44 -26 -93.5t-65 -96t-78 -83.5q-57 -54 -123 -104.5t-125.5 -82.5t-98.5 -32z" />
    <glyph glyph-name="question" unicode="?" horiz-adv-x="1030" 
d="M424 284q-28 0 -48.5 10.5t-32 35t-11.5 65.5q0 70 29.5 128.5t83 108t123.5 92.5q62 37 110 74t76 77.5t28 87.5q0 51 -33.5 85t-92.5 50.5t-136 16.5q-58 0 -118.5 -14t-112.5 -40.5t-85 -61.5q-25 -17 -47.5 -26.5t-46.5 -9.5q-22 0 -39 13t-17 44q0 20 11 39.5
t30 36.5q45 53 111.5 92t148 59.5t170.5 20.5q103 0 187 -20.5t143.5 -59.5t91.5 -95t32 -128q0 -75 -31.5 -132t-85 -100t-119.5 -81q-51 -30 -100 -64t-83 -78t-43 -104q-12 -60 -30 -91t-63 -31zM398 -52q-48 0 -80 25.5t-32 69.5q0 47 33 77t80 30q32 0 60.5 -9.5
t47.5 -31t19 -58.5q0 -38 -28 -70.5t-100 -32.5z" />
    <glyph glyph-name="at" unicode="@" horiz-adv-x="1888" 
d="M829 -73q-164 0 -310.5 38.5t-258 115t-175 191.5t-63.5 268q0 133 47.5 248.5t134 208.5t204 159t259 101t298.5 35q202 0 364 -45.5t276.5 -136.5t175 -226.5t60.5 -316.5q0 -99 -35 -167t-101 -102.5t-160 -34.5q-99 0 -163 42.5t-104 128.5q-11 22 -20.5 36.5
t-20.5 14.5q-14 0 -34.5 -26.5t-62 -61t-118 -61t-202.5 -26.5q-92 0 -165.5 30t-116.5 86t-43 132q0 79 41.5 140.5t111.5 103.5t158.5 64t181.5 22q107 0 184 -28t128.5 -98.5t79.5 -198.5q11 -77 48 -121t99 -44q51 0 82.5 20t46 58t14.5 90q0 80 -21 163t-69.5 158
t-129 134.5t-198.5 94t-279 34.5q-137 0 -253.5 -30t-207.5 -84.5t-155 -130.5t-97.5 -168.5t-33.5 -196.5q0 -116 46 -204.5t128 -148.5t191.5 -91t236.5 -31q118 0 193.5 20t125.5 41q44 20 73.5 30.5t48.5 10.5q29 0 44 -16t15 -44q0 -24 -23 -48.5t-69 -48.5t-116 -44
q-66 -20 -140 -29.5t-151 -9.5zM879 435q53 0 101.5 15.5t86 43t59.5 64.5t22 79q0 79 -49.5 114.5t-146.5 35.5q-55 0 -108 -14.5t-94.5 -41t-67 -62.5t-25.5 -80q0 -48 28.5 -83t78.5 -53t115 -18z" />
    <glyph glyph-name="A" unicode="A" horiz-adv-x="1469" 
d="M1279 -40q-41 0 -70.5 20.5t-52.5 61.5q-9 27 -20 63.5t-21.5 74.5t-21.5 72.5t-22 57.5q-14 32 -34.5 47t-60.5 21q-20 2 -60.5 5.5t-88.5 6t-90 2.5q-64 0 -130 -3t-114 -8q-41 -4 -61.5 -16.5t-33.5 -43.5q-13 -29 -27 -70t-28 -86t-28 -88q-21 -48 -50.5 -72.5
t-81.5 -24.5q-40 0 -67 13t-40 43t-13 79q0 46 13 110.5t35.5 139.5t50 152t56 148.5t54.5 129t45 91.5q34 63 77.5 121t97 103.5t117.5 72t141 26.5q124 0 223.5 -75t176.5 -199q29 -42 58.5 -108.5t58.5 -147t54 -166.5t44.5 -169t30 -153t10.5 -118q0 -62 -34 -87.5
t-93 -25.5zM989 551q22 4 29 17t7 41q0 31 -10.5 76.5t-28.5 96t-42 94.5q-34 65 -80 108.5t-99 43.5q-58 0 -110.5 -45.5t-92.5 -115.5q-17 -28 -35 -64t-33 -74t-24.5 -71.5t-9.5 -56.5q0 -30 24 -41.5t77 -11.5h194h139.5t94.5 3z" />
    <glyph glyph-name="B" unicode="B" horiz-adv-x="1261" 
d="M507 -55q-110 0 -186.5 11t-124 41.5t-71.5 87.5t-29 148q-2 46 -2.5 108t0.5 131t3.5 138t5.5 129.5t6 103.5q9 134 63.5 212.5t158.5 112t262 33.5q90 0 177.5 -17.5t158.5 -54.5t113.5 -97t42.5 -146q0 -67 -26.5 -113.5t-64 -75.5t-73.5 -43t-61 -22t-25 -15
q0 -6 36 -12t89 -22q72 -21 125.5 -56t82.5 -87t29 -123q0 -70 -37.5 -133.5t-88.5 -104.5q-40 -32 -102.5 -57t-139 -42.5t-159 -26t-163.5 -8.5zM500 121q104 0 190 13.5t148.5 41.5t97 70t34.5 98q0 50 -38.5 82t-101.5 51t-138 28t-149.5 11.5t-133.5 2.5
q-18 0 -32.5 -8t-25 -28t-16 -56t-5.5 -92q0 -62 5 -103t22 -65.5t51 -35t92 -10.5zM370 676q78 0 140 2.5t114 9.5t98 20q73 20 115.5 59.5t42.5 116.5q0 44 -27 77.5t-71.5 56t-98.5 33.5t-108 11q-50 0 -95 -10t-77.5 -30.5t-46.5 -49.5q-7 -15 -12.5 -42.5t-10 -59.5
t-6 -63.5t-1.5 -55.5q0 -36 9.5 -55.5t34.5 -19.5z" />
    <glyph glyph-name="C" unicode="C" horiz-adv-x="1205" 
d="M657 -64q-137 0 -247 39.5t-187.5 114t-118.5 180.5t-41 239q0 149 43.5 273t128 214.5t206.5 139.5t279 49q80 0 147.5 -16.5t117 -43.5t77 -60t27.5 -67q0 -41 -22 -61t-54 -20q-26 0 -47.5 12t-51.5 27.5t-79 27.5t-128 12q-66 0 -130 -28t-115 -83.5t-81.5 -137
t-30.5 -188.5q0 -81 21 -155t64.5 -131.5t110.5 -90.5t159 -33q70 0 120 18.5t86 43.5t65 43.5t56 18.5q53 0 73 -24.5t20 -68.5q0 -45 -34 -88.5t-96.5 -78.5t-148.5 -56t-189 -21z" />
    <glyph glyph-name="D" unicode="D" horiz-adv-x="1338" 
d="M349 -21q-77 0 -125.5 23.5t-75.5 71.5t-40 120q-14 72 -19.5 168.5t-5.5 215.5t6 224t23 185q24 108 79.5 169.5t165.5 61.5q158 0 297.5 -38t253.5 -102.5t196.5 -146t127 -169t44.5 -169.5q0 -97 -44.5 -188t-126.5 -168.5t-196.5 -135t-256 -90t-303.5 -32.5z
M455 218q110 0 198.5 24t155.5 64t112.5 91t68.5 106.5t23 107.5q0 46 -27 97.5t-78.5 101t-123.5 89.5t-162.5 64.5t-195.5 24.5q-30 0 -48 -25.5t-27 -70.5q-9 -40 -13.5 -92.5t-4.5 -110.5q0 -130 4.5 -222.5t18.5 -149.5q25 -99 99 -99z" />
    <glyph glyph-name="E" unicode="E" horiz-adv-x="1137" 
d="M505 -62q-127 0 -214 46t-134.5 139t-62.5 235q-4 34 -6 70.5t-3.5 76t-1.5 81.5v86q0 171 33 282.5t103.5 174.5t181 89t263.5 26q75 0 143.5 -6.5t121.5 -19.5t83.5 -32.5t30.5 -46.5q0 -28 -16.5 -44.5t-42.5 -21.5q-31 -4 -82 -1.5t-112 5.5t-124 3q-90 0 -151 -13.5
t-98 -44.5t-53 -84t-16 -131q0 -40 10.5 -60.5t49.5 -27t125 -6.5q21 0 52 0.5t64.5 1.5t63 1h46.5q75 0 104 -19t29 -56q0 -53 -34.5 -72.5t-91.5 -19.5h-55t-62.5 -0.5t-62.5 -0.5h-54q-89 0 -132 -5.5t-55.5 -24t-12.5 -58.5q0 -66 6 -118.5t21 -91t42.5 -63.5
t70.5 -37.5t104 -12.5q76 0 149 5t132 9.5t92 4.5q45 0 66 -18.5t21 -54.5q0 -40 -49.5 -68t-129 -45t-172.5 -24.5t-180 -7.5z" />
    <glyph glyph-name="F" unicode="F" horiz-adv-x="1077" 
d="M288 -32q-31 0 -55 20.5t-40.5 52t-28.5 63.5q-11 36 -22.5 97t-22 135t-19 148.5t-13 139t-4.5 105.5q0 103 19.5 185.5t55.5 145t86 106.5q71 60 170 84.5t215 24.5q70 0 141 -10t129.5 -29.5t94 -45.5t35.5 -58q0 -27 -15 -41t-42 -20q-41 -5 -112.5 1.5t-159.5 6.5
q-93 0 -155.5 -20.5t-99.5 -60.5q-27 -26 -42.5 -62.5t-22 -84t-6.5 -107.5q0 -27 3.5 -48.5t11.5 -36.5t20.5 -23t31.5 -8q33 0 80.5 2.5t97.5 6t94 4.5t72 -1q40 -5 61.5 -17.5t21.5 -37.5q0 -14 -6 -28t-18 -25q-18 -18 -68 -25.5t-138 -16t-222 -29.5
q-30 -4 -42.5 -23.5t-12.5 -53.5q0 -14 3 -48.5t6.5 -77.5t6.5 -87t4 -79t-1 -53q-11 -41 -35 -56t-57 -15z" />
    <glyph glyph-name="G" unicode="G" horiz-adv-x="1440" 
d="M716 -77q-153 0 -274 43.5t-206 128t-129 210.5t-44 292q0 143 40.5 250t111.5 183t163.5 123t196.5 69t210 22q75 0 147 -13.5t129.5 -37.5t92 -54.5t34.5 -65.5q0 -38 -26 -59.5t-65 -21.5q-24 0 -51.5 10t-65 23t-91 23.5t-130.5 10.5q-92 0 -169.5 -32t-135 -92
t-89 -146.5t-31.5 -196.5q0 -162 50.5 -265.5t147 -152t232.5 -48.5q71 0 132.5 13.5t107.5 42t72 72t26 103.5q0 49 -28 86.5t-83.5 60t-137.5 25.5q-84 6 -131.5 24t-47.5 66q0 38 29.5 59t84.5 29.5t132 8.5q102 0 184.5 -19.5t140.5 -60t89 -103.5t31 -149
q0 -128 -48.5 -217t-136 -142.5t-205.5 -77.5t-259 -24z" />
    <glyph glyph-name="H" unicode="H" horiz-adv-x="1333" 
d="M1079 -22q-43 0 -63.5 18t-26.5 60q-2 36 -2.5 75.5t-0.5 80v78.5t0.5 71t-0.5 56q0 52 -9.5 73.5t-28.5 30.5q-22 10 -82.5 17t-193.5 7q-75 0 -121.5 -1t-74 -3.5t-43 -6t-28.5 -9.5q-14 -6 -27 -19.5t-16 -44.5q-3 -15 -4.5 -36t-3.5 -48t-3 -60.5t-2.5 -75
t-2.5 -92.5q-5 -67 -19 -102t-38 -47.5t-61 -12.5q-55 0 -82.5 49.5t-41.5 124.5q-5 39 -9.5 95t-6.5 117.5t-3.5 120.5t-1.5 104q0 69 1.5 130t5.5 115.5t8.5 101.5t11.5 86q12 69 31 115t47.5 69t68.5 23q46 0 68.5 -32.5t30.5 -114.5q2 -29 4 -58.5t4 -57.5t4 -51.5
t4 -41.5t3 -29q6 -36 15.5 -57.5t36.5 -27.5q35 -7 103 -8.5t145 -1.5q63 0 118 -1.5t96 -0.5t58 6q18 7 29 25.5t15 63.5q2 21 4 50t4.5 66t5.5 77.5t8 82.5q9 75 33 105.5t60 30.5q51 0 77.5 -37.5t40.5 -125.5q7 -26 11.5 -71t8 -103.5t5 -125t1.5 -134.5
q0 -56 -2 -116.5t-5.5 -121t-8.5 -117t-10.5 -104.5t-11.5 -84q-16 -77 -49.5 -111t-83.5 -34z" />
    <glyph glyph-name="I" unicode="I" horiz-adv-x="479" 
d="M232 -13q-66 0 -97.5 48t-31.5 124v90t1 133t2.5 159t4 169t6.5 162t9 137q11 97 39 137t91 40q53 0 77 -40.5t31 -110.5q2 -43 4 -108t3 -142t1.5 -157.5t0.5 -155v-135t-1 -96.5q0 -95 -13 -150.5t-42.5 -79.5t-84.5 -24z" />
    <glyph glyph-name="J" unicode="J" horiz-adv-x="1128" 
d="M492 -70q-73 0 -140 13.5t-122.5 41.5t-94.5 68q-40 44 -65.5 99.5t-37 116t-11.5 119.5q0 39 9.5 68t27 49.5t41 30.5t50.5 10q29 0 48 -18t29 -66q7 -54 17.5 -98.5t28.5 -82.5q29 -62 77 -91.5t116 -29.5t109 18.5t72 56.5q35 43 54 105.5t26.5 141t7.5 165.5
q0 71 -2.5 134t-5.5 116.5t-6.5 96.5t-6 74.5t-2.5 52.5q0 36 11 62.5t39.5 40.5t83.5 14q44 0 75.5 -18.5t53.5 -53.5q12 -23 22.5 -54.5t18.5 -73t13.5 -93t8.5 -112.5t3 -133q0 -136 -13.5 -235t-37 -169.5t-54 -121.5t-64.5 -90q-75 -85 -175.5 -119.5t-203.5 -34.5z
" />
    <glyph glyph-name="K" unicode="K" horiz-adv-x="1231" 
d="M238 -19q-70 0 -102 45.5t-43 141.5q-3 48 -5 99t-2.5 102.5t1 102.5t2.5 100q4 101 14.5 202t31.5 197t55 181q26 51 65 74.5t94 23.5q45 0 71 -28t26 -73q0 -23 -4.5 -64.5t-11 -90.5t-13 -96.5t-10.5 -85t-3 -53.5q3 -21 10 -30.5t26 -9.5q16 0 36 10.5t44 30.5
q57 46 147.5 116.5t184.5 144.5q80 63 140.5 99.5t102.5 36.5q34 0 54 -12.5t29.5 -33t9.5 -43.5q0 -17 -10.5 -38t-31 -45t-50 -51t-67.5 -56q-53 -39 -117 -82.5t-125 -82t-103 -63.5q-34 -18 -49 -30t-15 -23q0 -10 8 -21t28 -28q16 -15 49.5 -44t74.5 -64.5t80.5 -70
t70 -62t43.5 -38.5q83 -77 118.5 -122.5t35.5 -69.5q0 -33 -14 -52.5t-39 -29t-58 -9.5q-40 0 -96.5 30.5t-142.5 107.5q-81 75 -132.5 126t-84 85t-55 59.5t-46.5 50.5q-19 25 -31 38.5t-20.5 19t-16.5 5.5q-11 0 -16 -10t-5 -30q0 -5 -0.5 -31.5t-1 -62.5t-2 -73.5t-2 -68
t-1.5 -42.5q-6 -117 -35 -163t-91 -46z" />
    <glyph glyph-name="L" unicode="L" horiz-adv-x="1100" 
d="M308 -33q-130 28 -177.5 131t-47.5 274q0 49 2.5 112.5t7.5 132.5t11 135t12 121t11 89q20 133 59 193t106 60q43 0 64 -18.5t28 -52.5t7 -81q0 -31 -2 -72.5t-4 -88.5t-4 -98.5t-4 -102.5t-2.5 -99.5t0.5 -91.5q2 -85 10.5 -142t33.5 -89.5t73.5 -47t130.5 -15.5
q71 -3 134.5 -5.5t104.5 -5.5q60 4 98 3.5t57 -7.5q16 -8 23.5 -22.5t7.5 -40.5q0 -42 -26 -71t-72.5 -49t-107.5 -35q-64 -15 -148 -24t-167 -9q-33 0 -73.5 1.5t-79 5.5t-66.5 10z" />
    <glyph glyph-name="M" unicode="M" horiz-adv-x="1588" 
d="M234 -48q-57 0 -81 34.5t-40 99.5q-8 41 -14 90t-9 102.5t-4.5 110t-1.5 113.5q2 72 6 144t11 138.5t16.5 119t20.5 83.5q26 74 69 118t99 63.5t117 19.5q70 0 121.5 -31t79.5 -90q16 -33 32 -82t30.5 -104t27 -109.5t21.5 -100.5q11 -57 25.5 -100.5t43.5 -43.5t43.5 36
t22.5 80q8 51 18 109t22.5 115.5t27 109.5t29.5 92q27 57 76.5 88t127.5 31q58 0 106 -20.5t86 -59.5t64 -96q23 -47 39.5 -124.5t25.5 -175t11 -203.5v-106t-2 -105.5t-5.5 -103t-10.5 -98.5q-14 -58 -44.5 -84.5t-87.5 -26.5q-35 0 -55.5 18t-26.5 51q-2 34 -4 71.5
t-4.5 78t-4.5 81.5t-4 81q-3 79 -8 152.5t-11.5 132t-15.5 88.5q-17 56 -38.5 85t-63.5 29q-35 0 -61.5 -28.5t-39.5 -84.5q-5 -24 -12 -60.5t-14.5 -80t-15 -90t-14.5 -91t-13 -82.5q-15 -78 -49.5 -117.5t-96.5 -39.5q-74 0 -106 52t-58 140q-6 29 -15 71t-19 89.5
t-20 94.5t-18.5 85.5t-15.5 62.5q-13 52 -35.5 76t-53.5 24q-44 0 -63.5 -33t-31.5 -105q-4 -24 -7 -62t-5 -85.5t-3.5 -101.5t-1.5 -110q0 -58 -0.5 -110t-2.5 -97t-4.5 -79.5t-6.5 -56.5q-11 -37 -34.5 -59.5t-65.5 -22.5z" />
    <glyph glyph-name="N" unicode="N" horiz-adv-x="1438" 
d="M257 -48q-41 0 -67.5 25.5t-44.5 71.5q-9 24 -17 79.5t-15 129.5t-12.5 154.5t-9.5 157.5t-6 138.5t-2 94.5q0 117 15.5 198.5t56.5 125t119 43.5q54 0 107 -43.5t124 -137.5t176 -245q140 -206 225 -305.5t122 -99.5q18 0 29.5 9t18 36.5t8.5 83.5q2 24 2 73t-0.5 110.5
t-1.5 126.5t-1 123t0.5 99t2.5 55q12 60 39 83t75 23q36 0 60.5 -12.5t40 -37t23 -63t9.5 -90.5q1 -30 2 -87t2 -129.5t0.5 -150.5t-2 -151.5t-4.5 -133.5t-9 -96q-12 -77 -36.5 -128.5t-65 -77t-103.5 -25.5q-57 0 -125 57.5t-146.5 159t-167.5 229.5q-57 82 -106 151.5
t-86.5 121t-63.5 80t-39 28.5q-23 0 -32 -26.5t-9 -106.5q0 -46 2 -101.5t5 -114.5t7 -118.5t6 -115t2.5 -102.5t-2.5 -81q-11 -51 -37 -69.5t-68 -18.5z" />
    <glyph glyph-name="O" unicode="O" horiz-adv-x="1578" 
d="M716 -104q-144 0 -263.5 44.5t-207 128.5t-135 202t-47.5 265q0 138 43 245t118 185t170.5 128t201.5 74.5t210 24.5q153 0 282 -45t225 -128.5t149 -200t53 -260.5q0 -159 -60 -282.5t-169 -208.5t-254.5 -128.5t-315.5 -43.5zM763 158q175 0 280 56t152 149t47 204
q0 102 -33.5 182t-93.5 135t-139 83.5t-170 28.5q-89 0 -170 -27t-144 -77t-99.5 -121t-36.5 -159q0 -105 30.5 -188.5t85 -143t129 -91t162.5 -31.5z" />
    <glyph glyph-name="P" unicode="P" horiz-adv-x="1213" 
d="M294 -21q-34 0 -62.5 17t-51 55t-39.5 100q-7 31 -14 79.5t-13.5 106t-12 119t-9.5 120.5t-6.5 110.5t-2.5 87.5q0 162 42.5 255t139.5 131.5t259 38.5q126 0 241.5 -23.5t205.5 -72.5t141.5 -126t51.5 -184q0 -82 -35.5 -143.5t-100 -103t-152.5 -65t-192 -31.5
q-68 -4 -132.5 -1.5t-125.5 2.5q-27 0 -34.5 -20.5t-7.5 -56.5q0 -20 1 -48t3 -60t3.5 -63.5t2.5 -58.5t1 -45q0 -60 -24.5 -90t-76.5 -30zM438 593q70 0 140 6t133 20.5t112 39t77 61t28 86.5q0 56 -27 95.5t-70 66t-92.5 41.5t-95.5 21t-77 6q-61 0 -103 -9.5t-67 -30
t-36 -51t-11 -72.5q0 -60 2.5 -106t8.5 -79.5t16 -54t25 -30.5t37 -10z" />
    <glyph glyph-name="Q" unicode="Q" horiz-adv-x="1545" 
d="M1343 -212q-44 0 -82 32q-28 30 -67.5 84t-77.5 111q-11 16 -23 22t-27 6q-29 0 -76.5 -17.5t-121.5 -35t-183 -17.5q-136 0 -250 41.5t-197.5 119.5t-129 190t-45.5 253t54.5 256.5t151.5 199.5t224 129.5t270 45.5q144 0 265 -40.5t209.5 -118t138 -187.5t49.5 -250
q0 -82 -15.5 -150t-44 -122t-68.5 -94q-28 -27 -28 -48q0 -13 17.5 -28.5t50.5 -38.5q26 -27 51 -56.5t45 -59t31.5 -58t11.5 -55.5q0 -33 -19 -59t-50 -40.5t-64 -14.5zM726 221q131 0 230 44t155 129t56 209q0 129 -44.5 217t-134 133t-226.5 45q-90 0 -169 -30
t-139.5 -84t-95 -126.5t-34.5 -157.5q0 -89 29 -159.5t82 -119.5t127 -74.5t164 -25.5z" />
    <glyph glyph-name="R" unicode="R" horiz-adv-x="1145" 
d="M220 -42q-52 0 -86.5 33.5t-51.5 100.5q-7 28 -12 72.5t-9.5 98t-7 109.5t-4 109t-1.5 95q0 143 17 252.5t52.5 189t93 130t139 75t190.5 24.5q104 0 198 -22.5t166.5 -67.5t114 -112t41.5 -155q0 -83 -37 -139t-96 -91t-126.5 -54t-128.5 -28q-34 -5 -47 -11t-13 -18
q0 -8 12.5 -22t34 -33.5t49.5 -45t58 -56.5q29 -29 67.5 -68t77.5 -80.5t72.5 -79t54.5 -64.5t21 -36q0 -28 -17 -47t-43 -28.5t-57 -9.5q-32 0 -70.5 19t-81 53t-86.5 79t-88 98q-66 74 -119 129t-89 86t-50 31q-10 0 -15.5 -8.5t-8 -30t-3 -58.5t-0.5 -94q0 -17 0.5 -43
t1 -55t0.5 -56v-48t-1 -30q-8 -51 -38.5 -72t-73.5 -21zM441 660q34 0 83.5 6.5t102.5 22.5t99.5 42.5t75.5 66.5t29 94q0 56 -26.5 95t-71 62.5t-98.5 34.5t-109 11q-57 0 -95.5 -16t-62 -48t-34.5 -84q-7 -29 -10.5 -58t-5.5 -57.5t-2 -55.5q0 -44 9.5 -69.5t36.5 -36
t79 -10.5z" />
    <glyph glyph-name="S" unicode="S" horiz-adv-x="1150" 
d="M487 -49q-89 0 -171.5 14.5t-147.5 39t-103 58t-38 72.5q0 33 15 52t41 27t55 8q19 0 57.5 -15.5t95.5 -31.5t132 -16q79 0 138.5 6t99.5 23.5t59.5 48t19.5 78.5q0 45 -23 80t-64 64t-96.5 54.5t-120.5 51.5q-79 31 -147.5 66t-120 77t-80 95t-28.5 121q0 76 35 131.5
t94.5 93.5t133 60t150.5 31.5t145 9.5q85 0 158.5 -12.5t130 -35t88 -51.5t31.5 -62q0 -29 -14 -48.5t-36 -28.5t-49 -9q-19 0 -53.5 17.5t-88.5 35t-134 17.5q-50 0 -99 -7t-89 -24.5t-64 -47t-24 -75.5q0 -44 21.5 -77.5t60 -60t90.5 -50.5t113 -48q81 -33 154 -72
t129.5 -86.5t89 -106.5t32.5 -132q0 -93 -44.5 -157.5t-123.5 -103.5t-184 -56.5t-226 -17.5z" />
    <glyph glyph-name="T" unicode="T" horiz-adv-x="1298" 
d="M611 -46q-55 0 -83 36.5t-34 117.5q-1 33 -1.5 88.5t0.5 125t2.5 145t3 149t2 137t0.5 108.5q0 60 -16.5 80t-74.5 20q-62 0 -124.5 -9.5t-123.5 -9.5q-30 0 -54 11t-37.5 32.5t-13.5 52.5q0 36 36.5 63t101.5 45.5t153 30t192 16.5t216 5q73 0 143.5 -3t133 -11t110 -24
t74.5 -41.5t27 -63.5q0 -35 -14.5 -58t-41.5 -34.5t-67 -11.5q-52 0 -89 3.5t-87 3.5q-74 0 -108 -11.5t-43 -44t-11 -97.5q-1 -43 -3.5 -92t-5.5 -103t-7.5 -109.5t-9 -110t-9 -106t-9.5 -96.5t-9 -82q-12 -57 -25.5 -90.5t-35 -47.5t-58.5 -14z" />
    <glyph glyph-name="U" unicode="U" horiz-adv-x="1309" 
d="M625 -37q-211 0 -339.5 112t-185.5 296q-11 38 -19.5 79t-14.5 84t-10 88.5t-6 92.5t-2 96q0 136 16 217.5t51.5 117t92.5 35.5q40 0 65 -30.5t37 -107t12 -215.5q0 -41 1 -81.5t4 -79t7 -75.5t10.5 -71t14.5 -64q30 -107 93 -172t175 -65q70 0 122.5 30t89.5 83t61 122
q13 40 22.5 84.5t15.5 92t9 97.5t3 100q0 130 14 204t44 105t77 31q50 0 76.5 -37t36 -118t9.5 -215q0 -47 -2.5 -93.5t-7 -91t-12 -87t-17.5 -83t-23 -79.5q-40 -121 -111.5 -211.5t-173.5 -140.5t-235 -50z" />
    <glyph glyph-name="V" unicode="V" horiz-adv-x="1384" 
d="M618 -27q-47 0 -91.5 35t-85 88.5t-74.5 110.5q-30 47 -66.5 118.5t-74.5 157t-73 174t-63 170t-44.5 146t-16.5 99.5q0 60 40.5 91.5t102.5 31.5q54 0 93 -25.5t58 -85.5q20 -70 45.5 -158t53 -178.5t54.5 -172.5t49 -139q32 -80 57 -127t44 -47q21 0 55.5 44.5
t76.5 120.5q33 55 69.5 127.5t74.5 154.5t74 166t66 162q21 54 47 82t58.5 39t70.5 11t67 -15.5t45.5 -41t16.5 -58.5q0 -35 -22.5 -98t-60 -143t-85 -167t-98 -171.5t-98 -156t-85.5 -120.5q-46 -58 -93.5 -109.5t-94.5 -83.5t-92 -32z" />
    <glyph glyph-name="W" unicode="W" horiz-adv-x="1725" 
d="M387 -9q-70 0 -120.5 36.5t-84.5 105t-58 164.5q-13 53 -23.5 119.5t-18 140.5t-12 150t-6 149t-1.5 136q0 44 4.5 83.5t18.5 70t40 48t68 17.5q67 0 95.5 -37t34.5 -107q1 -71 3 -133.5t5 -119t6.5 -110t8.5 -105.5t11 -106q11 -100 35 -152t64 -52t64 48t47 149
q12 54 24 115t24 124.5t24 124t22 114.5q26 131 71.5 202t132.5 71q51 0 85.5 -36t57.5 -96t39 -131q9 -45 18 -93t18 -97l18 -98t17 -95.5t15 -88.5q16 -97 34.5 -147t59.5 -50q38 0 62.5 53.5t42.5 139.5q11 50 20.5 108.5t17 121t14 123t11.5 115t9 97.5q6 39 20 67.5
t42 45t74 16.5q35 0 58.5 -14t37.5 -38.5t20 -57t6 -71.5q0 -52 -5 -125.5t-14.5 -157.5t-24 -168.5t-33 -160t-41.5 -131.5q-50 -128 -123 -195.5t-160 -67.5q-97 0 -154 57.5t-93 180.5q-9 39 -18 80.5t-17.5 85.5t-17.5 90.5t-17.5 95t-16.5 98.5q-15 92 -31 147.5
t-43 55.5q-26 0 -44.5 -58.5t-35.5 -143.5q-25 -124 -47.5 -240.5t-54.5 -216.5q-35 -93 -76 -146.5t-92.5 -76.5t-116.5 -23z" />
    <glyph glyph-name="X" unicode="X" horiz-adv-x="1306" 
d="M142 -26q-36 0 -63 13t-42.5 37.5t-15.5 58.5q0 35 12.5 61.5t34.5 50.5q18 20 55 59.5t83.5 87t93 94t83.5 80.5q48 37 75.5 64.5t27.5 43.5t-15 37t-59 51q-32 25 -74 59.5t-86 70.5t-83 68.5t-67 53.5q-27 20 -42.5 48.5t-15.5 61.5q0 43 18.5 69t46.5 37.5t56 11.5
q42 0 74 -15.5t64 -46.5q37 -33 82 -79.5t92 -99.5t91 -107q31 -41 52.5 -63.5t39.5 -22.5q15 0 30.5 14t34.5 38q22 26 50.5 64.5t60 81.5t61 83.5t52.5 71.5q37 49 73 70t76 21q60 0 84 -28t24 -70q0 -27 -14 -59.5t-45 -69.5q-29 -39 -70.5 -88.5t-85.5 -97t-83 -83.5
q-42 -34 -61 -54t-19 -31q0 -12 14.5 -26.5t40.5 -36.5q90 -78 158 -148.5t118 -131.5t85 -112q15 -19 21 -41t6 -40q0 -29 -18 -51.5t-45.5 -35.5t-57.5 -13q-38 0 -65.5 13t-50.5 37q-25 28 -61 75.5t-75.5 100t-75 99.5t-60.5 75q-33 42 -55.5 61t-39.5 19t-40.5 -22
t-60.5 -70q-49 -60 -87 -105.5t-71 -84.5t-69 -79.5t-83 -91.5q-19 -16 -46 -27t-68 -11z" />
    <glyph glyph-name="Y" unicode="Y" horiz-adv-x="1232" 
d="M585 -20q-56 0 -80 27.5t-34 85.5q-3 21 -4.5 48t-3 57t-3 60.5t-3.5 58.5q-4 61 -14 106t-52 73q-47 31 -91.5 61t-81.5 64q-42 39 -76 92t-57.5 113.5t-36.5 122.5t-13 116q0 44 17.5 75t48 47.5t69.5 16.5q33 0 59 -28.5t48 -94.5q12 -47 30 -96.5t41 -95.5
q29 -62 66 -113.5t82.5 -81.5t98.5 -30q48 0 94.5 29t89.5 75q55 60 99 136t69 141q32 71 58 104.5t58 33.5q37 0 65.5 -19t44.5 -50t16 -70q0 -48 -15 -104t-42 -114t-63.5 -111.5t-78.5 -95.5q-49 -49 -98.5 -84t-91.5 -62q-28 -18 -43.5 -34t-23.5 -35t-15 -48
q-3 -21 -6 -52t-6 -66.5t-6 -72t-7 -68.5q-7 -55 -34.5 -86t-73.5 -31z" />
    <glyph glyph-name="Z" unicode="Z" horiz-adv-x="1104" 
d="M496 -40q-112 0 -213 12t-162 36q-54 19 -80.5 48t-26.5 66q0 49 31 104t92 115q40 40 97 96.5t121.5 120.5t128 128t116.5 120t87 95q32 34 46 58t14 39q0 14 -21.5 21.5t-64.5 7.5q-19 0 -66 -2t-106 -5t-114.5 -5t-92.5 -2q-81 0 -130.5 6.5t-71.5 23.5t-22 47
q0 39 27.5 64t82 40t135 21t187.5 6q86 0 174 -3.5t158.5 -11t104.5 -18.5q51 -17 77.5 -46.5t26.5 -71.5q0 -34 -14.5 -66.5t-38 -64.5t-51.5 -64q-20 -25 -61 -72t-95.5 -107.5t-114 -126t-118 -128t-106.5 -114.5q-43 -43 -64 -72t-21 -49q0 -11 22 -19.5t77 -13
t152 -4.5q63 0 121 5.5t104.5 10t74.5 4.5q30 0 52.5 -7t35 -24t12.5 -47q0 -32 -32 -56t-86.5 -42.5t-121 -30t-134.5 -17t-128 -5.5z" />
    <glyph glyph-name="bracketleft" unicode="[" horiz-adv-x="573" 
d="M358 -401q-92 0 -158.5 23.5t-110.5 82.5q-26 36 -41.5 109.5t-24.5 179.5t-12 238t-3 283q0 133 5 232.5t15.5 173.5t27 130.5t38.5 103.5q24 43 64.5 69.5t99.5 38t136 11.5q53 0 92 -5.5t60 -19.5t21 -39q0 -40 -33 -56.5t-93 -16.5q-58 0 -93 -9t-55 -31t-33 -59
q-20 -62 -36 -199.5t-16 -326.5q0 -102 4 -208t10.5 -200.5t14 -163t14.5 -95.5q12 -51 38.5 -75.5t93.5 -31.5q45 -5 75 -10.5t44 -16t14 -30.5q0 -28 -12 -46t-46 -27t-100 -9z" />
    <glyph glyph-name="backslash" unicode="\" horiz-adv-x="1001" 
d="M801 23q-24 23 -64.5 73.5t-91.5 118t-105.5 142.5t-105.5 146t-91.5 130t-64.5 93q-28 32 -56.5 69t-52.5 74.5t-41 68.5q-17 29 -31 59.5t-23.5 60.5t-14 55.5t-3.5 43.5q5 25 25 33t51 0q21 -17 62 -65t94 -116t111 -146.5t115 -158t105 -149.5t81 -121
q33 -46 65.5 -95t61 -96t50.5 -88.5t34 -73.5q6 -19 6.5 -32.5t-3.5 -22.5q-9 -15 -24 -19.5t-37 0t-52 16.5z" />
    <glyph glyph-name="bracketright" unicode="]" horiz-adv-x="598" 
d="M289 -416q-74 0 -127 7t-80 24.5t-27 48.5q0 27 18.5 41.5t55 21.5t88.5 11q56 5 84 24.5t39.5 60.5t18.5 111q3 30 6 80.5t6 116t5 139t3.5 149.5t1.5 148q0 133 -9.5 233t-27.5 166q-22 85 -65.5 116t-110.5 44q-51 10 -79.5 19t-40 21.5t-11.5 35.5q0 29 21 44.5
t54 21.5t71 6q121 0 192.5 -39t111.5 -120q31 -52 47 -132t22 -178t6 -204q0 -84 -2 -172t-5 -172t-6.5 -159t-8 -133.5t-8.5 -94.5q-11 -117 -42.5 -178.5t-81.5 -84.5t-119 -23z" />
    <glyph glyph-name="asciicircum" unicode="^" horiz-adv-x="892" 
d="M93 813q-31 0 -48 15.5t-17 47.5q0 22 12.5 54t35.5 71t52 79q46 61 95.5 109.5t105 77t117.5 28.5q60 0 106 -25t100 -72q37 -30 75 -71t69.5 -85t51 -83.5t19.5 -67.5q0 -33 -20 -48.5t-45 -15.5q-16 0 -36.5 16t-41.5 39.5t-40.5 48t-33.5 40.5q-23 27 -47 59t-50 61
t-53.5 48t-58.5 19q-28 0 -56.5 -21.5t-56 -55t-52 -69t-45.5 -64.5q-16 -23 -42.5 -55t-52.5 -56t-43 -24z" />
    <glyph glyph-name="underscore" unicode="_" horiz-adv-x="1382" 
d="M714 -207q-224 0 -362.5 3t-211.5 10.5t-99 20.5t-26 35q0 23 46.5 38.5t136.5 25t220.5 13.5t298.5 4q245 0 385.5 -5.5t199.5 -21.5t59 -49q0 -32 -57.5 -47.5t-198.5 -21t-391 -5.5z" />
    <glyph glyph-name="grave" unicode="`" horiz-adv-x="660" 
d="M507 929q-47 0 -122 28t-147 65q-67 35 -104 68.5t-37 72.5q0 33 18 49t49 16q35 0 90.5 -23.5t109.5 -57.5q83 -52 138 -99t55 -76q0 -23 -14 -33t-36 -10z" />
    <glyph glyph-name="a" unicode="a" horiz-adv-x="1205" 
d="M467 -97q-81 0 -153.5 16t-128.5 51t-88 91t-32 137q0 92 45 151t122.5 92.5t174.5 46.5t201 13q32 0 65 -2t62.5 -4t48.5 -2q26 0 35 8.5t9 29.5q0 39 -9.5 69t-27.5 53t-43 39q-40 27 -96.5 38.5t-121.5 11.5q-77 0 -136.5 -16t-105.5 -33t-84 -17q-52 0 -80 17t-28 55
q0 39 33 72t91.5 58t136 39t165.5 14q177 0 296.5 -44.5t179.5 -144t60 -267.5q0 -50 -5 -87t-12.5 -64.5t-12.5 -47.5t-5 -37q0 -24 15.5 -45.5t37 -42.5t37.5 -44.5t16 -52.5q0 -43 -28 -62t-62 -19q-31 0 -51.5 20.5t-37 40.5t-40.5 20q-14 0 -30.5 -8t-40.5 -25
q-30 -22 -76.5 -49.5t-118.5 -48t-177 -20.5zM494 56q62 0 120 19.5t104 54t73 81t27 100.5q0 34 -22.5 49t-73.5 19t-135 4q-83 0 -154 -16.5t-114 -55t-43 -104.5q0 -51 26 -84t75 -50t117 -17z" />
    <glyph glyph-name="b" unicode="b" horiz-adv-x="1212" 
d="M559 -23q-174 0 -285.5 58t-165.5 173.5t-54 285.5q0 71 5 147t14 152t22 146.5t28 129t33 100.5q25 45 59 70t76 25q50 0 75.5 -29t25.5 -78q0 -23 -2.5 -52.5t-6 -63t-7 -67.5t-6.5 -65.5t-3 -60.5q0 -43 3 -67.5t19 -24.5q14 0 40.5 12.5t58.5 30.5q34 21 87.5 38.5
t133.5 17.5q131 0 224 -53.5t142.5 -148.5t49.5 -222q0 -115 -42.5 -200.5t-119 -142t-179.5 -84t-225 -27.5zM586 132q47 0 97.5 14t94 46t71.5 83.5t28 126.5q0 92 -31 156.5t-92 98.5t-153 34q-81 0 -144.5 -30.5t-99.5 -86t-36 -131.5q0 -92 26.5 -162t84 -109.5
t154.5 -39.5z" />
    <glyph glyph-name="c" unicode="c" horiz-adv-x="1157" 
d="M605 -60q-119 0 -222.5 32.5t-182 96.5t-123 158.5t-44.5 220.5q0 132 42 236.5t119.5 178t187 112t242.5 38.5q103 0 176 -20t112 -51t39 -63q0 -20 -11 -37t-29 -26.5t-38 -9.5q-23 0 -49.5 9.5t-68.5 19.5t-111 10q-80 0 -146 -26t-114 -74t-74 -113.5t-26 -144.5
q0 -106 43.5 -178.5t119 -109.5t170.5 -37q87 0 148 17.5t102.5 41.5t68.5 42t45 18q33 0 51 -14.5t25.5 -36t7.5 -41.5q0 -43 -31.5 -87t-90.5 -80.5t-144.5 -59t-193.5 -22.5z" />
    <glyph glyph-name="d" unicode="d" horiz-adv-x="1160" 
d="M512 -53q-147 0 -254.5 50t-166 148.5t-58.5 243.5q0 136 53 230t152 142.5t237 48.5q76 0 126.5 -16.5t82.5 -34.5q23 -13 41.5 -23t26.5 -10q16 0 16 29q0 26 -5 66.5t-11.5 88.5t-14 96t-12 89t-4.5 66q0 118 115 118q41 0 76.5 -19.5t57.5 -59.5q15 -35 29 -96
t26.5 -136t22 -152t15 -144t5.5 -113q0 -207 -55.5 -343t-178 -202.5t-322.5 -66.5zM519 98q92 0 155 34t95.5 97.5t32.5 151.5q0 87 -32 145.5t-90 88.5t-140 30q-89 0 -155 -31t-102 -91.5t-36 -150.5q0 -84 34 -145.5t95 -95t143 -33.5z" />
    <glyph glyph-name="e" unicode="e" horiz-adv-x="1146" 
d="M607 -69q-168 0 -291 51t-190 157.5t-67 271.5q0 137 45.5 239.5t125.5 171.5t185 103.5t224 34.5q81 0 153.5 -17t129 -52.5t88.5 -90.5t32 -131q0 -81 -34 -131.5t-93 -79t-133.5 -42t-155.5 -20.5q-41 -7 -97 -11.5t-108.5 -7t-81.5 -2.5q-30 0 -41 -8t-11 -29
q0 -25 14 -58.5t40 -65.5q48 -59 111.5 -78.5t156.5 -19.5q81 0 148 19.5t120.5 39t96.5 19.5q39 0 61.5 -14.5t22.5 -56.5q0 -38 -34.5 -73t-95.5 -61.5t-143 -42t-178 -15.5zM528 487q81 0 151 15.5t113.5 53t43.5 103.5q0 78 -57 117.5t-160 39.5q-61 0 -119 -21.5
t-103 -59.5t-72 -86t-27 -103q0 -28 22.5 -40.5t73 -15.5t134.5 -3z" />
    <glyph glyph-name="f" unicode="f" horiz-adv-x="981" 
d="M511 -61q-52 0 -78.5 21.5t-37.5 66.5q-4 27 -10 72t-13 99.5t-14 110.5t-13.5 104t-10.5 79q-2 23 -13.5 32t-31.5 9q-14 0 -39.5 -4.5t-67.5 -13.5q-44 -10 -70 -16.5t-42 -6.5q-19 0 -32.5 8.5t-21 23.5t-7.5 33q0 22 17 42t56 37q17 8 56.5 19t82.5 22t71 18
q15 3 20 15t5 36q0 30 -4.5 63.5t-9.5 69.5t-5 74q0 109 44 182.5t126.5 111t195.5 37.5q44 0 84 -6.5t71.5 -19t49.5 -30t18 -39.5q0 -20 -10 -31.5t-29 -18.5q-19 -4 -48.5 -3.5t-68.5 -0.5q-110 -1 -155.5 -55t-45.5 -158q0 -16 1 -35.5t3.5 -38t4.5 -35.5
q4 -26 13 -36.5t25 -10.5q13 0 47.5 9t81.5 24q34 12 70 22t65 16.5t42 6.5q28 0 43.5 -16.5t15.5 -43.5q0 -28 -17.5 -48.5t-69.5 -43.5q-34 -15 -84 -33.5t-124 -43.5q-45 -16 -60.5 -38.5t-15.5 -54.5q0 -28 3.5 -76t8.5 -105.5t9.5 -116t6.5 -107.5t-1 -79
q-7 -53 -28 -76t-59 -23z" />
    <glyph glyph-name="g" unicode="g" horiz-adv-x="1274" 
d="M534 -442q-124 0 -213 18.5t-145.5 47t-83 61t-26.5 61.5q0 26 16.5 43.5t44 26.5t62.5 9q28 0 65.5 -12t86 -27.5t110 -26.5t136.5 -8q81 1 137 30t91 76.5t51 103t16 111.5q0 10 -1.5 17t-4.5 11.5t-9 4.5q-11 0 -35.5 -20.5t-66 -46.5t-103 -46.5t-145.5 -20.5
q-158 0 -265 53t-161.5 152.5t-54.5 238.5q0 125 48 215.5t131.5 149.5t190 87t222.5 28q126 0 226 -38.5t169.5 -112.5t106 -179.5t36.5 -239.5q0 -200 -40.5 -345t-120 -238.5t-197.5 -138.5t-274 -45zM579 141q69 0 130 21.5t107 61t72.5 93.5t26.5 119q0 79 -34.5 140.5
t-99.5 97t-159 35.5q-56 0 -116 -13.5t-111 -47t-82.5 -90.5t-31.5 -144q0 -82 36.5 -144t103.5 -95.5t158 -33.5z" />
    <glyph glyph-name="h" unicode="h" horiz-adv-x="1221" 
d="M166 -50q-38 0 -59 21.5t-32 67.5q-5 23 -8.5 67t-6.5 105t-4.5 135.5t-1.5 160.5q0 65 3.5 134t11 136.5t18.5 132t25.5 121t32.5 102.5q26 59 62 89t80 30q48 0 75 -34.5t27 -102.5q0 -36 -3 -80t-8 -89t-9.5 -87t-8 -75t-3.5 -52q0 -30 12 -30q11 0 33.5 24.5t64 56
t108.5 56t166 24.5q110 0 182.5 -40.5t114.5 -108t60 -149.5t18 -164q0 -41 -5.5 -91t-14.5 -100.5t-20.5 -94.5t-25.5 -73q-18 -35 -48.5 -52.5t-74.5 -17.5q-36 0 -55 16t-28 42q-4 21 -1.5 58.5t7 85t7.5 99t1 99.5q-1 52 -11.5 103.5t-33 95t-63 69.5t-102.5 26
q-77 0 -135.5 -26.5t-98 -67.5t-61 -85t-25.5 -78q-5 -66 -10 -120.5t-10.5 -99.5t-12.5 -81t-15 -66q-16 -46 -44.5 -69t-69.5 -23z" />
    <glyph glyph-name="i" unicode="i" horiz-adv-x="612" 
d="M232 -27q-47 0 -74.5 18.5t-38.5 59t-11 102.5q0 34 1.5 82t4.5 104.5t7 114.5t9 111.5t10 96.5t10 69q20 63 59.5 94t99.5 31q57 0 83 -43t26 -124q0 -30 -2 -81t-6 -113t-8.5 -127t-11 -124.5t-12.5 -105t-14 -68.5q-20 -54 -52.5 -75.5t-79.5 -21.5zM300 1011
q-94 0 -129 32t-35 72q0 51 37 85.5t91 52.5t108 18q39 0 72 -13t52.5 -40t19.5 -71q0 -48 -30 -78t-79 -44t-107 -14z" />
    <glyph glyph-name="j" unicode="j" horiz-adv-x="637" 
d="M73 -461q-64 0 -117.5 12.5t-85 36.5t-31.5 59q0 33 19 52.5t48 26.5q30 5 78 1t104 -4q69 0 98.5 95t29.5 272q0 34 -2 82t-5 103t-7 112t-7 110t-5.5 97.5t-2.5 72.5q0 91 35.5 129t99.5 38q48 0 75.5 -19.5t41 -58t19 -94t8.5 -126.5q2 -31 4.5 -76t5 -97t4.5 -104
t3.5 -96t1.5 -72q0 -171 -43.5 -294.5t-134 -190.5t-234.5 -67zM347 1010q-38 0 -75.5 6.5t-68 20t-49 35.5t-18.5 53q0 47 23 74.5t64.5 40t97.5 12.5q36 0 72 -8t65.5 -24t47.5 -40.5t18 -58.5q0 -35 -22.5 -60t-62.5 -38t-92 -13z" />
    <glyph glyph-name="k" unicode="k" horiz-adv-x="1088" 
d="M168 -40q-39 0 -61 19.5t-30.5 55.5t-8.5 84q0 44 7.5 114t18.5 159.5t21 190.5q10 99 21.5 183.5t22.5 154.5t23 124.5t22 91.5q22 68 51 99t68 31q50 0 67.5 -38t17.5 -113q0 -33 -2.5 -74t-7 -87t-9 -93t-9 -92t-7 -84.5t-2.5 -68.5q0 -32 3.5 -52.5t13.5 -20.5
t22 8.5t27 23.5q16 14 45.5 42t64.5 62t69.5 66.5t61 56t37.5 31.5q24 18 52 28t52 10q39 0 62 -20.5t23 -51.5q0 -26 -19 -57.5t-56 -61.5q-58 -59 -116 -104.5t-109 -96.5q-25 -23 -25 -37q0 -8 7 -14.5t21 -16.5q28 -20 75.5 -52t102.5 -69t105.5 -71t82.5 -60
q22 -18 35.5 -35t13.5 -37q0 -22 -13.5 -42.5t-36 -32.5t-51.5 -12q-31 0 -60.5 14.5t-56.5 34.5q-42 29 -100 72t-118.5 91t-111.5 90q-25 21 -47 34.5t-41 13.5q-20 0 -32.5 -13t-18.5 -38q-20 -98 -36 -160.5t-28 -98.5q-18 -46 -42.5 -63.5t-60.5 -17.5z" />
    <glyph glyph-name="l" unicode="l" horiz-adv-x="701" 
d="M394 -53q-98 0 -158.5 41.5t-91.5 137.5t-42 259q-5 41 -7.5 101.5t-3 131t0.5 139t2.5 127t4.5 94.5q3 96 13.5 158.5t38 93.5t77.5 31q63 0 87 -38.5t24 -128.5q0 -29 -2 -75t-5 -102t-6.5 -115.5t-6 -117.5t-4.5 -107t-2 -84q0 -119 7.5 -193.5t22.5 -115t36.5 -56
t49.5 -15.5q38 0 63.5 14.5t46.5 29t43 14.5q24 0 37.5 -17t13.5 -44q0 -32 -20 -61.5t-53.5 -52t-76.5 -36t-89 -13.5z" />
    <glyph glyph-name="m" unicode="m" horiz-adv-x="1541" 
d="M146 -19q-36 0 -59 19t-34 55.5t-11 88.5q0 46 2.5 99.5t8.5 110.5t15 113t21.5 108.5t29.5 97.5q49 113 121 173.5t173 60.5q72 0 120 -39.5t79.5 -102.5t53.5 -135q17 -50 37 -88.5t45 -38.5q30 0 61 38t64 97q47 83 92.5 142.5t100 92t128.5 32.5q99 0 159 -59
t87 -158.5t27 -221.5q0 -47 -2 -97t-6.5 -100t-11.5 -96.5t-16 -86.5q-17 -55 -42 -78.5t-66 -23.5q-37 0 -60 20.5t-34 55.5q-2 21 -2.5 49.5t0.5 63t2.5 74.5t2 87t-0.5 99q-2 59 -12 110t-32 83t-58 32q-35 0 -66.5 -31.5t-61 -82.5t-59.5 -110q-47 -97 -92 -147.5
t-114 -50.5q-68 0 -104.5 47.5t-58.5 129.5q-17 64 -35 115t-41.5 81t-58.5 30q-34 0 -62 -32t-51 -97q-24 -72 -38 -146t-20.5 -143t-8.5 -126q-10 -61 -34.5 -87.5t-77.5 -26.5z" />
    <glyph glyph-name="n" unicode="n" horiz-adv-x="1262" 
d="M159 -22q-47 0 -74 25t-39 81q-4 26 -5 59t0 75t5 92q12 199 81 337.5t192 211t293 72.5q171 0 293 -69t187 -212t65 -365q0 -40 -1.5 -74t-4.5 -62t-9 -51q-15 -64 -44.5 -92t-76.5 -28q-48 0 -73 16t-36 48t-15 79q-3 75 -5.5 132.5t-7 103t-10.5 85t-15 79.5
q-23 102 -77 155t-161 53q-103 0 -165.5 -57t-96.5 -157q-15 -42 -25 -88t-16.5 -95t-11 -103t-8.5 -113q-5 -56 -24 -86t-48 -41t-67 -11z" />
    <glyph glyph-name="o" unicode="o" horiz-adv-x="1339" 
d="M631 -53q-116 0 -223.5 26t-192 83t-133.5 148.5t-49 223.5q0 145 47.5 253.5t131.5 181t194.5 109t236.5 36.5q114 0 223 -29t196 -91t138.5 -160.5t51.5 -237.5q0 -105 -42.5 -202t-123 -173.5t-195 -122t-260.5 -45.5zM622 168q102 0 173 31.5t115.5 83t65 112.5
t20.5 121q0 84 -32.5 142.5t-86 94.5t-119.5 52.5t-135 16.5q-90 0 -170 -38.5t-129.5 -116t-49.5 -195.5q0 -96 39.5 -164.5t117.5 -104t191 -35.5z" />
    <glyph glyph-name="p" unicode="p" horiz-adv-x="1206" 
d="M184 -469q-28 0 -49.5 14t-37.5 45.5t-27 83.5q-7 43 -13 92.5t-10.5 101t-7.5 105t-4.5 104.5t-1.5 99q0 208 59.5 368.5t185.5 252t326 91.5q127 0 223.5 -35.5t161.5 -100t97.5 -153t32.5 -195.5q0 -108 -30.5 -193.5t-96.5 -145.5t-171 -91t-256 -31q-70 0 -116 10.5
t-73 21t-40 10.5q-19 0 -28.5 -12t-12.5 -52q-3 -20 -4 -58.5t-2.5 -83t-2 -82.5t-1.5 -58q-4 -61 -29.5 -84.5t-71.5 -23.5zM529 123q141 0 223 36t117.5 104.5t35.5 163.5q0 74 -25 139.5t-89 106.5t-180 41q-82 0 -141 -27.5t-95.5 -78.5t-53.5 -120t-17 -154t20 -130.5
t69.5 -63t135.5 -17.5z" />
    <glyph glyph-name="q" unicode="q" horiz-adv-x="1299" 
d="M1075 -391q-34 0 -63.5 20t-53.5 47q-25 28 -49 65.5t-42.5 76t-28.5 67.5q-17 42 -31.5 70t-35.5 28q-20 0 -62.5 -5t-131.5 -5t-181 25.5t-168.5 80t-124 140t-47.5 204.5q0 137 46.5 237t129.5 165t193.5 97t238.5 32q165 0 289.5 -57.5t193.5 -165.5t69 -262
q0 -130 -40 -218.5t-107 -147.5q-39 -35 -58 -56.5t-19 -36.5q0 -11 14 -34.5t34 -51.5q28 -39 57.5 -80t58.5 -79q16 -21 24.5 -38t8.5 -31q0 -29 -18 -48.5t-44.5 -29t-51.5 -9.5zM631 169q102 0 181.5 35.5t124.5 105t45 169.5q0 83 -29 138.5t-76 88.5t-104 47t-112 14
q-58 0 -118 -14.5t-112 -50t-83.5 -95.5t-31.5 -151q0 -74 28 -128t74.5 -89.5t102.5 -52.5t110 -17z" />
    <glyph glyph-name="r" unicode="r" horiz-adv-x="979" 
d="M277 -26q-29 0 -52 11.5t-41.5 31.5t-33.5 47q-18 38 -33 88t-25.5 104.5t-15.5 108.5t-5 100q0 163 61 276t176 172t276 59q68 0 130.5 -10t111.5 -29.5t77.5 -48t28.5 -65.5q0 -30 -13 -48.5t-33.5 -26.5t-42.5 -8q-46 0 -100.5 15.5t-141.5 15.5q-131 0 -196.5 -81
t-65.5 -220q0 -50 5 -96.5t12 -89t14 -78.5t11.5 -64t4.5 -46q0 -62 -27.5 -90t-81.5 -28z" />
    <glyph glyph-name="s" unicode="s" horiz-adv-x="976" 
d="M468 -34q-62 0 -129 5.5t-126 16.5t-100 27q-37 15 -60.5 34t-23.5 54q0 39 23 59.5t67 20.5q31 0 77.5 -10.5t105.5 -22t125 -11.5q65 0 124 11.5t96 38.5t37 74q0 43 -23.5 70t-81.5 47t-163 41q-115 23 -194.5 60t-121 91.5t-41.5 130.5q0 66 37.5 114.5t102.5 80
t148.5 47t175.5 15.5q56 0 114.5 -6.5t109 -19t81.5 -32t31 -46.5q0 -29 -14 -47t-36.5 -26t-49.5 -8q-43 0 -98.5 10t-120.5 10q-57 0 -106 -11.5t-78.5 -36t-29.5 -64.5q0 -59 64.5 -91t189.5 -58q116 -23 192.5 -58.5t115.5 -90t39 -135.5q0 -77 -37 -131t-101 -87.5
t-147 -49.5t-174 -16z" />
    <glyph glyph-name="t" unicode="t" horiz-adv-x="1010" 
d="M624 -21q-54 0 -108.5 16t-93 60.5t-45.5 126.5q-3 29 -6 66t-5.5 79.5t-4 88t-3 93t-1.5 94.5q-1 45 -16.5 59t-47.5 17q-19 2 -48.5 3t-60.5 3t-55 4q-39 4 -59 25.5t-20 61.5q0 27 11.5 41.5t33 22.5t48.5 11q53 5 87.5 9t64.5 7q32 4 45.5 17t17.5 48q2 21 3.5 49
t4 55.5t5.5 47.5q11 49 31 72t64 23q36 0 56.5 -11.5t30.5 -35.5t16 -62q2 -31 3.5 -55t2.5 -43.5t2.5 -35.5t3.5 -32q3 -29 19 -41.5t47 -15.5q27 -3 59.5 -6.5t63 -6t50.5 -6.5q41 -5 70 -22t29 -56q0 -36 -23 -56.5t-63 -23.5q-61 -1 -113 -0.5t-81 -0.5
q-23 -2 -35.5 -13.5t-14.5 -58.5q0 -38 0.5 -78t1.5 -80t3 -78.5t5 -72.5t7 -62q8 -59 29.5 -79t57.5 -20q43 0 67.5 17.5t42 35.5t39.5 18q25 0 36.5 -13.5t11.5 -39.5q0 -33 -23.5 -62.5t-62 -53t-85.5 -37t-95 -13.5z" />
    <glyph glyph-name="u" unicode="u" horiz-adv-x="1276" 
d="M583 -65q-144 0 -246 44.5t-166 128.5t-94 202.5t-30 266.5q0 36 2.5 72.5t7.5 70.5t13 61q18 69 52 99.5t82 30.5q45 0 68 -19t30.5 -47.5t8.5 -56.5v-46v-54t0.5 -54.5t1.5 -48.5q5 -128 31 -225.5t85.5 -152t162.5 -54.5q105 0 169 43.5t98.5 126t51.5 198.5
q5 30 8.5 61.5t6 63.5t6 64.5t7.5 65.5q11 65 39 101t83 36q48 0 71.5 -31.5t32.5 -88.5q3 -37 4 -73.5t0.5 -73.5t-2 -73t-4.5 -72q-13 -184 -80 -310.5t-191.5 -191t-308.5 -64.5z" />
    <glyph glyph-name="v" unicode="v" horiz-adv-x="1303" 
d="M643 -72q-50 0 -111 46t-125 122q-29 33 -66.5 88.5t-78 121.5t-79 135.5t-70.5 131t-52 105.5q-17 37 -26.5 67t-9.5 54q0 32 16.5 54.5t43.5 35t58 12.5q47 0 81 -24.5t64 -74.5q11 -20 33.5 -65.5t52 -105t61 -124.5t62.5 -126.5t55 -108.5q26 -48 48.5 -77t36.5 -29
q16 0 38 29t46 75q59 115 119.5 256.5t125.5 288.5q30 54 60 76.5t77 22.5q48 0 77 -24.5t29 -72.5q0 -26 -7.5 -57t-21.5 -65q-16 -45 -43 -107.5t-60.5 -133.5t-69.5 -140t-71.5 -128.5t-65.5 -98.5q-58 -70 -116.5 -114.5t-110.5 -44.5z" />
    <glyph glyph-name="w" unicode="w" horiz-adv-x="1518" 
d="M337 -4q-67 0 -114.5 31t-81.5 90q-16 31 -31 90.5t-28.5 135t-23 155t-14.5 151t-5 122.5q0 52 13.5 92.5t40.5 64t69 23.5q48 0 71.5 -30t34.5 -93q4 -36 9 -86t11.5 -106t14 -111.5t15 -101t15.5 -74.5q9 -35 24 -56t36 -21q20 0 34 23t24 61q12 51 25 116.5t27.5 135
t30 135.5t33.5 119q22 50 61 81t108 31q63 0 97 -28t51 -70q11 -32 25 -83t28 -109.5t27.5 -117t24 -108t17.5 -80.5q10 -46 24 -72.5t32 -26.5q23 0 36.5 21t27.5 61q11 32 22.5 91t22.5 130t21.5 140t18.5 121q15 58 39.5 83.5t68.5 25.5q27 0 51.5 -10t44 -32t30.5 -59
t11 -90q0 -41 -5.5 -96.5t-15.5 -118.5t-22.5 -126t-27.5 -121t-30.5 -104t-31.5 -73q-38 -57 -90.5 -89t-122.5 -32q-71 0 -119 41t-69 94q-15 51 -30.5 117t-32.5 135.5t-32.5 134t-27.5 111.5q-9 39 -22 65.5t-41 26.5t-46 -27.5t-27 -66.5q-9 -35 -21 -88.5t-24 -114
t-25 -120.5t-25 -109.5t-23 -78.5q-23 -51 -78.5 -88t-129.5 -37z" />
    <glyph glyph-name="x" unicode="x" horiz-adv-x="1273" 
d="M170 -38q-30 0 -56 9.5t-41.5 30t-15.5 54.5q0 24 10 47.5t31 46.5q18 21 54 52.5t82 66.5t94 67q41 29 77.5 55.5t60 48t23.5 34.5q0 12 -26 32.5t-66 46t-84 51.5q-51 28 -97 62t-80 65q-23 21 -37.5 46.5t-14.5 56.5q0 30 17 53.5t45.5 37.5t62.5 14q26 0 51 -10.5
t50 -28.5q41 -29 86.5 -73t84.5 -94q56 -65 94.5 -105t55.5 -40q12 0 34.5 20t50.5 51.5t57 66.5q45 54 78 87.5t67 62.5q29 25 64.5 43t67.5 18q49 0 77.5 -25.5t28.5 -70.5q0 -35 -17 -67.5t-50 -61.5q-26 -25 -64 -53.5t-87 -59.5q-65 -45 -98.5 -68t-45 -34.5
t-11.5 -24.5t44 -40t139 -88q39 -25 75 -53.5t66 -54t46 -42.5q30 -28 44 -56t14 -58q0 -26 -10.5 -44.5t-29 -30t-40 -16.5t-43.5 -5q-30 0 -58.5 12t-60.5 39q-31 26 -74.5 69.5t-105.5 113.5q-65 68 -100.5 106t-54.5 38q-12 0 -27 -11.5t-44.5 -46t-86.5 -103.5
q-32 -40 -68.5 -80.5t-68.5 -71.5t-54 -47q-25 -17 -54 -28.5t-61 -11.5z" />
    <glyph glyph-name="y" unicode="y" horiz-adv-x="1182" 
d="M198 -387q-44 0 -69.5 23t-25.5 56q0 37 28.5 67.5t76.5 54.5q52 33 104 72t95.5 78t70 73t26.5 56q0 20 -28.5 46.5t-91.5 64.5q-52 34 -103.5 83t-96.5 108t-80 121t-54.5 121.5t-19.5 110.5q0 33 15 59.5t41 41.5t59 15q53 0 90 -26.5t68 -94.5q42 -116 96 -215
t106 -167q29 -35 59 -60t48 -25q27 0 52.5 27t42.5 57q55 87 94 187.5t77 206.5q24 52 56.5 86t75.5 34q62 0 87 -32t25 -84q0 -61 -21 -136.5t-56.5 -156.5t-78.5 -159t-89 -145.5t-88 -116.5q-65 -75 -141.5 -151.5t-156 -140t-155 -101.5t-138.5 -38z" />
    <glyph glyph-name="z" unicode="z" horiz-adv-x="1088" 
d="M537 -30q-111 0 -207 5t-166 22q-80 16 -114.5 48.5t-34.5 88.5q0 27 10 56t37 60.5t79 64.5q36 25 88.5 61.5t113.5 79.5t122.5 85t114 78t88.5 59q53 30 67 46t14 30q0 17 -23.5 21.5t-62.5 4.5q-55 0 -120.5 -3t-132 -7.5t-125.5 -7.5t-100 -3q-27 0 -48.5 7t-33.5 22
t-12 38q0 27 22.5 45t65 30t102 19.5t135.5 12.5q37 3 90.5 5.5t111.5 5.5t110.5 5t87.5 2q99 0 152 -31t53 -95q0 -45 -23 -89.5t-98 -94.5q-62 -43 -139 -97t-155 -108t-143.5 -98.5t-104.5 -70.5q-34 -22 -47 -38t-13 -32q0 -17 21.5 -25t76 -10.5t155.5 -2.5
q106 0 185.5 4.5t144.5 4.5q60 0 89 -19t29 -55q0 -35 -31 -59t-90.5 -38.5t-145 -20.5t-195.5 -6z" />
    <glyph glyph-name="braceleft" unicode="{" horiz-adv-x="599" 
d="M521 -386q-17 0 -37 4.5t-38.5 12t-34.5 14.5q-39 21 -72 56.5t-53 82t-23 102.5q-1 72 -4.5 129.5t-14 104t-32.5 87t-59 78.5q-19 24 -38 40t-34 30t-24.5 30.5t-9.5 40.5q0 23 9 40.5t23 31.5t29.5 27.5t27.5 28.5q36 34 48 75t12 98q0 18 -1 39t-3 43t-3 44t-1 44
q0 96 28 161.5t75 122.5q26 29 61.5 53.5t72.5 38.5t66 14q31 0 50.5 -15t19.5 -49q0 -24 -14 -40.5t-35.5 -33t-44 -41t-37.5 -65.5q-9 -22 -17 -47t-13 -53t-5 -58q0 -22 1 -54t2.5 -63.5t1.5 -51.5q0 -45 -8 -78.5t-21.5 -57.5t-30.5 -41q-26 -31 -54 -55t-28 -43
q0 -18 17 -35t53 -39q47 -28 80.5 -80t38.5 -124q2 -30 1.5 -69.5t-0.5 -80.5t3 -78.5t9 -63.5q14 -54 35.5 -86.5t48.5 -49.5q19 -12 31 -24.5t12 -34.5q0 -32 -17.5 -47t-48.5 -15z" />
    <glyph glyph-name="bar" unicode="|" horiz-adv-x="338" 
d="M136 -324q-31 0 -49.5 24t-28 68t-12.5 105t-3 134q0 53 1 141.5t2 196t2.5 218.5t3.5 211t4 173.5t4 103.5q6 88 19.5 150t37.5 93.5t61 31.5q29 0 45.5 -20.5t23.5 -63t8.5 -107t1.5 -151.5q0 -40 -0.5 -102.5t-1.5 -140t-2.5 -163t-2.5 -170t-2.5 -162t-3 -140
t-2.5 -102.5q-1 -87 -12 -161.5t-33.5 -120.5t-60.5 -46z" />
    <glyph glyph-name="braceright" unicode="}" horiz-adv-x="571" 
d="M112 -367q-18 0 -35.5 6t-29 19.5t-11.5 35.5t17.5 39t39.5 32q46 35 80 82t34 135q0 39 -0.5 89.5t0.5 100t7 86.5q9 66 32.5 102t50 54t45.5 30t19 30q0 14 -18 28t-41 34.5t-40.5 54t-17.5 87.5q0 23 4.5 59.5t9.5 80t5 84.5q0 89 -28.5 146.5t-100.5 83.5
q-31 10 -54.5 26.5t-23.5 52.5q0 31 25 44t54 13q47 0 96.5 -17t95.5 -58q35 -28 62.5 -73t43.5 -100t16 -114q0 -28 -2.5 -55.5t-6 -55.5t-6 -59t-2.5 -65q0 -36 16 -58t37 -39t37 -37t16 -53q0 -38 -16.5 -60t-39 -41t-43 -45t-28.5 -72q-7 -32 -9 -75t-2 -89.5v-89.5
q0 -96 -35 -174t-86 -127q-34 -35 -79.5 -56.5t-87.5 -21.5z" />
    <glyph glyph-name="asciitilde" unicode="~" horiz-adv-x="1022" 
d="M240 943q-19 0 -31.5 11.5t-12.5 34.5q0 42 27 85t70 72t88 29q42 0 74 -22t57.5 -50.5t49.5 -50.5t51 -22q33 0 52.5 13.5t36.5 55.5q14 33 27 44.5t32 11.5q13 0 24.5 -10t11.5 -36q0 -47 -26 -87t-66.5 -64t-86.5 -24q-44 0 -77 21t-59.5 48.5t-50 48.5t-48.5 21
q-26 0 -48 -23.5t-42 -62.5q-12 -25 -25 -34.5t-28 -9.5z" />
    <glyph glyph-name="uni00A0" unicode="&#xa0;" horiz-adv-x="613" 
 />
    <glyph glyph-name="exclamdown" unicode="&#xa1;" horiz-adv-x="403" 
d="M163 568q21 0 37.5 -8t29 -28t20.5 -55t13.5 -88t8.5 -127t4 -173.5t1 -225.5q0 -53 -0.5 -95.5t-3 -75.5t-7.5 -58t-13 -42.5t-20 -28t-29.5 -15.5t-39.5 -5q-23 0 -39 6.5t-27.5 20t-18.5 34.5t-11.5 50t-6.5 68t-2.5 87.5t-0.5 107.5q0 116 2.5 207t7 159.5
t11.5 117.5t16 81.5t19.5 51t22.5 26.5t26 8zM175 889q30 0 61 -6.5t52 -25.5t21 -57q0 -35 -19.5 -60.5t-50.5 -39.5t-66 -14q-26 0 -54.5 9t-48 29t-19.5 51q0 41 18 66t46.5 36.5t59.5 11.5z" />
    <glyph glyph-name="cent" unicode="&#xa2;" horiz-adv-x="1016" 
d="M541 960q-31 0 -49.5 11.5t-26.5 33t-8 50.5q0 52 5 90t15.5 62.5t26.5 36.5t37 12q17 0 31 -11.5t23 -35t14 -57.5t5 -80q0 -39 -6 -64t-21.5 -36.5t-45.5 -11.5zM538 -53q-19 0 -34 8.5t-25 27.5t-15.5 49.5t-5.5 74.5q0 36 4.5 62t14.5 43.5t26.5 26.5t40.5 9
q19 0 33 -7t24.5 -21t16 -33.5t5.5 -46.5q0 -55 -5.5 -92t-16 -59.5t-26.5 -32t-37 -9.5zM548 133q-132 0 -241.5 48.5t-174 143.5t-64.5 235q0 111 35 199t100.5 150t157.5 94.5t204 32.5q86 0 147 -17t94 -42.5t33 -52.5q0 -16 -9.5 -30t-24 -22t-30.5 -8q-19 0 -41.5 8
t-58.5 16.5t-94 8.5q-90 0 -159.5 -38.5t-109 -107.5t-39.5 -159t37.5 -152t102 -93.5t145.5 -31.5q74 0 126 15t87 35.5t57.5 35.5t37.5 15q28 0 42.5 -12t20.5 -29t6 -33q0 -36 -26 -72.5t-76 -67.5t-122 -50t-163 -19z" />
    <glyph glyph-name="sterling" unicode="&#xa3;" horiz-adv-x="933" 
d="M307 547q-80 0 -139 2.5t-98 9t-57.5 19.5t-18.5 33q0 34 32 50.5t109 22t210 5.5q106 0 178 -2t116.5 -9t64.5 -22.5t20 -41.5q0 -23 -22 -37t-70 -20t-128 -8t-197 -2zM164 -49q-42 0 -72.5 22t-30.5 62q0 34 15.5 62.5t36 67t36 99.5t15.5 160q0 26 -0.5 63.5
t-1.5 80.5t-0.5 86.5t1.5 80.5q3 155 44 274t132.5 187t246.5 68q64 0 118.5 -17t95 -45t63 -64t22.5 -76q0 -27 -17.5 -38.5t-41.5 -11.5q-29 0 -52 15t-46.5 35t-55 35.5t-76.5 15.5q-88 0 -139 -48t-71.5 -134t-20.5 -200q0 -31 0.5 -66t1 -71t1 -69.5t0 -62.5t-1.5 -49
q-2 -91 -14 -149t-23 -88.5t-11 -38.5q0 -15 18 -15q14 0 42.5 7.5t65 15t74.5 7.5q55 0 95 -3.5t78.5 -8t87.5 -5.5q54 -4 80.5 -20t26.5 -51q0 -45 -38 -63t-82 -18q-48 0 -94 5t-100.5 9.5t-128.5 4.5q-61 0 -108 -12.5t-88 -25.5t-83 -13z" />
    <glyph glyph-name="currency" unicode="&#xa4;" horiz-adv-x="1106" 
d="M562 127q-96 0 -184 23t-157 71.5t-109.5 125.5t-40.5 185q0 119 39 206t108 143.5t159.5 84t193.5 27.5q94 0 183 -24t160.5 -74.5t114 -131.5t42.5 -195q0 -86 -34.5 -165t-100.5 -141.5t-160 -98.5t-214 -36zM110 72q-21 0 -38.5 16.5t-17.5 38.5t20 53t65 76
q35 35 62.5 53.5t50.5 18.5q22 0 42 -18t20 -42q0 -19 -12 -41t-38 -48q-58 -58 -93.5 -82.5t-60.5 -24.5zM207 776q-17 0 -36.5 14t-46.5 40q-49 49 -73 85.5t-24 59.5q0 19 15.5 33.5t35.5 14.5q26 0 65 -27.5t95 -84.5q18 -17 27 -33t9 -32q0 -15 -10.5 -31.5t-26 -27.5
t-30.5 -11zM1023 53q-24 0 -60 25t-94 82q-25 26 -37.5 48t-12.5 41q0 24 20 42t43 18t50 -18.5t62 -52.5q45 -46 65 -76.5t20 -52.5t-17 -39t-39 -17zM555 298q84 0 142 26t95 68t54 92.5t17 99.5q0 93 -45.5 148t-116 79.5t-145.5 24.5q-56 0 -107.5 -17.5t-92.5 -53.5
t-64.5 -90.5t-23.5 -126.5q0 -80 33 -135.5t97 -85t157 -29.5zM864 819q-14 0 -29.5 11.5t-26.5 28t-11 31.5q0 16 9.5 32t27.5 33q56 57 95 84.5t64 27.5q20 0 36 -14.5t16 -33.5q0 -23 -24 -59.5t-73 -85.5q-27 -27 -47 -41t-37 -14z" />
    <glyph glyph-name="yen" unicode="&#xa5;" horiz-adv-x="1232" 
d="M516 232q-111 0 -192 2t-133 7t-77.5 15t-25.5 26q0 19 24 31.5t78.5 19t147 9t229.5 2.5q146 0 245 -1.5t159 -7.5t86 -18t26 -32q0 -18 -28.5 -29t-94 -16t-174 -6.5t-270.5 -1.5zM513 435q-121 0 -208.5 1.5t-143.5 6.5t-83 15t-27 26q0 20 25 32t83.5 19t158.5 9
t250 2q159 0 266 -1.5t171 -7.5t92.5 -18t28.5 -32q0 -18 -30.5 -29t-100.5 -16t-188 -6t-294 -1zM585 -20q-56 0 -80 27.5t-34 85.5q-3 21 -4.5 48t-3 57t-3 60.5t-3.5 58.5q-4 61 -14 106t-52 73q-47 31 -91.5 61t-81.5 64q-42 39 -76 92t-57.5 113.5t-36.5 122.5t-13 116
q0 44 17.5 75t48 47.5t69.5 16.5q33 0 59 -28.5t48 -94.5q12 -47 30 -96.5t41 -95.5q29 -62 66 -113.5t82.5 -81.5t98.5 -30q48 0 94.5 29t89.5 75q55 60 99 136t69 141q32 71 58 104.5t58 33.5q37 0 65.5 -19t44.5 -50t16 -70q0 -48 -15 -104t-42 -114t-63.5 -111.5
t-78.5 -95.5q-49 -49 -98.5 -84t-91.5 -62q-28 -18 -43.5 -34t-23.5 -35t-15 -48q-3 -21 -6 -52t-6 -66.5t-6 -72t-7 -68.5q-7 -55 -34.5 -86t-73.5 -31z" />
    <glyph glyph-name="brokenbar" unicode="&#xa6;" horiz-adv-x="338" 
d="M143 579q-40 0 -60 21.5t-26 58t-6 80.5q0 29 0.5 75t1.5 98.5t2 102.5t3 88t4 54q5 40 18.5 79t36 64.5t56.5 25.5q47 0 66.5 -37.5t19.5 -116.5q0 -25 -0.5 -68.5t-1.5 -96l-2 -105t-2.5 -96t-2.5 -68.5q-2 -39 -13 -75.5t-33.5 -60t-60.5 -23.5zM147 -341
q-30 0 -49 16.5t-29 43.5t-14 57.5t-4 58.5q0 36 -0.5 93t-1 118t-0.5 112.5t1 75.5q2 84 31 128.5t80 44.5q46 0 66 -47t20 -111q0 -32 1 -84t1 -110.5t1 -110t1 -82.5q0 -53 -10.5 -99.5t-33.5 -75t-60 -28.5z" />
    <glyph glyph-name="section" unicode="&#xa7;" horiz-adv-x="994" 
d="M472 -203q-60 0 -125 6t-122.5 17t-98.5 26q-36 13 -57 35.5t-21 49.5q0 26 20 40.5t54 14.5q31 0 81.5 -13.5t112.5 -27t127 -13.5q72 0 141.5 13t115 43t45.5 83q0 35 -18.5 60.5t-57 45t-97 36.5t-138.5 34q-113 24 -192 59t-120.5 88t-41.5 128q0 59 34.5 107.5
t95 82.5t140.5 52t171 18l-4 -107q-62 0 -117 -17.5t-89 -50t-34 -78.5t33.5 -77t95 -51.5t146.5 -37.5q86 -16 156 -38.5t120 -55t77 -78t27 -107.5q0 -70 -37.5 -124t-102 -90t-147 -54.5t-173.5 -18.5zM472 265l-29 106q72 0 141.5 12.5t115 43t45.5 82.5q0 36 -21.5 62
t-64 46t-104 36t-140.5 33q-113 24 -187.5 62t-111 92t-36.5 123q0 60 35 108t97.5 82t143 52t171.5 18q55 0 113 -8.5t108 -25t80.5 -38.5t30.5 -48q0 -34 -22 -46t-53 -12q-32 0 -68 8.5t-81.5 17.5t-107.5 9t-115 -14t-85 -41t-32 -69q0 -41 29 -72t86 -52.5t142 -38.5
q86 -16 156 -38t120 -53.5t77 -76t27 -106.5q0 -71 -38 -119.5t-102 -78t-146.5 -43t-173.5 -13.5z" />
    <glyph glyph-name="dieresis" unicode="&#xa8;" horiz-adv-x="928" 
d="M277 914q-72 0 -102.5 27.5t-30.5 69.5q0 50 38.5 78t78.5 28q32 0 60.5 -9.5t46 -32.5t17.5 -65q0 -40 -24.5 -68t-83.5 -28zM678 916q-51 0 -84 28t-33 70q0 51 38 83t93 32q51 0 76 -30t25 -68q0 -48 -31.5 -81.5t-83.5 -33.5z" />
    <glyph glyph-name="copyright" unicode="&#xa9;" horiz-adv-x="1605" 
d="M814 -99q-194 0 -342 45t-248.5 134t-151.5 218.5t-51 298.5q0 176 58.5 309.5t163.5 223.5t248 136t311 46q175 0 310 -43.5t228 -131t141 -219.5t48 -309q0 -249 -78.5 -405.5t-237.5 -229.5t-399 -73zM771 43q213 0 349.5 58.5t202 185t65.5 329.5q0 168 -63.5 294
t-193 196.5t-326.5 70.5q-134 0 -248.5 -40t-200 -115t-133 -179t-47.5 -231q0 -141 45 -247.5t126 -178t189 -107.5t235 -36zM814 208q-118 0 -215.5 44.5t-155 130.5t-57.5 210q0 132 55.5 228t156 147.5t232.5 51.5q75 0 129.5 -14t84.5 -36t30 -44q0 -20 -15.5 -33.5
t-34.5 -13.5q-17 0 -37.5 8t-53.5 15.5t-88 7.5q-88 0 -154.5 -37.5t-104 -103.5t-37.5 -152t35.5 -145t98 -90t138.5 -31q72 0 121.5 15.5t81.5 35t52 34.5t34 15q32 0 43 -19.5t11 -38.5q0 -29 -23 -61.5t-68 -60.5t-110 -45.5t-149 -17.5z" />
    <glyph glyph-name="ordfeminine" unicode="&#xaa;" horiz-adv-x="528" 
d="M198 816q-45 0 -82 11.5t-59 37.5t-22 71q0 50 30 77t79 37t106 10q20 0 32 -1t21 -1q11 0 15 3t4 12q0 14 -4.5 30.5t-20.5 26.5q-16 11 -33 13.5t-40 2.5q-43 0 -76 -15.5t-60 -15.5q-23 0 -36 8t-13 25q0 24 25 43.5t66.5 31t90.5 11.5q109 0 165 -40.5t56 -143.5
q0 -27 -4 -45t-4 -31t10.5 -29.5l21 -33t10.5 -32.5q0 -17 -12.5 -26.5t-29.5 -9.5q-20 0 -31 17t-23 17q-5 0 -12 -3t-17 -11q-18 -13 -52 -30t-101 -17zM214 898q38 0 69.5 20t31.5 54q0 16 -16.5 19.5t-54.5 3.5t-67.5 -12t-29.5 -43q0 -24 18 -33t49 -9z" />
    <glyph glyph-name="guillemotleft" unicode="&#xab;" horiz-adv-x="689" 
d="M618 238q-12 0 -39 16.5t-56.5 39.5t-51.5 43q-43 41 -84.5 87.5t-68.5 95t-27 95.5q0 37 13 74.5t35 76t49.5 76t55.5 73.5q21 28 54 62.5t65 60t49 25.5q24 0 36 -13.5t12 -34.5q0 -19 -19 -54t-50.5 -79t-70.5 -91q-20 -23 -40.5 -54t-34.5 -61.5t-14 -55.5
q0 -20 16 -48t40.5 -56.5t48.5 -51.5q43 -40 71.5 -72.5t42.5 -57.5t14 -43q0 -27 -11 -40t-35 -13zM347 238q-12 0 -39 16.5t-56.5 39.5t-51.5 43q-43 41 -84.5 87.5t-68.5 95t-27 95.5q0 37 13 74.5t35 76t49.5 76t55.5 73.5q21 28 54 62.5t65 60t49 25.5q24 0 36 -13.5
t12 -34.5q0 -19 -19 -54t-50.5 -79t-70.5 -91q-20 -23 -40.5 -54t-34.5 -61.5t-14 -55.5q0 -20 16 -48t40.5 -56.5t48.5 -51.5q43 -40 71.5 -72.5t42.5 -57.5t14 -43q0 -27 -11 -40t-35 -13z" />
    <glyph glyph-name="logicalnot" unicode="&#xac;" horiz-adv-x="960" 
d="M808 257q-41 0 -57.5 24t-16.5 59q0 11 1 31.5t2.5 44.5t2.5 45t1 32q0 21 -18 33.5t-72 12.5q-10 1 -54.5 1.5t-106 0.5t-125.5 0.5t-116 1.5t-76 1q-46 1 -80.5 9.5t-53.5 23.5t-19 36t14 39t57 31.5t129 21t229 7.5q150 0 243.5 -9t143.5 -26t68 -40.5t18 -51.5
q0 -43 -1.5 -80t-4 -68.5t-6 -57.5t-8.5 -48q-4 -17 -14 -34.5t-29.5 -28.5t-50.5 -11z" />
    <glyph glyph-name="uni00AD" unicode="&#xad;" horiz-adv-x="875" 
d="M361 521q-82 0 -145.5 3.5t-107 12.5t-66 27t-22.5 45q0 47 39 69.5t123 29.5t220 7q112 0 190.5 -2t127.5 -12t72 -31t23 -58q0 -32 -22.5 -50.5t-74.5 -27t-139.5 -11t-217.5 -2.5z" />
    <glyph glyph-name="registered" unicode="&#xae;" horiz-adv-x="1621" 
d="M801 -102q-186 0 -331 47.5t-245 138t-152 219.5t-52 293q0 174 60 307.5t167 224t250.5 136.5t312.5 46q171 0 306.5 -44t230.5 -131.5t146 -217.5t51 -303q0 -182 -50.5 -316.5t-146.5 -223t-234 -132.5t-313 -44zM774 34q161 0 280 36t196.5 109.5t115.5 183.5t38 257
q0 174 -62.5 301t-191 196t-329.5 69q-142 0 -261 -37t-205 -109.5t-133 -179.5t-47 -247q0 -147 45.5 -255.5t127 -180.5t190.5 -107.5t236 -35.5zM571 199q-31 0 -51.5 21.5t-30.5 64.5q-5 23 -8.5 62t-6 84.5t-4 90.5t-1.5 79q0 113 15.5 194.5t50.5 134t94 77.5t146 25
q90 0 165.5 -25.5t121 -76t45.5 -126.5q0 -54 -25 -90.5t-64.5 -59.5t-84.5 -35.5t-86 -18.5q-22 -3 -31 -7t-9 -11q0 -6 13 -18.5t35 -32t48 -47.5q25 -24 58.5 -58.5t66 -69t54.5 -60.5t22 -34q0 -24 -20.5 -36.5t-46.5 -12.5q-20 0 -45 12.5t-54 34.5t-59.5 52t-59.5 64
q-44 49 -78.5 85.5t-56.5 56.5t-31 20q-5 0 -8 -10.5t-3.5 -38.5t-0.5 -79q0 -15 0.5 -38t1 -46.5t0.5 -42.5t-1 -26q-4 -32 -22.5 -45t-48.5 -13zM716 661q26 0 67 7t81.5 22.5t68 44t27.5 70.5q0 46 -29 73.5t-72.5 40t-89.5 12.5q-53 0 -80.5 -22t-38.5 -70
q-5 -27 -7.5 -54t-2.5 -52q0 -41 14 -56.5t62 -15.5z" />
    <glyph glyph-name="macron" unicode="&#xaf;" horiz-adv-x="893" 
d="M453 962q-106 0 -187 3.5t-126.5 17.5t-45.5 44q0 28 29.5 42.5t111.5 19t241 4.5q105 0 182 -4t119 -15.5t42 -35.5q0 -36 -40 -52t-121 -20t-205 -4z" />
    <glyph glyph-name="degree" unicode="&#xb0;" horiz-adv-x="619" 
d="M305 809q-90 0 -155 30t-100.5 79t-35.5 106q0 79 37.5 134t103 84.5t147.5 29.5q79 0 144.5 -22.5t104.5 -74t39 -138.5q0 -68 -39.5 -119.5t-104 -80t-141.5 -28.5zM308 909q75 0 120 34t45 108q0 45 -23.5 74t-61.5 42.5t-83 13.5q-39 0 -76.5 -16t-62 -47.5
t-24.5 -77.5q0 -44 24.5 -73t62.5 -43.5t79 -14.5z" />
    <glyph glyph-name="plusminus" unicode="&#xb1;" horiz-adv-x="1103" 
d="M484 93q-108 0 -185.5 3t-126 11t-72 23.5t-23.5 40.5q0 30 22 49t73.5 28.5t139.5 13t221 3.5q141 0 235.5 -2.5t150 -11t79.5 -27t24 -50.5q0 -28 -26 -44.5t-87 -24t-165 -10t-260 -2.5zM547 338q-38 0 -53.5 44.5t-25.5 112.5q-1 17 -2 32t-2 28.5t-2 26t-2 22.5
q-5 40 -15.5 60.5t-28.5 28t-48 7.5h-43h-63t-66.5 1t-53.5 2q-52 7 -84.5 24.5t-32.5 54.5q0 25 20.5 41.5t59.5 25t93 10.5q41 1 83.5 4t77 6.5t51.5 6.5q20 4 30 20.5t13 64.5q1 14 2 30t2 34t2 37.5t3 42.5q10 83 30.5 114t67.5 31q31 0 51 -37t27 -77q3 -24 4.5 -46
t3 -42t2 -37.5t1.5 -33.5q1 -55 12.5 -78t35.5 -24q18 -1 54 -2.5t78 -3.5t81 -5t62 -7q50 -9 76 -25.5t26 -43.5q0 -33 -32.5 -48t-87.5 -22q-40 -4 -88 -6.5t-91 -3.5t-71 -2q-27 0 -42.5 -21.5t-17.5 -76.5q0 -14 -1 -28.5t-2.5 -29.5l-3 -30t-2.5 -31
q-7 -64 -27.5 -107.5t-60.5 -43.5z" />
    <glyph glyph-name="uni00B2" unicode="&#xb2;" horiz-adv-x="471" 
d="M133 664q-40 4 -70 17t-30 48q0 20 7.5 37t33.5 36q29 23 79 56.5t94 68.5q32 23 52 48.5t20 47.5q0 33 -22 46.5t-61 13.5q-36 0 -62 -10.5t-40 -22.5q-20 -15 -34.5 -30.5t-29.5 -15.5q-13 0 -25 10t-12 27q0 31 26.5 61.5t73.5 50.5t108 20q53 0 95.5 -12.5
t67.5 -41.5t25 -79q0 -38 -21.5 -68t-57.5 -62q-25 -22 -52 -42.5t-51 -37.5t-42 -29q-24 -16 -24 -29q0 -8 17.5 -9t33.5 -1q30 0 78.5 6.5t76.5 6.5q20 0 32 -9t12 -25q0 -28 -20.5 -44.5t-60 -23.5t-97.5 -10q-26 0 -60.5 -0.5t-59.5 1.5z" />
    <glyph glyph-name="uni00B3" unicode="&#xb3;" horiz-adv-x="492" 
d="M218 646q-52 0 -99 10t-76.5 28t-29.5 40q0 27 15.5 35t28.5 8q24 0 66.5 -16t97.5 -16q58 0 96.5 16.5t38.5 45.5q0 32 -27.5 47t-69.5 22q-37 7 -59.5 20.5t-22.5 34.5q0 22 17.5 31.5t44.5 17.5q37 9 63 24.5t26 42.5q0 31 -32.5 41.5t-82.5 10.5q-51 0 -90.5 -9
t-57.5 -9q-19 0 -31 11.5t-12 27.5q0 21 30 36t77 23t95 8q109 0 161 -34t52 -89q0 -34 -23 -59t-65 -40q-17 -7 -26 -13.5t-9 -14.5q0 -10 14 -16t32 -12q42 -11 75 -35.5t33 -74.5q0 -45 -28 -77t-83 -49t-139 -17z" />
    <glyph glyph-name="acute" unicode="&#xb4;" horiz-adv-x="653" 
d="M154 929q-22 0 -36 10t-14 33q0 29 55 76t138 99q54 34 109.5 57.5t90.5 23.5q31 0 49 -16t18 -49q0 -39 -37.5 -72.5t-104.5 -68.5q-71 -37 -146 -65t-122 -28z" />
    <glyph glyph-name="uni00B5" unicode="&#xb5;" horiz-adv-x="1308" 
d="M214 -458q-26 0 -51.5 12t-44.5 39.5t-26 74.5q-4 29 -8 84t-9 129t-9 159.5t-7.5 177.5t-5.5 183.5t-2 175.5q0 81 16 157.5t50.5 126.5t89.5 50q46 0 69 -19t30.5 -47.5t7.5 -56.5q1 -20 1 -46v-54t0.5 -54.5t1.5 -48.5q4 -128 30.5 -225.5t86 -152t161.5 -54.5
q106 0 177 43t107 125.5t36 199.5q0 34 1 67.5t2.5 67t4 66t6.5 63.5q11 64 39 96t83 32q48 0 72.5 -31.5t33.5 -88.5q2 -24 3.5 -47.5t2.5 -47.5t1.5 -48t1 -48.5t0.5 -50v-50.5q0 -147 3 -234t11.5 -125t23.5 -38q20 0 32 5t28 5q11 0 21 -7.5t17.5 -25t7.5 -46.5
q0 -35 -15.5 -56.5t-40 -33t-53 -15.5t-55.5 -4q-58 0 -98 25t-64.5 84t-35.5 162l45 -44q-44 -100 -142 -159t-256 -59q-87 0 -152.5 30t-108 78t-62.5 101l42 23q2 -65 4 -123.5t4 -110t4.5 -95t4 -78.5t3 -60.5t1.5 -40.5q0 -60 -32.5 -88.5t-88.5 -28.5z" />
    <glyph glyph-name="paragraph" unicode="&#xb6;" horiz-adv-x="958" 
d="M567 -190q-46 0 -56 44t-10 132v67t0.5 111t0.5 131t0.5 128t0.5 101.5v50.5q0 22 -8 31.5t-24 9.5q-19 0 -42.5 -7.5t-55 -15t-76.5 -7.5q-71 0 -128.5 35t-90.5 99.5t-33 150.5q0 110 43.5 176.5t110.5 100.5t141 45.5t136 11.5q36 0 92.5 -3.5t117 -15.5t105.5 -38
q58 -34 87.5 -113.5t29.5 -239.5q0 -53 -1 -128.5t-3.5 -161.5t-4.5 -173t-4 -163.5t-3.5 -132.5t-1.5 -80q0 -72 -17.5 -107t-50.5 -35q-25 0 -39.5 26.5t-14.5 114.5q0 25 0.5 78.5t2 124.5t3 152.5t2.5 162.5t2.5 153.5t2 128t0.5 83.5q0 123 -19 169.5t-57 46.5
q-24 0 -38 -30t-21 -74t-9 -85t-2 -63q0 -55 -0.5 -115.5t-1.5 -124t-2 -129.5t-2 -132.5t-1.5 -132.5t-0.5 -130q0 -122 -11 -175t-49 -53z" />
    <glyph glyph-name="periodcentered" unicode="&#xb7;" horiz-adv-x="312" 
d="M164 535q-55 0 -98.5 30.5t-43.5 86.5q0 31 20 56t51 39t61 14q34 0 64 -17t49.5 -45.5t19.5 -64.5q0 -54 -35.5 -76.5t-87.5 -22.5z" />
    <glyph glyph-name="cedilla" unicode="&#xb8;" horiz-adv-x="772" 
d="M336 -428q-51 0 -94.5 5t-70.5 20t-27 44t19 40.5t43 11.5q21 0 40 -5.5t41 -11t51 -5.5q51 0 96 9t73 29t28 54q0 33 -16 46t-47 13q-38 0 -68.5 -12t-59 -24.5t-60.5 -12.5q-36 0 -61 15t-25 67q0 22 5.5 51.5t14.5 56t15 41.5q12 24 30.5 39t54.5 15q27 0 40 -14.5
t13 -32.5q0 -24 -11.5 -60.5t-11.5 -67.5q0 -23 14 -23q18 0 39.5 13.5t53.5 27t78 13.5q38 0 69 -16t49 -47t18 -77q0 -100 -85 -151t-248 -51z" />
    <glyph glyph-name="uni00B9" unicode="&#xb9;" horiz-adv-x="288" 
d="M156 653q-27 0 -43 16.5t-16 44.5q0 21 2.5 56t6.5 76t7.5 80.5t6 71.5t2.5 49q0 24 -14 26q-17 2 -38 -2.5t-28 -3.5q-9 3 -13.5 9.5t-4.5 15.5q0 18 26.5 38t61 33.5t57.5 13.5q31 0 46 -24t20 -59.5t5 -72.5q0 -23 -1.5 -54t-4 -65t-6 -68t-6.5 -64t-6 -52
q-11 -65 -60 -65z" />
    <glyph glyph-name="ordmasculine" unicode="&#xba;" horiz-adv-x="623" 
d="M295 836q-73 0 -132 24.5t-94 68t-35 97.5q0 59 33 105t95.5 72.5t149.5 26.5q79 0 133 -28t82 -75t28 -103q0 -60 -40 -102.5t-99.5 -64t-120.5 -21.5zM299 931q71 0 107 34.5t36 80.5q0 38 -38.5 70t-108.5 32q-49 0 -91.5 -24t-42.5 -78q0 -39 20 -64.5t52 -38
t66 -12.5z" />
    <glyph glyph-name="guillemotright" unicode="&#xbb;" horiz-adv-x="689" 
d="M366 231q-22 0 -34.5 13.5t-12.5 34.5q0 20 18.5 54.5t50.5 78.5t71 91q19 24 39.5 54.5t34.5 61.5t14 55q0 21 -16 48.5t-40.5 56t-48.5 51.5q-64 60 -96 103.5t-32 69.5q0 54 46 54q13 0 39.5 -16.5t56.5 -39.5t51 -44q44 -41 85.5 -87.5t68 -94.5t26.5 -95
q0 -38 -13 -75.5t-35 -76t-49 -76t-55 -73.5q-22 -27 -54.5 -62t-64.5 -60.5t-50 -25.5zM79 231q-22 0 -34.5 13.5t-12.5 34.5q0 20 18.5 54.5t50.5 78.5t71 91q19 24 39.5 54.5t34.5 61.5t14 55q0 21 -16 48.5t-40.5 56t-48.5 51.5q-64 60 -96 103.5t-32 69.5q0 54 46 54
q13 0 39.5 -16.5t56.5 -39.5t51 -44q44 -41 85.5 -87.5t68 -94.5t26.5 -95q0 -38 -13 -75.5t-35 -76t-49 -76t-55 -73.5q-22 -27 -54.5 -62t-64.5 -60.5t-50 -25.5z" />
    <glyph glyph-name="onequarter" unicode="&#xbc;" horiz-adv-x="1037" 
d="M156 653q-27 0 -43 16.5t-16 44.5q0 21 2.5 56t6.5 76t7.5 80.5t6 71.5t2.5 49q0 24 -14 26q-17 2 -38 -2.5t-28 -3.5q-9 3 -13.5 9.5t-4.5 15.5q0 18 26.5 38t61 33.5t57.5 13.5q31 0 46 -24t20 -59.5t5 -72.5q0 -23 -1.5 -54t-4 -65t-6 -68t-6.5 -64t-6 -52
q-11 -65 -60 -65zM-89 6q-9 0 -17.5 3t-13.5 10.5t-5 18.5q0 18 30 56t79.5 90.5t108.5 112.5q27 25 72 71.5t102 106.5t119.5 127t124.5 133.5t118 127.5t100 107.5t69 71.5q30 31 58.5 58.5t54.5 45t44 17.5q6 0 11 -1.5t8.5 -4t5.5 -7.5t2 -12q0 -17 -19 -44.5t-46.5 -59
t-53.5 -59.5q-42 -46 -105.5 -114.5t-139.5 -150.5t-157.5 -170t-161 -173.5t-149.5 -158.5q-39 -41 -87 -88t-89.5 -80.5t-62.5 -33.5zM866 -18q-19 0 -32 9t-13 32q0 9 0.5 22t0.5 26v22q-1 18 -10.5 26t-41.5 8q-34 1 -65 2.5t-57 6.5q-32 7 -44.5 32.5t-12.5 61.5
t14.5 87t27.5 86q11 31 24.5 50.5t38.5 19.5q14 0 22 -7.5t8 -24.5q0 -14 -5.5 -35t-13 -46t-13 -50t-5.5 -47q0 -26 7 -35t21 -13t37 -5t41 -1q22 0 30 6.5t8 23.5q0 10 1 36t3 57.5t3.5 59.5t2.5 39q3 23 13 40t28 17q22 0 30 -14.5t11 -44.5q1 -15 1.5 -38t1 -50.5
t0.5 -57v-58.5q0 -20 21 -20q13 0 26.5 0.5t23.5 -0.5q14 -2 20.5 -8.5t6.5 -20.5q0 -18 -9 -26.5t-29 -11.5q-9 -1 -22 -3l-26 -4q-12 -2 -16 -10t-6 -25q-1 -18 -2.5 -40t-5.5 -36q-7 -38 -44 -38z" />
    <glyph glyph-name="onehalf" unicode="&#xbd;" horiz-adv-x="1035" 
d="M156 653q-27 0 -43 16.5t-16 44.5q0 21 2.5 56t6.5 76t7.5 80.5t6 71.5t2.5 49q0 24 -14 26q-17 2 -38 -2.5t-28 -3.5q-9 3 -13.5 9.5t-4.5 15.5q0 18 26.5 38t61 33.5t57.5 13.5q31 0 46 -24t20 -59.5t5 -72.5q0 -23 -1.5 -54t-4 -65t-6 -68t-6.5 -64t-6 -52
q-11 -65 -60 -65zM-89 6q-9 0 -17.5 3t-13.5 10.5t-5 18.5q0 18 30 56t79.5 90.5t108.5 112.5q27 25 72 71.5t102 106.5t119.5 127t124.5 133.5t118 127.5t100 107.5t69 71.5q30 31 58.5 58.5t54.5 45t44 17.5q6 0 11 -1.5t8.5 -4t5.5 -7.5t2 -12q0 -17 -19 -44.5t-46.5 -59
t-53.5 -59.5q-42 -46 -105.5 -114.5t-139.5 -150.5t-157.5 -170t-161 -173.5t-149.5 -158.5q-39 -41 -87 -88t-89.5 -80.5t-62.5 -33.5zM697 -16q-40 4 -70 17t-30 48q0 20 7.5 37t33.5 36q29 23 79 56.5t94 68.5q32 23 52 48.5t20 47.5q0 33 -22 46.5t-61 13.5
q-36 0 -62 -10.5t-40 -22.5q-20 -15 -34.5 -30.5t-29.5 -15.5q-13 0 -25 10t-12 27q0 31 26.5 61.5t73.5 50.5t108 20q53 0 95.5 -12.5t67.5 -41.5t25 -79q0 -38 -21.5 -68t-57.5 -62q-25 -22 -52 -42.5t-51 -37.5t-42 -29q-24 -16 -24 -29q0 -8 17.5 -9t33.5 -1
q30 0 78.5 6.5t76.5 6.5q20 0 32 -9t12 -25q0 -28 -20.5 -44.5t-60 -23.5t-97.5 -10q-26 0 -60.5 -0.5t-59.5 1.5z" />
    <glyph glyph-name="threequarters" unicode="&#xbe;" horiz-adv-x="1241" 
d="M218 646q-52 0 -99 10t-76.5 28t-29.5 40q0 27 15.5 35t28.5 8q24 0 66.5 -16t97.5 -16q58 0 96.5 16.5t38.5 45.5q0 32 -27.5 47t-69.5 22q-37 7 -59.5 20.5t-22.5 34.5q0 22 17.5 31.5t44.5 17.5q37 9 63 24.5t26 42.5q0 31 -32.5 41.5t-82.5 10.5q-51 0 -90.5 -9
t-57.5 -9q-19 0 -31 11.5t-12 27.5q0 21 30 36t77 23t95 8q109 0 161 -34t52 -89q0 -34 -23 -59t-65 -40q-17 -7 -26 -13.5t-9 -14.5q0 -10 14 -16t32 -12q42 -11 75 -35.5t33 -74.5q0 -45 -28 -77t-83 -49t-139 -17zM115 6q-9 0 -17.5 3t-13.5 10.5t-5 18.5q0 18 30 56
t79.5 90.5t108.5 112.5q27 25 72 71.5t102 106.5t119.5 127t124.5 133.5t118 127.5t100 107.5t69 71.5q30 31 58.5 58.5t54.5 45t44 17.5q6 0 11 -1.5t8.5 -4t5.5 -7.5t2 -12q0 -17 -19 -44.5t-46.5 -59t-53.5 -59.5q-42 -46 -105.5 -114.5t-139.5 -150.5t-157.5 -170
t-161 -173.5t-149.5 -158.5q-39 -41 -87 -88t-89.5 -80.5t-62.5 -33.5zM1071 -18q-19 0 -32 9t-13 32q0 9 0.5 22t0.5 26v22q-1 18 -10.5 26t-41.5 8q-34 1 -65 2.5t-57 6.5q-32 7 -44.5 32.5t-12.5 61.5t14.5 87t27.5 86q11 31 24.5 50.5t38.5 19.5q14 0 22 -7.5t8 -24.5
q0 -14 -5.5 -35t-13 -46t-13 -50t-5.5 -47q0 -26 7 -35t21 -13t37 -5t41 -1q22 0 30 6.5t8 23.5q0 10 1 36t3 57.5t3.5 59.5t2.5 39q3 23 13 40t28 17q22 0 30 -14.5t11 -44.5q1 -15 1.5 -38t1 -50.5t0.5 -57v-58.5q0 -20 21 -20q13 0 26.5 0.5t23.5 -0.5q14 -2 20.5 -8.5
t6.5 -20.5q0 -18 -9 -26.5t-29 -11.5q-9 -1 -22 -3l-26 -4q-12 -2 -16 -10t-6 -25q-1 -18 -2.5 -40t-5.5 -36q-7 -38 -44 -38z" />
    <glyph glyph-name="questiondown" unicode="&#xbf;" horiz-adv-x="1026" 
d="M611 530q29 0 49.5 -10t31.5 -34.5t11 -66.5q0 -69 -29.5 -127.5t-82 -108t-123.5 -93.5q-61 -37 -109.5 -74t-76.5 -76.5t-28 -87.5q0 -52 33.5 -85.5t92.5 -50.5t136 -17q58 0 118.5 14.5t112.5 40.5t84 62q25 17 48 26t47 9q22 0 38.5 -12.5t16.5 -43.5q0 -21 -11 -40
t-29 -37q-45 -53 -111.5 -91.5t-148 -59.5t-171.5 -21q-102 0 -186 20.5t-143.5 60t-92 95.5t-32.5 127q0 76 32 132.5t85.5 100.5t118.5 80q52 31 101 64.5t83 77.5t43 104q12 61 29.5 91.5t62.5 30.5zM637 866q50 0 81 -25.5t31 -68.5q0 -47 -32.5 -77t-79.5 -30
q-31 0 -60.5 9t-48 31t-18.5 59t28 69.5t99 32.5z" />
    <glyph glyph-name="Agrave" unicode="&#xc0;" horiz-adv-x="1469" 
d="M1279 -40q-41 0 -70.5 20.5t-52.5 61.5q-9 27 -20 63.5t-21.5 74.5t-21.5 72.5t-22 57.5q-14 32 -34.5 47t-60.5 21q-20 2 -60.5 5.5t-88.5 6t-90 2.5q-64 0 -130 -3t-114 -8q-41 -4 -61.5 -16.5t-33.5 -43.5q-13 -29 -27 -70t-28 -86t-28 -88q-21 -48 -50.5 -72.5
t-81.5 -24.5q-40 0 -67 13t-40 43t-13 79q0 46 13 110.5t35.5 139.5t50 152t56 148.5t54.5 129t45 91.5q34 63 77.5 121t97 103.5t117.5 72t141 26.5q124 0 223.5 -75t176.5 -199q29 -42 58.5 -108.5t58.5 -147t54 -166.5t44.5 -169t30 -153t10.5 -118q0 -62 -34 -87.5
t-93 -25.5zM989 551q22 4 29 17t7 41q0 31 -10.5 76.5t-28.5 96t-42 94.5q-34 65 -80 108.5t-99 43.5q-58 0 -110.5 -45.5t-92.5 -115.5q-17 -28 -35 -64t-33 -74t-24.5 -71.5t-9.5 -56.5q0 -30 24 -41.5t77 -11.5h194h139.5t94.5 3zM794 1296q-47 0 -122 28t-147 65
q-67 35 -104 68.5t-37 72.5q0 33 18 49t49 16q35 0 90.5 -23.5t109.5 -57.5q83 -52 138 -99t55 -76q0 -23 -14 -33t-36 -10z" />
    <glyph glyph-name="Aacute" unicode="&#xc1;" horiz-adv-x="1493" 
d="M1279 -40q-41 0 -70.5 20.5t-52.5 61.5q-9 27 -20 63.5t-21.5 74.5t-21.5 72.5t-22 57.5q-14 32 -34.5 47t-60.5 21q-20 2 -60.5 5.5t-88.5 6t-90 2.5q-64 0 -130 -3t-114 -8q-41 -4 -61.5 -16.5t-33.5 -43.5q-13 -29 -27 -70t-28 -86t-28 -88q-21 -48 -50.5 -72.5
t-81.5 -24.5q-40 0 -67 13t-40 43t-13 79q0 46 13 110.5t35.5 139.5t50 152t56 148.5t54.5 129t45 91.5q34 63 77.5 121t97 103.5t117.5 72t141 26.5q124 0 223.5 -75t176.5 -199q29 -42 58.5 -108.5t58.5 -147t54 -166.5t44.5 -169t30 -153t10.5 -118q0 -62 -34 -87.5
t-93 -25.5zM989 551q22 4 29 17t7 41q0 31 -10.5 76.5t-28.5 96t-42 94.5q-34 65 -80 108.5t-99 43.5q-58 0 -110.5 -45.5t-92.5 -115.5q-17 -28 -35 -64t-33 -74t-24.5 -71.5t-9.5 -56.5q0 -30 24 -41.5t77 -11.5h194h139.5t94.5 3zM607 1334q-22 0 -36 10t-14 33
q0 29 55 76t138 99q54 34 109.5 57.5t90.5 23.5q31 0 49 -16t18 -49q0 -39 -37.5 -72.5t-104.5 -68.5q-71 -37 -146 -65t-122 -28z" />
    <glyph glyph-name="Acircumflex" unicode="&#xc2;" horiz-adv-x="1469" 
d="M1279 -40q-41 0 -70.5 20.5t-52.5 61.5q-9 27 -20 63.5t-21.5 74.5t-21.5 72.5t-22 57.5q-14 32 -34.5 47t-60.5 21q-20 2 -60.5 5.5t-88.5 6t-90 2.5q-64 0 -130 -3t-114 -8q-41 -4 -61.5 -16.5t-33.5 -43.5q-13 -29 -27 -70t-28 -86t-28 -88q-21 -48 -50.5 -72.5
t-81.5 -24.5q-40 0 -67 13t-40 43t-13 79q0 46 13 110.5t35.5 139.5t50 152t56 148.5t54.5 129t45 91.5q34 63 77.5 121t97 103.5t117.5 72t141 26.5q124 0 223.5 -75t176.5 -199q29 -42 58.5 -108.5t58.5 -147t54 -166.5t44.5 -169t30 -153t10.5 -118q0 -62 -34 -87.5
t-93 -25.5zM989 551q22 4 29 17t7 41q0 31 -10.5 76.5t-28.5 96t-42 94.5q-34 65 -80 108.5t-99 43.5q-58 0 -110.5 -45.5t-92.5 -115.5q-17 -28 -35 -64t-33 -74t-24.5 -71.5t-9.5 -56.5q0 -30 24 -41.5t77 -11.5h194h139.5t94.5 3zM474 1280q-50 0 -50 51q0 33 36.5 82
t92.5 97t115 81t103 33q41 0 93.5 -32t102 -79t81.5 -94.5t32 -77.5q0 -25 -12.5 -38.5t-34.5 -13.5q-33 0 -57 23t-56 69q-22 31 -50 59.5t-56 46.5t-50 18q-19 0 -49 -21.5t-63 -54t-61 -65.5q-37 -44 -61.5 -64t-55.5 -20z" />
    <glyph glyph-name="Atilde" unicode="&#xc3;" horiz-adv-x="1469" 
d="M1279 -40q-41 0 -70.5 20.5t-52.5 61.5q-9 27 -20 63.5t-21.5 74.5t-21.5 72.5t-22 57.5q-14 32 -34.5 47t-60.5 21q-20 2 -60.5 5.5t-88.5 6t-90 2.5q-64 0 -130 -3t-114 -8q-41 -4 -61.5 -16.5t-33.5 -43.5q-13 -29 -27 -70t-28 -86t-28 -88q-21 -48 -50.5 -72.5
t-81.5 -24.5q-40 0 -67 13t-40 43t-13 79q0 46 13 110.5t35.5 139.5t50 152t56 148.5t54.5 129t45 91.5q34 63 77.5 121t97 103.5t117.5 72t141 26.5q124 0 223.5 -75t176.5 -199q29 -42 58.5 -108.5t58.5 -147t54 -166.5t44.5 -169t30 -153t10.5 -118q0 -62 -34 -87.5
t-93 -25.5zM989 551q22 4 29 17t7 41q0 31 -10.5 76.5t-28.5 96t-42 94.5q-34 65 -80 108.5t-99 43.5q-58 0 -110.5 -45.5t-92.5 -115.5q-17 -28 -35 -64t-33 -74t-24.5 -71.5t-9.5 -56.5q0 -30 24 -41.5t77 -11.5h194h139.5t94.5 3zM514 1290q-19 0 -31.5 11.5t-12.5 34.5
q0 42 27 85t70 72t88 29q42 0 74 -22t57.5 -50.5t49.5 -50.5t51 -22q33 0 52.5 13.5t36.5 55.5q14 33 27 44.5t32 11.5q13 0 24.5 -10t11.5 -36q0 -47 -26 -87t-66.5 -64t-86.5 -24q-44 0 -77 21t-59.5 48.5t-50 48.5t-48.5 21q-26 0 -48 -23.5t-42 -62.5q-12 -25 -25 -34.5
t-28 -9.5z" />
    <glyph glyph-name="Adieresis" unicode="&#xc4;" horiz-adv-x="1469" 
d="M1279 -40q-41 0 -70.5 20.5t-52.5 61.5q-9 27 -20 63.5t-21.5 74.5t-21.5 72.5t-22 57.5q-14 32 -34.5 47t-60.5 21q-20 2 -60.5 5.5t-88.5 6t-90 2.5q-64 0 -130 -3t-114 -8q-41 -4 -61.5 -16.5t-33.5 -43.5q-13 -29 -27 -70t-28 -86t-28 -88q-21 -48 -50.5 -72.5
t-81.5 -24.5q-40 0 -67 13t-40 43t-13 79q0 46 13 110.5t35.5 139.5t50 152t56 148.5t54.5 129t45 91.5q34 63 77.5 121t97 103.5t117.5 72t141 26.5q124 0 223.5 -75t176.5 -199q29 -42 58.5 -108.5t58.5 -147t54 -166.5t44.5 -169t30 -153t10.5 -118q0 -62 -34 -87.5
t-93 -25.5zM989 551q22 4 29 17t7 41q0 31 -10.5 76.5t-28.5 96t-42 94.5q-34 65 -80 108.5t-99 43.5q-58 0 -110.5 -45.5t-92.5 -115.5q-17 -28 -35 -64t-33 -74t-24.5 -71.5t-9.5 -56.5q0 -30 24 -41.5t77 -11.5h194h139.5t94.5 3zM571 1281q-72 0 -102.5 27.5t-30.5 69.5
q0 50 38.5 78t78.5 28q32 0 60.5 -9.5t46 -32.5t17.5 -65q0 -40 -24.5 -68t-83.5 -28zM972 1283q-51 0 -84 28t-33 70q0 51 38 83t93 32q51 0 76 -30t25 -68q0 -48 -31.5 -81.5t-83.5 -33.5z" />
    <glyph glyph-name="Aring" unicode="&#xc5;" horiz-adv-x="1469" 
d="M1279 -40q-41 0 -70.5 20.5t-52.5 61.5q-9 27 -20 63.5t-21.5 74.5t-21.5 72.5t-22 57.5q-14 32 -34.5 47t-60.5 21q-20 2 -60.5 5.5t-88.5 6t-90 2.5q-64 0 -130 -3t-114 -8q-41 -4 -61.5 -16.5t-33.5 -43.5q-13 -29 -27 -70t-28 -86t-28 -88q-21 -48 -50.5 -72.5
t-81.5 -24.5q-40 0 -67 13t-40 43t-13 79q0 46 13 110.5t35.5 139.5t50 152t56 148.5t54.5 129t45 91.5q34 63 77.5 121t97 103.5t117.5 72t141 26.5q124 0 223.5 -75t176.5 -199q29 -42 58.5 -108.5t58.5 -147t54 -166.5t44.5 -169t30 -153t10.5 -118q0 -62 -34 -87.5
t-93 -25.5zM989 551q22 4 29 17t7 41q0 31 -10.5 76.5t-28.5 96t-42 94.5q-34 65 -80 108.5t-99 43.5q-58 0 -110.5 -45.5t-92.5 -115.5q-17 -28 -35 -64t-33 -74t-24.5 -71.5t-9.5 -56.5q0 -30 24 -41.5t77 -11.5h194h139.5t94.5 3zM752 1270q-90 0 -151.5 43.5
t-61.5 115.5t60 117.5t167 45.5q94 0 145.5 -42.5t51.5 -108.5q0 -55 -31.5 -93t-80.5 -58t-99 -20zM753 1357q53 0 76.5 26t23.5 60q0 28 -26.5 50.5t-76.5 22.5q-36 0 -66.5 -18t-30.5 -57q0 -43 31 -63.5t69 -20.5z" />
    <glyph glyph-name="AE" unicode="&#xc6;" horiz-adv-x="2126" 
d="M135 -20q-23 0 -39.5 8t-24.5 25.5t-8 46.5q0 32 15.5 90t42 129.5t59 147t66.5 144t63 118.5q80 144 174 261.5t202 188t227 70.5q92 0 155 -38.5t102 -106t60.5 -153t29.5 -181.5t8 -190q0 -45 -13.5 -81t-45.5 -57t-91 -21q-82 0 -188 3.5t-212.5 6.5t-190.5 3
q-35 0 -69.5 -35t-68 -86t-66.5 -102q-47 -83 -79.5 -123.5t-57.5 -54t-50 -13.5zM782 543q91 0 147.5 1t86.5 4t41 10t11 19q0 69 -6 145.5t-24 143.5t-52.5 108.5t-91.5 41.5q-40 0 -83.5 -23.5t-85 -63.5t-78.5 -88t-65 -97t-44 -91t-16 -70q0 -13 8.5 -21t35.5 -12
t79 -5.5t137 -1.5zM1494 -29q-128 0 -214.5 46t-134.5 139t-63 235q-3 34 -5.5 70.5t-3.5 76t-1.5 81.5t-0.5 86q0 171 33.5 282.5t103.5 174.5t180.5 89t263.5 26q75 0 143.5 -6.5t121.5 -19.5t84 -32.5t31 -46.5q0 -28 -17 -44.5t-43 -21.5q-31 -4 -81.5 -1.5t-111.5 5.5
t-124 3q-90 0 -151.5 -13.5t-98 -44.5t-53 -84t-16.5 -131q0 -40 10.5 -60.5t50 -27t124.5 -6.5q21 0 52 0.5t64.5 1.5t63 1h47.5q75 0 104 -19t29 -56q0 -53 -35 -72.5t-92 -19.5h-54.5t-62.5 -0.5t-62.5 -0.5h-53.5q-90 0 -132.5 -5.5t-55 -24t-12.5 -58.5
q0 -66 5.5 -118.5t20.5 -91t42.5 -63.5t70.5 -37.5t105 -12.5q75 0 148.5 5t132.5 9.5t92 4.5q45 0 65.5 -18.5t20.5 -54.5q0 -40 -49.5 -68t-129 -45t-172.5 -24.5t-179 -7.5z" />
    <glyph glyph-name="Ccedilla" unicode="&#xc7;" horiz-adv-x="1205" 
d="M657 -57q-137 0 -247 38.5t-187.5 111.5t-118.5 178t-41 238q0 149 43.5 273t128 214.5t206.5 139.5t279 49q80 0 147.5 -16.5t117 -43.5t77 -60t27.5 -67q0 -41 -22 -61t-54 -20q-26 0 -47.5 12t-51.5 27.5t-79 27.5t-128 12q-66 0 -130 -28t-115 -83.5t-81.5 -137
t-30.5 -188.5q0 -81 21 -155t64.5 -131.5t110.5 -90.5t159 -33q70 0 120 18.5t86 43.5t65 43.5t56 18.5q53 0 73 -24.5t20 -68.5q0 -45 -34 -87.5t-96.5 -76t-148.5 -53.5t-189 -20zM715 -458q-51 0 -95 5t-71 20t-27 43q0 30 19 41t44 11q20 0 39 -5t41 -10.5t51 -5.5
q52 0 97 8.5t72.5 29t27.5 54.5q0 32 -15.5 45.5t-47.5 13.5q-37 0 -68 -12.5t-59.5 -24.5t-60.5 -12q-35 0 -60.5 15t-25.5 67q0 22 6 51t14.5 56.5t15.5 41.5q11 24 30 38.5t54 14.5q27 0 40.5 -14t13.5 -33q0 -23 -12 -60t-12 -68q0 -22 15 -22q17 0 39 13.5t53.5 27
t77.5 13.5q38 0 69 -16t49.5 -47.5t18.5 -76.5q0 -100 -85 -151t-248 -51z" />
    <glyph glyph-name="Egrave" unicode="&#xc8;" horiz-adv-x="1137" 
d="M505 -62q-127 0 -214 46t-134.5 139t-62.5 235q-4 34 -6 70.5t-3.5 76t-1.5 81.5v86q0 171 33 282.5t103.5 174.5t181 89t263.5 26q75 0 143.5 -6.5t121.5 -19.5t83.5 -32.5t30.5 -46.5q0 -28 -16.5 -44.5t-42.5 -21.5q-31 -4 -82 -1.5t-112 5.5t-124 3q-90 0 -151 -13.5
t-98 -44.5t-53 -84t-16 -131q0 -40 10.5 -60.5t49.5 -27t125 -6.5q21 0 52 0.5t64.5 1.5t63 1h46.5q75 0 104 -19t29 -56q0 -53 -34.5 -72.5t-91.5 -19.5h-55t-62.5 -0.5t-62.5 -0.5h-54q-89 0 -132 -5.5t-55.5 -24t-12.5 -58.5q0 -66 6 -118.5t21 -91t42.5 -63.5
t70.5 -37.5t104 -12.5q76 0 149 5t132 9.5t92 4.5q45 0 66 -18.5t21 -54.5q0 -40 -49.5 -68t-129 -45t-172.5 -24.5t-180 -7.5zM615 1338q-47 0 -122 28t-147 65q-67 35 -104 68.5t-37 72.5q0 33 18 49t49 16q35 0 90.5 -23.5t109.5 -57.5q83 -52 138 -99t55 -76
q0 -23 -14 -33t-36 -10z" />
    <glyph glyph-name="Eacute" unicode="&#xc9;" horiz-adv-x="1137" 
d="M505 -62q-127 0 -214 46t-134.5 139t-62.5 235q-4 34 -6 70.5t-3.5 76t-1.5 81.5v86q0 171 33 282.5t103.5 174.5t181 89t263.5 26q75 0 143.5 -6.5t121.5 -19.5t83.5 -32.5t30.5 -46.5q0 -28 -16.5 -44.5t-42.5 -21.5q-31 -4 -82 -1.5t-112 5.5t-124 3q-90 0 -151 -13.5
t-98 -44.5t-53 -84t-16 -131q0 -40 10.5 -60.5t49.5 -27t125 -6.5q21 0 52 0.5t64.5 1.5t63 1h46.5q75 0 104 -19t29 -56q0 -53 -34.5 -72.5t-91.5 -19.5h-55t-62.5 -0.5t-62.5 -0.5h-54q-89 0 -132 -5.5t-55.5 -24t-12.5 -58.5q0 -66 6 -118.5t21 -91t42.5 -63.5
t70.5 -37.5t104 -12.5q76 0 149 5t132 9.5t92 4.5q45 0 66 -18.5t21 -54.5q0 -40 -49.5 -68t-129 -45t-172.5 -24.5t-180 -7.5zM521 1305q-22 0 -36 10t-14 33q0 30 55 76.5t138 98.5q54 34 109.5 57.5t90.5 23.5q31 0 49 -16t18 -49q0 -39 -37.5 -72.5t-104.5 -68.5
q-71 -37 -146 -65t-122 -28z" />
    <glyph glyph-name="Ecircumflex" unicode="&#xca;" horiz-adv-x="1137" 
d="M505 -62q-127 0 -214 46t-134.5 139t-62.5 235q-4 34 -6 70.5t-3.5 76t-1.5 81.5v86q0 171 33 282.5t103.5 174.5t181 89t263.5 26q75 0 143.5 -6.5t121.5 -19.5t83.5 -32.5t30.5 -46.5q0 -28 -16.5 -44.5t-42.5 -21.5q-31 -4 -82 -1.5t-112 5.5t-124 3q-90 0 -151 -13.5
t-98 -44.5t-53 -84t-16 -131q0 -40 10.5 -60.5t49.5 -27t125 -6.5q21 0 52 0.5t64.5 1.5t63 1h46.5q75 0 104 -19t29 -56q0 -53 -34.5 -72.5t-91.5 -19.5h-55t-62.5 -0.5t-62.5 -0.5h-54q-89 0 -132 -5.5t-55.5 -24t-12.5 -58.5q0 -66 6 -118.5t21 -91t42.5 -63.5
t70.5 -37.5t104 -12.5q76 0 149 5t132 9.5t92 4.5q45 0 66 -18.5t21 -54.5q0 -40 -49.5 -68t-129 -45t-172.5 -24.5t-180 -7.5zM295 1322q-50 0 -50 51q0 33 36.5 82t92.5 97t115 81t103 33q41 0 93.5 -32t102 -79t81.5 -94.5t32 -77.5q0 -25 -12.5 -38.5t-34.5 -13.5
q-33 0 -57 23t-56 69q-22 31 -50 59.5t-56 46.5t-50 18q-19 0 -49 -21.5t-63 -54t-61 -65.5q-37 -44 -61.5 -64t-55.5 -20z" />
    <glyph glyph-name="Edieresis" unicode="&#xcb;" horiz-adv-x="1137" 
d="M505 -62q-127 0 -214 46t-134.5 139t-62.5 235q-4 34 -6 70.5t-3.5 76t-1.5 81.5v86q0 171 33 282.5t103.5 174.5t181 89t263.5 26q75 0 143.5 -6.5t121.5 -19.5t83.5 -32.5t30.5 -46.5q0 -28 -16.5 -44.5t-42.5 -21.5q-31 -4 -82 -1.5t-112 5.5t-124 3q-90 0 -151 -13.5
t-98 -44.5t-53 -84t-16 -131q0 -40 10.5 -60.5t49.5 -27t125 -6.5q21 0 52 0.5t64.5 1.5t63 1h46.5q75 0 104 -19t29 -56q0 -53 -34.5 -72.5t-91.5 -19.5h-55t-62.5 -0.5t-62.5 -0.5h-54q-89 0 -132 -5.5t-55.5 -24t-12.5 -58.5q0 -66 6 -118.5t21 -91t42.5 -63.5
t70.5 -37.5t104 -12.5q76 0 149 5t132 9.5t92 4.5q45 0 66 -18.5t21 -54.5q0 -40 -49.5 -68t-129 -45t-172.5 -24.5t-180 -7.5zM392 1323q-72 0 -102.5 27.5t-30.5 69.5q0 50 38.5 78t78.5 28q32 0 60.5 -9.5t46 -32.5t17.5 -65q0 -40 -24.5 -68t-83.5 -28zM793 1325
q-51 0 -84 28t-33 70q0 51 38 83t93 32q51 0 76 -30t25 -68q0 -48 -31.5 -81.5t-83.5 -33.5z" />
    <glyph glyph-name="Igrave" unicode="&#xcc;" horiz-adv-x="479" 
d="M232 -13q-66 0 -97.5 48t-31.5 124v90t1 133t2.5 159t4 169t6.5 162t9 137q11 97 39 137t91 40q53 0 77 -40.5t31 -110.5q2 -43 4 -108t3 -142t1.5 -157.5t0.5 -155v-135t-1 -96.5q0 -95 -13 -150.5t-42.5 -79.5t-84.5 -24zM298 1231q-47 0 -122 28t-146 65
q-68 35 -105 68.5t-37 72.5q0 33 18 49t49 16q35 0 90.5 -23.5t109.5 -57.5q83 -52 138 -99t55 -76q0 -23 -14 -33t-36 -10z" />
    <glyph glyph-name="Iacute" unicode="&#xcd;" horiz-adv-x="479" 
d="M232 -13q-66 0 -97.5 48t-31.5 124v90t1 133t2.5 159t4 169t6.5 162t9 137q11 97 39 137t91 40q53 0 77 -40.5t31 -110.5q2 -43 4 -108t3 -142t1.5 -157.5t0.5 -155v-135t-1 -96.5q0 -95 -13 -150.5t-42.5 -79.5t-84.5 -24zM226 1213q-22 0 -36 10.5t-14 33.5
q0 29 55.5 75.5t137.5 98.5q54 34 109.5 57.5t90.5 23.5q31 0 49 -16t18 -49q0 -39 -37 -72.5t-104 -68.5q-72 -37 -147 -65t-122 -28z" />
    <glyph glyph-name="Icircumflex" unicode="&#xce;" horiz-adv-x="479" 
d="M232 -13q-66 0 -97.5 48t-31.5 124v90t1 133t2.5 159t4 169t6.5 162t9 137q11 97 39 137t91 40q53 0 77 -40.5t31 -110.5q2 -43 4 -108t3 -142t1.5 -157.5t0.5 -155v-135t-1 -96.5q0 -95 -13 -150.5t-42.5 -79.5t-84.5 -24zM-17 1226q-51 0 -51 52q0 33 37 82t93 97
t115 81t102 33q41 0 94 -32t102.5 -79.5t81.5 -94.5t32 -78q0 -24 -13 -38t-34 -14q-33 0 -57 23.5t-57 69.5q-21 30 -49 58.5t-56 47t-50 18.5q-20 0 -50 -22t-62.5 -54t-60.5 -66q-38 -43 -62.5 -63.5t-54.5 -20.5z" />
    <glyph glyph-name="Idieresis" unicode="&#xcf;" horiz-adv-x="479" 
d="M232 -13q-66 0 -97.5 48t-31.5 124v90t1 133t2.5 159t4 169t6.5 162t9 137q11 97 39 137t91 40q53 0 77 -40.5t31 -110.5q2 -43 4 -108t3 -142t1.5 -157.5t0.5 -155v-135t-1 -96.5q0 -95 -13 -150.5t-42.5 -79.5t-84.5 -24zM64 1226q-72 0 -102.5 27.5t-30.5 69.5
q0 50 38.5 78t78.5 28q32 0 60.5 -9.5t46 -32.5t17.5 -65q0 -40 -24.5 -68t-83.5 -28zM465 1228q-51 0 -84 28t-33 70q0 51 38 83t93 32q51 0 76 -30t25 -68q0 -48 -31.5 -81.5t-83.5 -33.5z" />
    <glyph glyph-name="Eth" unicode="&#xd0;" horiz-adv-x="1338" 
d="M234 564q-106 0 -164 3.5t-80 13.5t-22 31q0 26 24.5 38.5t90 17t189.5 4.5q104 0 176 -1.5t116 -7t63.5 -17t19.5 -31.5q0 -17 -21.5 -27.5t-70 -15.5t-127.5 -6.5t-194 -1.5zM349 -21q-77 0 -125.5 23.5t-75.5 71.5t-40 120q-14 72 -19.5 168.5t-5.5 215.5t6 224
t23 185q24 108 79.5 169.5t165.5 61.5q158 0 297.5 -38t253.5 -102.5t196.5 -146t127 -169t44.5 -169.5q0 -97 -44.5 -188t-126.5 -168.5t-196.5 -135t-256 -90t-303.5 -32.5zM455 218q110 0 198.5 24t155.5 64t112.5 91t68.5 106.5t23 107.5q0 46 -27 97.5t-78.5 101
t-123.5 89.5t-162.5 64.5t-195.5 24.5q-30 0 -48 -25.5t-27 -70.5q-9 -40 -13.5 -92.5t-4.5 -110.5q0 -130 4.5 -222.5t18.5 -149.5q25 -99 99 -99z" />
    <glyph glyph-name="Ntilde" unicode="&#xd1;" horiz-adv-x="1438" 
d="M257 -48q-41 0 -67.5 25.5t-44.5 71.5q-9 24 -17 79.5t-15 129.5t-12.5 154.5t-9.5 157.5t-6 138.5t-2 94.5q0 117 15.5 198.5t56.5 125t119 43.5q54 0 107 -43.5t124 -137.5t176 -245q140 -206 225 -305.5t122 -99.5q18 0 29.5 9t18 36.5t8.5 83.5q2 24 2 73t-0.5 110.5
t-1.5 126.5t-1 123t0.5 99t2.5 55q12 60 39 83t75 23q36 0 60.5 -12.5t40 -37t23 -63t9.5 -90.5q1 -30 2 -87t2 -129.5t0.5 -150.5t-2 -151.5t-4.5 -133.5t-9 -96q-12 -77 -36.5 -128.5t-65 -77t-103.5 -25.5q-57 0 -125 57.5t-146.5 159t-167.5 229.5q-57 82 -106 151.5
t-86.5 121t-63.5 80t-39 28.5q-23 0 -32 -26.5t-9 -106.5q0 -46 2 -101.5t5 -114.5t7 -118.5t6 -115t2.5 -102.5t-2.5 -81q-11 -51 -37 -69.5t-68 -18.5zM474 1263q-19 0 -31.5 11.5t-12.5 34.5q0 42 27 85t70 72t88 29q42 0 74 -22t57.5 -50.5t49.5 -50.5t51 -22
q33 0 52.5 13.5t36.5 55.5q14 33 27 44.5t32 11.5q13 0 24.5 -10t11.5 -36q0 -47 -26 -87t-66.5 -64t-86.5 -24q-44 0 -77 21t-59.5 48.5t-50 48.5t-48.5 21q-26 0 -48 -23.5t-42 -62.5q-12 -25 -25 -34.5t-28 -9.5z" />
    <glyph glyph-name="Ograve" unicode="&#xd2;" horiz-adv-x="1578" 
d="M716 -104q-144 0 -263.5 44.5t-207 128.5t-135 202t-47.5 265q0 138 43 245t118 185t170.5 128t201.5 74.5t210 24.5q153 0 282 -45t225 -128.5t149 -200t53 -260.5q0 -159 -60 -282.5t-169 -208.5t-254.5 -128.5t-315.5 -43.5zM763 158q175 0 280 56t152 149t47 204
q0 102 -33.5 182t-93.5 135t-139 83.5t-170 28.5q-89 0 -170 -27t-144 -77t-99.5 -121t-36.5 -159q0 -105 30.5 -188.5t85 -143t129 -91t162.5 -31.5zM847 1283q-47 0 -122 28t-147 65q-67 35 -104 68.5t-37 72.5q0 33 18 49t49 16q35 0 90.5 -23.5t109.5 -57.5
q83 -52 138 -99t55 -76q0 -23 -14 -33t-36 -10z" />
    <glyph glyph-name="Oacute" unicode="&#xd3;" horiz-adv-x="1578" 
d="M716 -104q-144 0 -263.5 44.5t-207 128.5t-135 202t-47.5 265q0 138 43 245t118 185t170.5 128t201.5 74.5t210 24.5q153 0 282 -45t225 -128.5t149 -200t53 -260.5q0 -159 -60 -282.5t-169 -208.5t-254.5 -128.5t-315.5 -43.5zM763 158q175 0 280 56t152 149t47 204
q0 102 -33.5 182t-93.5 135t-139 83.5t-170 28.5q-89 0 -170 -27t-144 -77t-99.5 -121t-36.5 -159q0 -105 30.5 -188.5t85 -143t129 -91t162.5 -31.5zM753 1250q-22 0 -36 10t-14 33q0 30 55 76.5t138 98.5q54 34 109.5 57.5t90.5 23.5q31 0 49 -16t18 -49
q0 -39 -37.5 -72.5t-104.5 -68.5q-71 -37 -146 -65t-122 -28z" />
    <glyph glyph-name="Ocircumflex" unicode="&#xd4;" horiz-adv-x="1578" 
d="M716 -104q-144 0 -263.5 44.5t-207 128.5t-135 202t-47.5 265q0 138 43 245t118 185t170.5 128t201.5 74.5t210 24.5q153 0 282 -45t225 -128.5t149 -200t53 -260.5q0 -159 -60 -282.5t-169 -208.5t-254.5 -128.5t-315.5 -43.5zM763 158q175 0 280 56t152 149t47 204
q0 102 -33.5 182t-93.5 135t-139 83.5t-170 28.5q-89 0 -170 -27t-144 -77t-99.5 -121t-36.5 -159q0 -105 30.5 -188.5t85 -143t129 -91t162.5 -31.5zM527 1267q-50 0 -50 51q0 33 36.5 82t92.5 97t115 81t103 33q41 0 93.5 -32t102 -79t81.5 -94.5t32 -77.5
q0 -25 -12.5 -38.5t-34.5 -13.5q-33 0 -57 23t-56 69q-22 31 -50 59.5t-56 46.5t-50 18q-19 0 -49 -21.5t-63 -54t-61 -65.5q-37 -44 -61.5 -64t-55.5 -20z" />
    <glyph glyph-name="Otilde" unicode="&#xd5;" horiz-adv-x="1578" 
d="M716 -104q-144 0 -263.5 44.5t-207 128.5t-135 202t-47.5 265q0 138 43 245t118 185t170.5 128t201.5 74.5t210 24.5q153 0 282 -45t225 -128.5t149 -200t53 -260.5q0 -159 -60 -282.5t-169 -208.5t-254.5 -128.5t-315.5 -43.5zM763 158q175 0 280 56t152 149t47 204
q0 102 -33.5 182t-93.5 135t-139 83.5t-170 28.5q-89 0 -170 -27t-144 -77t-99.5 -121t-36.5 -159q0 -105 30.5 -188.5t85 -143t129 -91t162.5 -31.5zM567 1277q-19 0 -31.5 11.5t-12.5 34.5q0 42 27 85t70 72t88 29q42 0 74 -22t57.5 -50.5t49.5 -50.5t51 -22
q33 0 52.5 13.5t36.5 55.5q14 33 27 44.5t32 11.5q13 0 24.5 -10t11.5 -36q0 -47 -26 -87t-66.5 -64t-86.5 -24q-44 0 -77 21t-59.5 48.5t-50 48.5t-48.5 21q-26 0 -48 -23.5t-42 -62.5q-12 -25 -25 -34.5t-28 -9.5z" />
    <glyph glyph-name="Odieresis" unicode="&#xd6;" horiz-adv-x="1578" 
d="M716 -104q-144 0 -263.5 44.5t-207 128.5t-135 202t-47.5 265q0 138 43 245t118 185t170.5 128t201.5 74.5t210 24.5q153 0 282 -45t225 -128.5t149 -200t53 -260.5q0 -159 -60 -282.5t-169 -208.5t-254.5 -128.5t-315.5 -43.5zM763 158q175 0 280 56t152 149t47 204
q0 102 -33.5 182t-93.5 135t-139 83.5t-170 28.5q-89 0 -170 -27t-144 -77t-99.5 -121t-36.5 -159q0 -105 30.5 -188.5t85 -143t129 -91t162.5 -31.5zM624 1268q-72 0 -102.5 27.5t-30.5 69.5q0 50 38.5 78t78.5 28q32 0 60.5 -9.5t46 -32.5t17.5 -65q0 -40 -24.5 -68
t-83.5 -28zM1025 1270q-51 0 -84 28t-33 70q0 51 38 83t93 32q51 0 76 -30t25 -68q0 -48 -31.5 -81.5t-83.5 -33.5z" />
    <glyph glyph-name="multiply" unicode="&#xd7;" horiz-adv-x="964" 
d="M58 197q-21 23 -21 53q0 19 13.5 44.5t50.5 62.5q45 49 103.5 107.5t121 120.5t123 122t112 111t86.5 87q62 63 100 89.5t65 26.5q30 0 58 -28q25 -25 25 -58q0 -31 -28.5 -73.5t-88.5 -100.5q-33 -32 -87 -85t-117.5 -115.5t-126 -124.5t-112.5 -113t-76 -79
q-41 -44 -72 -63t-56 -19q-19 0 -37.5 9t-35.5 26zM878 186q-12 -16 -26.5 -23.5t-30.5 -7.5q-28 0 -67.5 29.5t-97.5 86.5q-31 33 -84.5 85t-116 113.5t-124.5 122.5t-112.5 111.5t-77.5 80.5q-45 48 -66.5 85.5t-21.5 64.5q0 17 7 33t23 31q8 8 19.5 12.5t23.5 4.5
q23 0 56.5 -21.5t78.5 -65.5q48 -45 104.5 -100.5t115.5 -114.5t116 -115.5t106 -105.5t86 -84q63 -61 89 -96.5t26 -63.5q0 -15 -6.5 -30t-19.5 -32z" />
    <glyph glyph-name="Oslash" unicode="&#xd8;" horiz-adv-x="1586" 
d="M48 -196q-19 0 -35.5 8t-26.5 22.5t-10 33.5q0 28 30 70t78 90.5t101.5 95.5t102 85t78.5 59l102 -146q-21 -25 -61 -64.5t-90.5 -83.5t-101 -82.5t-95 -63t-72.5 -24.5zM1235 858l-120 121q17 20 53.5 58t82.5 83.5t92.5 87t85 68t58.5 26.5t36.5 -11t27 -29.5
t10.5 -41.5q0 -34 -36 -86.5t-89 -108t-108 -101t-93 -66.5zM716 -104q-144 0 -263.5 44.5t-207 128.5t-135 202t-47.5 265q0 138 43 245t118 185t170.5 128t201.5 74.5t210 24.5q153 0 282 -45t225 -128.5t149 -200t53 -260.5q0 -159 -60 -282.5t-169 -208.5t-254.5 -128.5
t-315.5 -43.5zM763 158q175 0 280 56t152 149t47 204q0 102 -33.5 182t-93.5 135t-139 83.5t-170 28.5q-89 0 -170 -27t-144 -77t-99.5 -121t-36.5 -159q0 -105 30.5 -188.5t85 -143t129 -91t162.5 -31.5z" />
    <glyph glyph-name="Ugrave" unicode="&#xd9;" horiz-adv-x="1309" 
d="M625 -37q-211 0 -339.5 112t-185.5 296q-11 38 -19.5 79t-14.5 84t-10 88.5t-6 92.5t-2 96q0 136 16 217.5t51.5 117t92.5 35.5q40 0 65 -30.5t37 -107t12 -215.5q0 -41 1 -81.5t4 -79t7 -75.5t10.5 -71t14.5 -64q30 -107 93 -172t175 -65q70 0 122.5 30t89.5 83t61 122
q13 40 22.5 84.5t15.5 92t9 97.5t3 100q0 130 14 204t44 105t77 31q50 0 76.5 -37t36 -118t9.5 -215q0 -47 -2.5 -93.5t-7 -91t-12 -87t-17.5 -83t-23 -79.5q-40 -121 -111.5 -211.5t-173.5 -140.5t-235 -50zM708 1302q-47 0 -122 28t-147 65q-67 35 -104 68.5t-37 72.5
q0 33 18 49t49 16q35 0 90.5 -23.5t109.5 -57.5q83 -52 138 -99t55 -76q0 -23 -14 -33t-36 -10z" />
    <glyph glyph-name="Uacute" unicode="&#xda;" horiz-adv-x="1309" 
d="M625 -37q-211 0 -339.5 112t-185.5 296q-11 38 -19.5 79t-14.5 84t-10 88.5t-6 92.5t-2 96q0 136 16 217.5t51.5 117t92.5 35.5q40 0 65 -30.5t37 -107t12 -215.5q0 -41 1 -81.5t4 -79t7 -75.5t10.5 -71t14.5 -64q30 -107 93 -172t175 -65q70 0 122.5 30t89.5 83t61 122
q13 40 22.5 84.5t15.5 92t9 97.5t3 100q0 130 14 204t44 105t77 31q50 0 76.5 -37t36 -118t9.5 -215q0 -47 -2.5 -93.5t-7 -91t-12 -87t-17.5 -83t-23 -79.5q-40 -121 -111.5 -211.5t-173.5 -140.5t-235 -50zM614 1269q-22 0 -36 10t-14 33q0 30 55 76.5t138 98.5
q54 34 109.5 57.5t90.5 23.5q31 0 49 -16t18 -49q0 -39 -37.5 -72.5t-104.5 -68.5q-71 -37 -146 -65t-122 -28z" />
    <glyph glyph-name="Ucircumflex" unicode="&#xdb;" horiz-adv-x="1309" 
d="M625 -37q-211 0 -339.5 112t-185.5 296q-11 38 -19.5 79t-14.5 84t-10 88.5t-6 92.5t-2 96q0 136 16 217.5t51.5 117t92.5 35.5q40 0 65 -30.5t37 -107t12 -215.5q0 -41 1 -81.5t4 -79t7 -75.5t10.5 -71t14.5 -64q30 -107 93 -172t175 -65q70 0 122.5 30t89.5 83t61 122
q13 40 22.5 84.5t15.5 92t9 97.5t3 100q0 130 14 204t44 105t77 31q50 0 76.5 -37t36 -118t9.5 -215q0 -47 -2.5 -93.5t-7 -91t-12 -87t-17.5 -83t-23 -79.5q-40 -121 -111.5 -211.5t-173.5 -140.5t-235 -50zM389 1286q-50 0 -50 51q0 33 36.5 82t92.5 97t115 81t103 33
q41 0 93.5 -32t102 -79t81.5 -94.5t32 -77.5q0 -25 -12.5 -38.5t-34.5 -13.5q-33 0 -57 23t-56 69q-22 31 -50 59.5t-56 46.5t-50 18q-19 0 -49 -21.5t-63 -54t-61 -65.5q-37 -44 -61.5 -64t-55.5 -20z" />
    <glyph glyph-name="Udieresis" unicode="&#xdc;" horiz-adv-x="1309" 
d="M625 -37q-211 0 -339.5 112t-185.5 296q-11 38 -19.5 79t-14.5 84t-10 88.5t-6 92.5t-2 96q0 136 16 217.5t51.5 117t92.5 35.5q40 0 65 -30.5t37 -107t12 -215.5q0 -41 1 -81.5t4 -79t7 -75.5t10.5 -71t14.5 -64q30 -107 93 -172t175 -65q70 0 122.5 30t89.5 83t61 122
q13 40 22.5 84.5t15.5 92t9 97.5t3 100q0 130 14 204t44 105t77 31q50 0 76.5 -37t36 -118t9.5 -215q0 -47 -2.5 -93.5t-7 -91t-12 -87t-17.5 -83t-23 -79.5q-40 -121 -111.5 -211.5t-173.5 -140.5t-235 -50zM485 1287q-72 0 -102.5 27.5t-30.5 69.5q0 50 38.5 78t78.5 28
q32 0 60.5 -9.5t46 -32.5t17.5 -65q0 -40 -24.5 -68t-83.5 -28zM886 1289q-51 0 -84 28t-33 70q0 51 38 83t93 32q51 0 76 -30t25 -68q0 -48 -31.5 -81.5t-83.5 -33.5z" />
    <glyph glyph-name="Yacute" unicode="&#xdd;" horiz-adv-x="1232" 
d="M585 -20q-56 0 -80 27.5t-34 85.5q-3 21 -4.5 48t-3 57t-3 60.5t-3.5 58.5q-4 61 -14 106t-52 73q-47 31 -91.5 61t-81.5 64q-42 39 -76 92t-57.5 113.5t-36.5 122.5t-13 116q0 44 17.5 75t48 47.5t69.5 16.5q33 0 59 -28.5t48 -94.5q12 -47 30 -96.5t41 -95.5
q29 -62 66 -113.5t82.5 -81.5t98.5 -30q48 0 94.5 29t89.5 75q55 60 99 136t69 141q32 71 58 104.5t58 33.5q37 0 65.5 -19t44.5 -50t16 -70q0 -48 -15 -104t-42 -114t-63.5 -111.5t-78.5 -95.5q-49 -49 -98.5 -84t-91.5 -62q-28 -18 -43.5 -34t-23.5 -35t-15 -48
q-3 -21 -6 -52t-6 -66.5t-6 -72t-7 -68.5q-7 -55 -34.5 -86t-73.5 -31zM561 1249q-22 0 -36 10t-14 33q0 30 55 76.5t138 98.5q54 34 109.5 57.5t90.5 23.5q31 0 49 -16t18 -49q0 -39 -37.5 -72.5t-104.5 -68.5q-71 -37 -146 -65t-122 -28z" />
    <glyph glyph-name="Thorn" unicode="&#xde;" horiz-adv-x="1063" 
d="M178 -48q-25 0 -50.5 21t-45 59.5t-29.5 89.5q-11 56 -17.5 127t-9.5 145t-3 137q0 84 2 178.5t6.5 175t10.5 122.5q9 59 27.5 97.5t44 58t55.5 19.5q38 0 64.5 -20.5t42 -77.5t17.5 -167q1 -27 27.5 -30t66 4t79.5 9q150 10 251 -11.5t163 -64.5t96 -99q25 -39 33 -97
t0 -116t-32 -100q-40 -72 -112 -112t-164 -57t-195 -20q-60 -1 -108.5 2t-77 -3.5t-28.5 -37.5q0 -99 -10 -148.5t-34.5 -66.5t-69.5 -17zM452 355q116 2 199.5 22t129 64.5t45.5 120.5q0 111 -96 163.5t-283 45.5q-29 -2 -62 -4.5t-57 -12.5t-29 -34q-6 -28 -9.5 -72.5
t-5 -93.5t0 -91.5t6.5 -65.5q4 -17 22.5 -26t44.5 -12.5t51.5 -4t42.5 0.5z" />
    <glyph glyph-name="germandbls" unicode="&#xdf;" horiz-adv-x="1061" 
d="M176 -42q-42 0 -68.5 18.5t-40.5 54.5t-19 89.5t-5 123.5q0 88 2.5 165.5t8 146t15 128t21.5 111.5t28 96.5t36 82.5q57 121 148 182t227 61q68 0 130 -20.5t111 -60.5t77.5 -98.5t28.5 -135.5q0 -85 -38 -145.5t-80 -107.5q-17 -19 -24.5 -33.5t-7.5 -26.5
q0 -18 17 -30.5t54 -26.5q57 -19 102.5 -54.5t72 -84.5t26.5 -110q0 -72 -35 -130t-94.5 -100t-132.5 -64.5t-149 -22.5q-35 0 -70.5 5.5t-59 22t-23.5 50.5q0 25 16 39.5t48 23t78 15.5q53 8 100 32.5t77.5 58.5t30.5 73q0 64 -42.5 94.5t-104.5 49.5q-57 18 -88.5 45
t-31.5 73q0 43 24 76t64 68q35 33 49.5 71.5t14.5 76.5q0 51 -22.5 91.5t-62 64t-92.5 23.5q-57 0 -97 -44t-63 -122t-32 -181q-2 -46 -3.5 -96.5t-4 -108t-5.5 -122.5t-7.5 -139.5t-10.5 -159.5q-9 -48 -30 -68t-63 -20z" />
    <glyph glyph-name="agrave" unicode="&#xe0;" horiz-adv-x="1205" 
d="M467 -97q-81 0 -153.5 16t-128.5 51t-88 91t-32 137q0 92 45 151t122.5 92.5t174.5 46.5t201 13q32 0 65 -2t62.5 -4t48.5 -2q26 0 35 8.5t9 29.5q0 39 -9.5 69t-27.5 53t-43 39q-40 27 -96.5 38.5t-121.5 11.5q-77 0 -136.5 -16t-105.5 -33t-84 -17q-52 0 -80 17t-28 55
q0 39 33 72t91.5 58t136 39t165.5 14q177 0 296.5 -44.5t179.5 -144t60 -267.5q0 -50 -5 -87t-12.5 -64.5t-12.5 -47.5t-5 -37q0 -24 15.5 -45.5t37 -42.5t37.5 -44.5t16 -52.5q0 -43 -28 -62t-62 -19q-31 0 -51.5 20.5t-37 40.5t-40.5 20q-14 0 -30.5 -8t-40.5 -25
q-30 -22 -76.5 -49.5t-118.5 -48t-177 -20.5zM494 56q62 0 120 19.5t104 54t73 81t27 100.5q0 34 -22.5 49t-73.5 19t-135 4q-83 0 -154 -16.5t-114 -55t-43 -104.5q0 -51 26 -84t75 -50t117 -17zM586 1015q-47 0 -122 28t-147 65q-67 35 -104 68.5t-37 72.5q0 33 18 49
t49 16q35 0 90.5 -23.5t109.5 -57.5q83 -52 138 -99t55 -76q0 -23 -14 -33t-36 -10z" />
    <glyph glyph-name="aacute" unicode="&#xe1;" horiz-adv-x="1205" 
d="M467 -97q-81 0 -153.5 16t-128.5 51t-88 91t-32 137q0 92 45 151t122.5 92.5t174.5 46.5t201 13q32 0 65 -2t62.5 -4t48.5 -2q26 0 35 8.5t9 29.5q0 39 -9.5 69t-27.5 53t-43 39q-40 27 -96.5 38.5t-121.5 11.5q-77 0 -136.5 -16t-105.5 -33t-84 -17q-52 0 -80 17t-28 55
q0 39 33 72t91.5 58t136 39t165.5 14q177 0 296.5 -44.5t179.5 -144t60 -267.5q0 -50 -5 -87t-12.5 -64.5t-12.5 -47.5t-5 -37q0 -24 15.5 -45.5t37 -42.5t37.5 -44.5t16 -52.5q0 -43 -28 -62t-62 -19q-31 0 -51.5 20.5t-37 40.5t-40.5 20q-14 0 -30.5 -8t-40.5 -25
q-30 -22 -76.5 -49.5t-118.5 -48t-177 -20.5zM494 56q62 0 120 19.5t104 54t73 81t27 100.5q0 34 -22.5 49t-73.5 19t-135 4q-83 0 -154 -16.5t-114 -55t-43 -104.5q0 -51 26 -84t75 -50t117 -17zM492 982q-22 0 -36 10t-14 33q0 30 55 76.5t138 98.5q54 34 109.5 57.5
t90.5 23.5q31 0 49 -16t18 -49q0 -39 -37.5 -72.5t-104.5 -68.5q-71 -37 -146 -65t-122 -28z" />
    <glyph glyph-name="acircumflex" unicode="&#xe2;" horiz-adv-x="1205" 
d="M467 -97q-81 0 -153.5 16t-128.5 51t-88 91t-32 137q0 92 45 151t122.5 92.5t174.5 46.5t201 13q32 0 65 -2t62.5 -4t48.5 -2q26 0 35 8.5t9 29.5q0 39 -9.5 69t-27.5 53t-43 39q-40 27 -96.5 38.5t-121.5 11.5q-77 0 -136.5 -16t-105.5 -33t-84 -17q-52 0 -80 17t-28 55
q0 39 33 72t91.5 58t136 39t165.5 14q177 0 296.5 -44.5t179.5 -144t60 -267.5q0 -50 -5 -87t-12.5 -64.5t-12.5 -47.5t-5 -37q0 -24 15.5 -45.5t37 -42.5t37.5 -44.5t16 -52.5q0 -43 -28 -62t-62 -19q-31 0 -51.5 20.5t-37 40.5t-40.5 20q-14 0 -30.5 -8t-40.5 -25
q-30 -22 -76.5 -49.5t-118.5 -48t-177 -20.5zM494 56q62 0 120 19.5t104 54t73 81t27 100.5q0 34 -22.5 49t-73.5 19t-135 4q-83 0 -154 -16.5t-114 -55t-43 -104.5q0 -51 26 -84t75 -50t117 -17zM267 999q-50 0 -50 51q0 33 36.5 82t92.5 97t115 81t103 33q41 0 93.5 -32
t102 -79t81.5 -94.5t32 -77.5q0 -25 -12.5 -38.5t-34.5 -13.5q-33 0 -57 23t-56 69q-22 31 -50 59.5t-56 46.5t-50 18q-19 0 -49 -21.5t-63 -54t-61 -65.5q-37 -44 -61.5 -64t-55.5 -20z" />
    <glyph glyph-name="atilde" unicode="&#xe3;" horiz-adv-x="1205" 
d="M467 -97q-81 0 -153.5 16t-128.5 51t-88 91t-32 137q0 92 45 151t122.5 92.5t174.5 46.5t201 13q32 0 65 -2t62.5 -4t48.5 -2q26 0 35 8.5t9 29.5q0 39 -9.5 69t-27.5 53t-43 39q-40 27 -96.5 38.5t-121.5 11.5q-77 0 -136.5 -16t-105.5 -33t-84 -17q-52 0 -80 17t-28 55
q0 39 33 72t91.5 58t136 39t165.5 14q177 0 296.5 -44.5t179.5 -144t60 -267.5q0 -50 -5 -87t-12.5 -64.5t-12.5 -47.5t-5 -37q0 -24 15.5 -45.5t37 -42.5t37.5 -44.5t16 -52.5q0 -43 -28 -62t-62 -19q-31 0 -51.5 20.5t-37 40.5t-40.5 20q-14 0 -30.5 -8t-40.5 -25
q-30 -22 -76.5 -49.5t-118.5 -48t-177 -20.5zM494 56q62 0 120 19.5t104 54t73 81t27 100.5q0 34 -22.5 49t-73.5 19t-135 4q-83 0 -154 -16.5t-114 -55t-43 -104.5q0 -51 26 -84t75 -50t117 -17zM306 1009q-19 0 -31.5 11.5t-12.5 34.5q0 42 27 85t70 72t88 29q42 0 74 -22
t57.5 -50.5t49.5 -50.5t51 -22q33 0 52.5 13.5t36.5 55.5q14 33 27 44.5t32 11.5q13 0 24.5 -10t11.5 -36q0 -47 -26 -87t-66.5 -64t-86.5 -24q-44 0 -77 21t-59.5 48.5t-50 48.5t-48.5 21q-26 0 -48 -23.5t-42 -62.5q-12 -25 -25 -34.5t-28 -9.5z" />
    <glyph glyph-name="adieresis" unicode="&#xe4;" horiz-adv-x="1205" 
d="M467 -97q-81 0 -153.5 16t-128.5 51t-88 91t-32 137q0 92 45 151t122.5 92.5t174.5 46.5t201 13q32 0 65 -2t62.5 -4t48.5 -2q26 0 35 8.5t9 29.5q0 39 -9.5 69t-27.5 53t-43 39q-40 27 -96.5 38.5t-121.5 11.5q-77 0 -136.5 -16t-105.5 -33t-84 -17q-52 0 -80 17t-28 55
q0 39 33 72t91.5 58t136 39t165.5 14q177 0 296.5 -44.5t179.5 -144t60 -267.5q0 -50 -5 -87t-12.5 -64.5t-12.5 -47.5t-5 -37q0 -24 15.5 -45.5t37 -42.5t37.5 -44.5t16 -52.5q0 -43 -28 -62t-62 -19q-31 0 -51.5 20.5t-37 40.5t-40.5 20q-14 0 -30.5 -8t-40.5 -25
q-30 -22 -76.5 -49.5t-118.5 -48t-177 -20.5zM494 56q62 0 120 19.5t104 54t73 81t27 100.5q0 34 -22.5 49t-73.5 19t-135 4q-83 0 -154 -16.5t-114 -55t-43 -104.5q0 -51 26 -84t75 -50t117 -17zM363 1000q-72 0 -102.5 27.5t-30.5 69.5q0 50 38.5 78t78.5 28
q32 0 60.5 -9.5t46 -32.5t17.5 -65q0 -40 -24.5 -68t-83.5 -28zM764 1002q-51 0 -84 28t-33 70q0 51 38 83t93 32q51 0 76 -30t25 -68q0 -48 -31.5 -81.5t-83.5 -33.5z" />
    <glyph glyph-name="aring" unicode="&#xe5;" horiz-adv-x="1205" 
d="M467 -97q-81 0 -153.5 16t-128.5 51t-88 91t-32 137q0 92 45 151t122.5 92.5t174.5 46.5t201 13q32 0 65 -2t62.5 -4t48.5 -2q26 0 35 8.5t9 29.5q0 39 -9.5 69t-27.5 53t-43 39q-40 27 -96.5 38.5t-121.5 11.5q-77 0 -136.5 -16t-105.5 -33t-84 -17q-52 0 -80 17t-28 55
q0 39 33 72t91.5 58t136 39t165.5 14q177 0 296.5 -44.5t179.5 -144t60 -267.5q0 -50 -5 -87t-12.5 -64.5t-12.5 -47.5t-5 -37q0 -24 15.5 -45.5t37 -42.5t37.5 -44.5t16 -52.5q0 -43 -28 -62t-62 -19q-31 0 -51.5 20.5t-37 40.5t-40.5 20q-14 0 -30.5 -8t-40.5 -25
q-30 -22 -76.5 -49.5t-118.5 -48t-177 -20.5zM494 56q62 0 120 19.5t104 54t73 81t27 100.5q0 34 -22.5 49t-73.5 19t-135 4q-83 0 -154 -16.5t-114 -55t-43 -104.5q0 -51 26 -84t75 -50t117 -17zM544 989q-90 0 -151.5 43.5t-61.5 115.5t60 117.5t167 45.5
q94 0 145.5 -42.5t51.5 -108.5q0 -55 -31.5 -93t-80.5 -58t-99 -20zM545 1076q53 0 76.5 26t23.5 60q0 28 -26.5 50.5t-76.5 22.5q-36 0 -66.5 -18t-30.5 -57q0 -43 31 -63.5t69 -20.5z" />
    <glyph glyph-name="ae" unicode="&#xe6;" horiz-adv-x="1940" 
d="M525 1016q169 0 292 -51t189.5 -157t66.5 -272q0 -137 -45 -239.5t-125 -171t-184.5 -103.5t-224.5 -35q-81 0 -153.5 17t-129 53t-88.5 90.5t-32 130.5q0 81 34 131.5t93 79t133.5 42t155.5 20.5q41 7 97 11.5t108.5 7t81.5 2.5q30 0 41 8t11 29q0 25 -14 59t-40 65
q-48 59 -111.5 78.5t-157.5 19.5q-80 0 -146.5 -19.5t-121 -39t-96.5 -19.5q-39 0 -61.5 15t-22.5 56q0 38 34.5 73t95.5 61.5t143.5 42t176.5 15.5zM605 460q-81 0 -151 -15.5t-113.5 -52.5t-43.5 -104q0 -78 57 -117.5t160 -39.5q61 0 118.5 21.5t103 59.5t72.5 86.5
t27 102.5q0 29 -22.5 41.5t-72.5 15t-135 2.5zM1402 25q-169 0 -292 51t-189.5 157.5t-66.5 272.5q0 136 45.5 238.5t125 171.5t184.5 103.5t224 34.5q81 0 153.5 -17t129 -52.5t89 -90.5t32.5 -131q0 -80 -34.5 -130.5t-93.5 -79.5t-133.5 -42.5t-155.5 -20.5
q-40 -7 -96.5 -11.5t-108.5 -6.5t-82 -2q-29 0 -40.5 -8.5t-11.5 -29.5q0 -24 14 -58t40 -65q48 -59 111.5 -79t157.5 -20q80 0 147 20t121 39t96 19q39 0 61.5 -14.5t22.5 -56.5q0 -38 -34.5 -72.5t-95.5 -61.5t-143 -42.5t-177 -15.5zM1323 581q81 0 150.5 15.5t113 53
t43.5 103.5q0 78 -56.5 117.5t-160.5 39.5q-61 0 -118.5 -21.5t-103 -59t-72.5 -86t-27 -103.5q0 -28 22.5 -40.5t73 -15.5t135.5 -3z" />
    <glyph glyph-name="ccedilla" unicode="&#xe7;" horiz-adv-x="1157" 
d="M605 -45q-119 0 -222.5 32t-182 95t-123 156.5t-44.5 217.5q0 130 42 233t119.5 175.5t187 110.5t242.5 38q103 0 176 -19.5t112 -50t39 -61.5q0 -20 -11 -36.5t-29 -25.5t-38 -9q-23 0 -49.5 9.5t-68.5 19t-111 9.5q-80 0 -146 -26t-114 -73.5t-74 -112.5t-26 -144
q0 -105 43.5 -177t119 -109t170.5 -37q87 0 148 18t102.5 41.5t68.5 41.5t45 18q33 0 51 -14t25.5 -34.5t7.5 -40.5q0 -42 -31.5 -85.5t-90.5 -79.5t-144.5 -58t-193.5 -22zM615 -442q-51 0 -94.5 5t-70.5 20t-27 44t19 40t44 11q20 0 39 -5t41 -10.5t51 -5.5q51 0 96 8.5
t73 29t28 54.5q0 33 -15.5 46t-47.5 13q-37 0 -68 -12.5t-59.5 -24.5t-60.5 -12q-35 0 -60.5 15t-25.5 67q0 22 6 51t14.5 56.5t15.5 41.5q11 24 30 38.5t54 14.5q27 0 40.5 -14t13.5 -33q0 -23 -12 -60t-12 -68q0 -22 15 -22q17 0 39 13.5t53.5 27t77.5 13.5q38 0 69 -16
t49.5 -47.5t18.5 -76.5q0 -100 -85 -151t-249 -51z" />
    <glyph glyph-name="egrave" unicode="&#xe8;" horiz-adv-x="1146" 
d="M607 -69q-168 0 -291 51t-190 157.5t-67 271.5q0 137 45.5 239.5t125.5 171.5t185 103.5t224 34.5q81 0 153.5 -17t129 -52.5t88.5 -90.5t32 -131q0 -81 -34 -131.5t-93 -79t-133.5 -42t-155.5 -20.5q-41 -7 -97 -11.5t-108.5 -7t-81.5 -2.5q-30 0 -41 -8t-11 -29
q0 -25 14 -58.5t40 -65.5q48 -59 111.5 -78.5t156.5 -19.5q81 0 148 19.5t120.5 39t96.5 19.5q39 0 61.5 -14.5t22.5 -56.5q0 -38 -34.5 -73t-95.5 -61.5t-143 -42t-178 -15.5zM528 487q81 0 151 15.5t113.5 53t43.5 103.5q0 78 -57 117.5t-160 39.5q-61 0 -119 -21.5
t-103 -59.5t-72 -86t-27 -103q0 -28 22.5 -40.5t73 -15.5t134.5 -3zM673 1097q-47 0 -122 28t-147 65q-67 35 -104 68.5t-37 72.5q0 33 18 49t49 16q35 0 90.5 -23.5t109.5 -57.5q83 -52 138 -99t55 -76q0 -23 -14 -33t-36 -10z" />
    <glyph glyph-name="eacute" unicode="&#xe9;" horiz-adv-x="1146" 
d="M607 -69q-168 0 -291 51t-190 157.5t-67 271.5q0 137 45.5 239.5t125.5 171.5t185 103.5t224 34.5q81 0 153.5 -17t129 -52.5t88.5 -90.5t32 -131q0 -81 -34 -131.5t-93 -79t-133.5 -42t-155.5 -20.5q-41 -7 -97 -11.5t-108.5 -7t-81.5 -2.5q-30 0 -41 -8t-11 -29
q0 -25 14 -58.5t40 -65.5q48 -59 111.5 -78.5t156.5 -19.5q81 0 148 19.5t120.5 39t96.5 19.5q39 0 61.5 -14.5t22.5 -56.5q0 -38 -34.5 -73t-95.5 -61.5t-143 -42t-178 -15.5zM528 487q81 0 151 15.5t113.5 53t43.5 103.5q0 78 -57 117.5t-160 39.5q-61 0 -119 -21.5
t-103 -59.5t-72 -86t-27 -103q0 -28 22.5 -40.5t73 -15.5t134.5 -3zM579 1064q-22 0 -36 10t-14 33q0 30 55 76.5t138 98.5q54 34 109.5 57.5t90.5 23.5q31 0 49 -16t18 -49q0 -39 -37.5 -72.5t-104.5 -68.5q-71 -37 -146 -65t-122 -28z" />
    <glyph glyph-name="ecircumflex" unicode="&#xea;" horiz-adv-x="1146" 
d="M607 -69q-168 0 -291 51t-190 157.5t-67 271.5q0 137 45.5 239.5t125.5 171.5t185 103.5t224 34.5q81 0 153.5 -17t129 -52.5t88.5 -90.5t32 -131q0 -81 -34 -131.5t-93 -79t-133.5 -42t-155.5 -20.5q-41 -7 -97 -11.5t-108.5 -7t-81.5 -2.5q-30 0 -41 -8t-11 -29
q0 -25 14 -58.5t40 -65.5q48 -59 111.5 -78.5t156.5 -19.5q81 0 148 19.5t120.5 39t96.5 19.5q39 0 61.5 -14.5t22.5 -56.5q0 -38 -34.5 -73t-95.5 -61.5t-143 -42t-178 -15.5zM528 487q81 0 151 15.5t113.5 53t43.5 103.5q0 78 -57 117.5t-160 39.5q-61 0 -119 -21.5
t-103 -59.5t-72 -86t-27 -103q0 -28 22.5 -40.5t73 -15.5t134.5 -3zM354 1081q-50 0 -50 51q0 33 36.5 82t92.5 97t115 81t103 33q41 0 93.5 -32t102 -79t81.5 -94.5t32 -77.5q0 -25 -12.5 -38.5t-34.5 -13.5q-33 0 -57 23t-56 69q-22 31 -50 59.5t-56 46.5t-50 18
q-19 0 -49 -21.5t-63 -54t-61 -65.5q-37 -44 -61.5 -64t-55.5 -20z" />
    <glyph glyph-name="edieresis" unicode="&#xeb;" horiz-adv-x="1146" 
d="M607 -69q-168 0 -291 51t-190 157.5t-67 271.5q0 137 45.5 239.5t125.5 171.5t185 103.5t224 34.5q81 0 153.5 -17t129 -52.5t88.5 -90.5t32 -131q0 -81 -34 -131.5t-93 -79t-133.5 -42t-155.5 -20.5q-41 -7 -97 -11.5t-108.5 -7t-81.5 -2.5q-30 0 -41 -8t-11 -29
q0 -25 14 -58.5t40 -65.5q48 -59 111.5 -78.5t156.5 -19.5q81 0 148 19.5t120.5 39t96.5 19.5q39 0 61.5 -14.5t22.5 -56.5q0 -38 -34.5 -73t-95.5 -61.5t-143 -42t-178 -15.5zM528 487q81 0 151 15.5t113.5 53t43.5 103.5q0 78 -57 117.5t-160 39.5q-61 0 -119 -21.5
t-103 -59.5t-72 -86t-27 -103q0 -28 22.5 -40.5t73 -15.5t134.5 -3zM450 1082q-72 0 -102.5 27.5t-30.5 69.5q0 50 38.5 78t78.5 28q32 0 60.5 -9.5t46 -32.5t17.5 -65q0 -40 -24.5 -68t-83.5 -28zM851 1084q-51 0 -84 28t-33 70q0 51 38 83t93 32q51 0 76 -30t25 -68
q0 -48 -31.5 -81.5t-83.5 -33.5z" />
    <glyph glyph-name="igrave" unicode="&#xec;" horiz-adv-x="503" 
d="M214 -45q-51 0 -79.5 26.5t-39 71t-10.5 99.5q0 26 0.5 57t2 66.5t3.5 73.5t4.5 77.5t6 79.5t7.5 79q20 147 60 215t109 68q41 0 65 -36.5t35 -106.5t11 -172q0 -46 -1.5 -92.5t-4 -91.5t-6 -87t-8.5 -80t-10.5 -71t-12.5 -59q-18 -52 -50 -84.5t-82 -32.5zM310 952
q-47 0 -122 28t-147 65q-67 35 -104 68.5t-37 72.5q0 33 18 49t49 16q35 0 90.5 -23.5t109.5 -57.5q83 -52 138 -99t55 -76q0 -23 -14 -33t-36 -10z" />
    <glyph glyph-name="iacute" unicode="&#xed;" horiz-adv-x="503" 
d="M214 -45q-51 0 -79.5 26.5t-39 71t-10.5 99.5q0 26 0.5 57t2 66.5t3.5 73.5t4.5 77.5t6 79.5t7.5 79q20 147 60 215t109 68q41 0 65 -36.5t35 -106.5t11 -172q0 -46 -1.5 -92.5t-4 -91.5t-6 -87t-8.5 -80t-10.5 -71t-12.5 -59q-18 -52 -50 -84.5t-82 -32.5zM216 919
q-22 0 -36 10t-14 33q0 30 55 76.5t138 98.5q54 34 109.5 57.5t90.5 23.5q31 0 49 -16t18 -49q0 -39 -37.5 -72.5t-104.5 -68.5q-71 -37 -146 -65t-122 -28z" />
    <glyph glyph-name="icircumflex" unicode="&#xee;" horiz-adv-x="503" 
d="M214 -45q-51 0 -79.5 26.5t-39 71t-10.5 99.5q0 26 0.5 57t2 66.5t3.5 73.5t4.5 77.5t6 79.5t7.5 79q20 147 60 215t109 68q41 0 65 -36.5t35 -106.5t11 -172q0 -46 -1.5 -92.5t-4 -91.5t-6 -87t-8.5 -80t-10.5 -71t-12.5 -59q-18 -52 -50 -84.5t-82 -32.5zM-10 936
q-50 0 -50 51q0 33 36.5 82t92.5 97t115 81t103 33q41 0 93.5 -32t102 -79t81.5 -94.5t32 -77.5q0 -25 -12.5 -38.5t-34.5 -13.5q-33 0 -57 23t-56 69q-22 31 -50 59.5t-56 46.5t-50 18q-19 0 -49 -21.5t-63 -54t-61 -65.5q-37 -44 -61.5 -64t-55.5 -20z" />
    <glyph glyph-name="idieresis" unicode="&#xef;" horiz-adv-x="503" 
d="M214 -45q-51 0 -79.5 26.5t-39 71t-10.5 99.5q0 26 0.5 57t2 66.5t3.5 73.5t4.5 77.5t6 79.5t7.5 79q20 147 60 215t109 68q41 0 65 -36.5t35 -106.5t11 -172q0 -46 -1.5 -92.5t-4 -91.5t-6 -87t-8.5 -80t-10.5 -71t-12.5 -59q-18 -52 -50 -84.5t-82 -32.5zM87 937
q-72 0 -102.5 27.5t-30.5 69.5q0 50 38.5 78t78.5 28q32 0 60.5 -9.5t46 -32.5t17.5 -65q0 -40 -24.5 -68t-83.5 -28zM488 939q-51 0 -84 28t-33 70q0 51 38 83t93 32q51 0 76 -30t25 -68q0 -48 -31.5 -81.5t-83.5 -33.5z" />
    <glyph glyph-name="eth" unicode="&#xf0;" horiz-adv-x="1094" 
d="M492 -45q-82 0 -163.5 26t-147.5 77t-105.5 127t-39.5 176q0 82 31.5 149t88.5 116t131.5 75.5t161.5 26.5q66 0 117 -15t88.5 -36t62.5 -39q16 -11 24 -11q9 0 9 10q0 8 -3 15q-7 13 -30.5 48.5t-63 82t-92 92.5t-117.5 80q-14 -13 -41.5 -34.5t-58.5 -44.5t-58 -38
t-41 -15q-30 0 -42.5 13.5t-12.5 32.5q0 8 3.5 16.5t8.5 17.5q15 18 46 43t62.5 49t46.5 36q-71 39 -120 57t-85 28q-29 10 -54.5 24t-25.5 39t17 37t47 12q24 0 67.5 -12.5t93.5 -31t93 -37.5t64 -33q29 26 72 62.5t78 67.5q20 14 37 22.5t32 8.5q30 0 48.5 -12t18.5 -36
q0 -13 -15 -35.5t-39 -48t-51 -51.5t-53 -47q106 -68 185 -147.5t132 -166.5t80 -177t27 -180q0 -140 -71 -233.5t-188 -139.5t-255 -46zM500 114q80 0 137.5 22.5t94.5 60t55 81.5t18 87q0 42 -26 81.5t-70.5 71t-100.5 49.5t-117 18q-83 0 -140 -34.5t-86.5 -89
t-29.5 -113.5q0 -68 33.5 -120.5t93 -83t138.5 -30.5z" />
    <glyph glyph-name="ntilde" unicode="&#xf1;" horiz-adv-x="1262" 
d="M159 -22q-47 0 -74 25t-39 81q-4 26 -5 59t0 75t5 92q12 199 81 337.5t192 211t293 72.5q171 0 293 -69t187 -212t65 -365q0 -40 -1.5 -74t-4.5 -62t-9 -51q-15 -64 -44.5 -92t-76.5 -28q-48 0 -73 16t-36 48t-15 79q-3 75 -5.5 132.5t-7 103t-10.5 85t-15 79.5
q-23 102 -77 155t-161 53q-103 0 -165.5 -57t-96.5 -157q-15 -42 -25 -88t-16.5 -95t-11 -103t-8.5 -113q-5 -56 -24 -86t-48 -41t-67 -11zM387 1040q-19 0 -31.5 11.5t-12.5 34.5q0 42 27 85t70 72t88 29q42 0 74 -22t57.5 -50.5t49.5 -50.5t51 -22q33 0 52.5 13.5
t36.5 55.5q14 33 27 44.5t32 11.5q13 0 24.5 -10t11.5 -36q0 -47 -26 -87t-66.5 -64t-86.5 -24q-44 0 -77 21t-59.5 48.5t-50 48.5t-48.5 21q-26 0 -48 -23.5t-42 -62.5q-12 -25 -25 -34.5t-28 -9.5z" />
    <glyph glyph-name="ograve" unicode="&#xf2;" horiz-adv-x="1339" 
d="M631 -53q-116 0 -223.5 26t-192 83t-133.5 148.5t-49 223.5q0 145 47.5 253.5t131.5 181t194.5 109t236.5 36.5q114 0 223 -29t196 -91t138.5 -160.5t51.5 -237.5q0 -105 -42.5 -202t-123 -173.5t-195 -122t-260.5 -45.5zM622 168q102 0 173 31.5t115.5 83t65 112.5
t20.5 121q0 84 -32.5 142.5t-86 94.5t-119.5 52.5t-135 16.5q-90 0 -170 -38.5t-129.5 -116t-49.5 -195.5q0 -96 39.5 -164.5t117.5 -104t191 -35.5zM697 1095q-47 0 -122 28t-147 65q-67 35 -104 68.5t-37 72.5q0 33 18 49t49 16q35 0 90.5 -23.5t109.5 -57.5
q83 -52 138 -99t55 -76q0 -23 -14 -33t-36 -10z" />
    <glyph glyph-name="oacute" unicode="&#xf3;" horiz-adv-x="1339" 
d="M631 -53q-116 0 -223.5 26t-192 83t-133.5 148.5t-49 223.5q0 145 47.5 253.5t131.5 181t194.5 109t236.5 36.5q114 0 223 -29t196 -91t138.5 -160.5t51.5 -237.5q0 -105 -42.5 -202t-123 -173.5t-195 -122t-260.5 -45.5zM622 168q102 0 173 31.5t115.5 83t65 112.5
t20.5 121q0 84 -32.5 142.5t-86 94.5t-119.5 52.5t-135 16.5q-90 0 -170 -38.5t-129.5 -116t-49.5 -195.5q0 -96 39.5 -164.5t117.5 -104t191 -35.5zM603 1062q-22 0 -36 10t-14 33q0 30 55 76.5t138 98.5q54 34 109.5 57.5t90.5 23.5q31 0 49 -16t18 -49q0 -39 -37.5 -72.5
t-104.5 -68.5q-71 -37 -146 -65t-122 -28z" />
    <glyph glyph-name="ocircumflex" unicode="&#xf4;" horiz-adv-x="1339" 
d="M631 -53q-116 0 -223.5 26t-192 83t-133.5 148.5t-49 223.5q0 145 47.5 253.5t131.5 181t194.5 109t236.5 36.5q114 0 223 -29t196 -91t138.5 -160.5t51.5 -237.5q0 -105 -42.5 -202t-123 -173.5t-195 -122t-260.5 -45.5zM622 168q102 0 173 31.5t115.5 83t65 112.5
t20.5 121q0 84 -32.5 142.5t-86 94.5t-119.5 52.5t-135 16.5q-90 0 -170 -38.5t-129.5 -116t-49.5 -195.5q0 -96 39.5 -164.5t117.5 -104t191 -35.5zM377 1079q-50 0 -50 51q0 33 36.5 82t92.5 97t115 81t103 33q41 0 93.5 -32t102 -79t81.5 -94.5t32 -77.5
q0 -25 -12.5 -38.5t-34.5 -13.5q-33 0 -57 23t-56 69q-22 31 -50 59.5t-56 46.5t-50 18q-19 0 -49 -21.5t-63 -54t-61 -65.5q-37 -44 -61.5 -64t-55.5 -20z" />
    <glyph glyph-name="otilde" unicode="&#xf5;" horiz-adv-x="1339" 
d="M631 -53q-116 0 -223.5 26t-192 83t-133.5 148.5t-49 223.5q0 145 47.5 253.5t131.5 181t194.5 109t236.5 36.5q114 0 223 -29t196 -91t138.5 -160.5t51.5 -237.5q0 -105 -42.5 -202t-123 -173.5t-195 -122t-260.5 -45.5zM622 168q102 0 173 31.5t115.5 83t65 112.5
t20.5 121q0 84 -32.5 142.5t-86 94.5t-119.5 52.5t-135 16.5q-90 0 -170 -38.5t-129.5 -116t-49.5 -195.5q0 -96 39.5 -164.5t117.5 -104t191 -35.5zM417 1089q-19 0 -31.5 11.5t-12.5 34.5q0 42 27 85t70 72t88 29q42 0 74 -22t57.5 -50.5t49.5 -50.5t51 -22
q33 0 52.5 13.5t36.5 55.5q14 33 27 44.5t32 11.5q13 0 24.5 -10t11.5 -36q0 -47 -26 -87t-66.5 -64t-86.5 -24q-44 0 -77 21t-59.5 48.5t-50 48.5t-48.5 21q-26 0 -48 -23.5t-42 -62.5q-12 -25 -25 -34.5t-28 -9.5z" />
    <glyph glyph-name="odieresis" unicode="&#xf6;" horiz-adv-x="1339" 
d="M631 -53q-116 0 -223.5 26t-192 83t-133.5 148.5t-49 223.5q0 145 47.5 253.5t131.5 181t194.5 109t236.5 36.5q114 0 223 -29t196 -91t138.5 -160.5t51.5 -237.5q0 -105 -42.5 -202t-123 -173.5t-195 -122t-260.5 -45.5zM622 168q102 0 173 31.5t115.5 83t65 112.5
t20.5 121q0 84 -32.5 142.5t-86 94.5t-119.5 52.5t-135 16.5q-90 0 -170 -38.5t-129.5 -116t-49.5 -195.5q0 -96 39.5 -164.5t117.5 -104t191 -35.5zM474 1080q-72 0 -102.5 27.5t-30.5 69.5q0 50 38.5 78t78.5 28q32 0 60.5 -9.5t46 -32.5t17.5 -65q0 -40 -24.5 -68
t-83.5 -28zM875 1082q-51 0 -84 28t-33 70q0 51 38 83t93 32q51 0 76 -30t25 -68q0 -48 -31.5 -81.5t-83.5 -33.5z" />
    <glyph glyph-name="divide" unicode="&#xf7;" horiz-adv-x="1073" 
d="M516 223q-57 0 -101.5 27t-44.5 78q0 29 19 52t50.5 36.5t66.5 13.5t67 -13.5t52 -38t20 -58.5q0 -32 -17 -54t-46.5 -32.5t-65.5 -10.5zM441 541q-108 0 -185 2.5t-126 9.5t-72 21t-23 37q0 27 22 44t73 26t139.5 12t220.5 3q141 0 235.5 -2t150 -10t80 -24.5
t24.5 -45.5q0 -26 -26.5 -41t-87.5 -21.5t-165 -8.5t-260 -2zM511 808q-57 0 -102.5 28t-45.5 79q0 29 21 52t53 36t64 13q35 0 67 -15.5t52 -42t20 -60.5q0 -49 -38 -69.5t-91 -20.5z" />
    <glyph glyph-name="oslash" unicode="&#xf8;" horiz-adv-x="1339" 
d="M45 -151q-31 -4 -53 8.5t-22 32.5t22.5 53.5t56.5 71.5q33 36 72.5 76t81.5 73q40 32 66.5 47t48.5 14.5t45 -20.5q36 -31 24 -65.5t-60 -89.5q-36 -41 -79 -80t-88 -69q-32 -22 -60.5 -35.5t-54.5 -16.5zM1043 745q-30 -16 -57.5 -13.5t-45 18t-18.5 41t23 54.5
q26 33 57 65.5t64 61.5q34 29 63 50t48 23q48 4 74 -8t26 -41q0 -16 -10.5 -35.5t-27.5 -40.5q-16 -21 -40.5 -47.5t-47.5 -47.5q-26 -24 -52 -44.5t-56 -35.5zM631 -53q-116 0 -223.5 26t-192 83t-133.5 148.5t-49 223.5q0 145 47.5 253.5t131.5 181t194.5 109t236.5 36.5
q114 0 223 -29t196 -91t138.5 -160.5t51.5 -237.5q0 -105 -42.5 -202t-123 -173.5t-195 -122t-260.5 -45.5zM622 168q102 0 173 31.5t115.5 83t65 112.5t20.5 121q0 84 -32.5 142.5t-86 94.5t-119.5 52.5t-135 16.5q-90 0 -170 -38.5t-129.5 -116t-49.5 -195.5
q0 -96 39.5 -164.5t117.5 -104t191 -35.5z" />
    <glyph glyph-name="ugrave" unicode="&#xf9;" horiz-adv-x="1276" 
d="M583 -65q-144 0 -246 44.5t-166 128.5t-94 202.5t-30 266.5q0 36 2.5 72.5t7.5 70.5t13 61q18 69 52 99.5t82 30.5q45 0 68 -19t30.5 -47.5t8.5 -56.5v-46v-54t0.5 -54.5t1.5 -48.5q5 -128 31 -225.5t85.5 -152t162.5 -54.5q105 0 169 43.5t98.5 126t51.5 198.5
q5 30 8.5 61.5t6 63.5t6 64.5t7.5 65.5q11 65 39 101t83 36q48 0 71.5 -31.5t32.5 -88.5q3 -37 4 -73.5t0.5 -73.5t-2 -73t-4.5 -72q-13 -184 -80 -310.5t-191.5 -191t-308.5 -64.5zM673 990q-47 0 -122 28t-147 65q-67 35 -104 68.5t-37 72.5q0 33 18 49t49 16
q35 0 90.5 -23.5t109.5 -57.5q83 -52 138 -99t55 -76q0 -23 -14 -33t-36 -10z" />
    <glyph glyph-name="uacute" unicode="&#xfa;" horiz-adv-x="1276" 
d="M583 -65q-144 0 -246 44.5t-166 128.5t-94 202.5t-30 266.5q0 36 2.5 72.5t7.5 70.5t13 61q18 69 52 99.5t82 30.5q45 0 68 -19t30.5 -47.5t8.5 -56.5v-46v-54t0.5 -54.5t1.5 -48.5q5 -128 31 -225.5t85.5 -152t162.5 -54.5q105 0 169 43.5t98.5 126t51.5 198.5
q5 30 8.5 61.5t6 63.5t6 64.5t7.5 65.5q11 65 39 101t83 36q48 0 71.5 -31.5t32.5 -88.5q3 -37 4 -73.5t0.5 -73.5t-2 -73t-4.5 -72q-13 -184 -80 -310.5t-191.5 -191t-308.5 -64.5zM579 957q-22 0 -36 10t-14 33q0 30 55 76.5t138 98.5q54 34 109.5 57.5t90.5 23.5
q31 0 49 -16t18 -49q0 -39 -37.5 -72.5t-104.5 -68.5q-71 -37 -146 -65t-122 -28z" />
    <glyph glyph-name="ucircumflex" unicode="&#xfb;" horiz-adv-x="1276" 
d="M583 -65q-144 0 -246 44.5t-166 128.5t-94 202.5t-30 266.5q0 36 2.5 72.5t7.5 70.5t13 61q18 69 52 99.5t82 30.5q45 0 68 -19t30.5 -47.5t8.5 -56.5v-46v-54t0.5 -54.5t1.5 -48.5q5 -128 31 -225.5t85.5 -152t162.5 -54.5q105 0 169 43.5t98.5 126t51.5 198.5
q5 30 8.5 61.5t6 63.5t6 64.5t7.5 65.5q11 65 39 101t83 36q48 0 71.5 -31.5t32.5 -88.5q3 -37 4 -73.5t0.5 -73.5t-2 -73t-4.5 -72q-13 -184 -80 -310.5t-191.5 -191t-308.5 -64.5zM354 974q-50 0 -50 51q0 33 36.5 82t92.5 97t115 81t103 33q41 0 93.5 -32t102 -79
t81.5 -94.5t32 -77.5q0 -25 -12.5 -38.5t-34.5 -13.5q-33 0 -57 23t-56 69q-22 31 -50 59.5t-56 46.5t-50 18q-19 0 -49 -21.5t-63 -54t-61 -65.5q-37 -44 -61.5 -64t-55.5 -20z" />
    <glyph glyph-name="udieresis" unicode="&#xfc;" horiz-adv-x="1276" 
d="M583 -65q-144 0 -246 44.5t-166 128.5t-94 202.5t-30 266.5q0 36 2.5 72.5t7.5 70.5t13 61q18 69 52 99.5t82 30.5q45 0 68 -19t30.5 -47.5t8.5 -56.5v-46v-54t0.5 -54.5t1.5 -48.5q5 -128 31 -225.5t85.5 -152t162.5 -54.5q105 0 169 43.5t98.5 126t51.5 198.5
q5 30 8.5 61.5t6 63.5t6 64.5t7.5 65.5q11 65 39 101t83 36q48 0 71.5 -31.5t32.5 -88.5q3 -37 4 -73.5t0.5 -73.5t-2 -73t-4.5 -72q-13 -184 -80 -310.5t-191.5 -191t-308.5 -64.5zM450 975q-72 0 -102.5 27.5t-30.5 69.5q0 50 38.5 78t78.5 28q32 0 60.5 -9.5t46 -32.5
t17.5 -65q0 -40 -24.5 -68t-83.5 -28zM851 977q-51 0 -84 28t-33 70q0 51 38 83t93 32q51 0 76 -30t25 -68q0 -48 -31.5 -81.5t-83.5 -33.5z" />
    <glyph glyph-name="yacute" unicode="&#xfd;" horiz-adv-x="1182" 
d="M198 -387q-44 0 -69.5 23t-25.5 56q0 37 28.5 67.5t76.5 54.5q52 33 104 72t95.5 78t70 73t26.5 56q0 20 -28.5 46.5t-91.5 64.5q-52 34 -103.5 83t-96.5 108t-80 121t-54.5 121.5t-19.5 110.5q0 33 15 59.5t41 41.5t59 15q53 0 90 -26.5t68 -94.5q42 -116 96 -215
t106 -167q29 -35 59 -60t48 -25q27 0 52.5 27t42.5 57q55 87 94 187.5t77 206.5q24 52 56.5 86t75.5 34q62 0 87 -32t25 -84q0 -61 -21 -136.5t-56.5 -156.5t-78.5 -159t-89 -145.5t-88 -116.5q-65 -75 -141.5 -151.5t-156 -140t-155 -101.5t-138.5 -38zM505 935
q-22 0 -36 10t-14 33q0 30 55 76.5t138 98.5q54 34 109.5 57.5t90.5 23.5q31 0 49 -16t18 -49q0 -39 -37.5 -72.5t-104.5 -68.5q-71 -37 -146 -65t-122 -28z" />
    <glyph glyph-name="thorn" unicode="&#xfe;" horiz-adv-x="1208" 
d="M225 -455q-54 0 -84.5 46t-43.5 137q-8 61 -14.5 135.5t-12 155.5t-9 164t-5.5 162t-2 149q0 74 3.5 154.5t11.5 160t20.5 151.5t30.5 129q20 50 45 86t53.5 55.5t60.5 19.5q54 0 76 -27.5t22 -82.5q0 -25 -3.5 -57.5t-7.5 -68t-8.5 -71.5t-8 -70t-3.5 -62q0 -46 19 -46
q16 0 41.5 15.5t65 36t97.5 35.5t139 15q100 0 177 -32t129.5 -91.5t79 -140.5t26.5 -179q0 -104 -29 -188.5t-84 -144.5t-135 -92.5t-183 -32.5q-84 0 -143 15.5t-96 31t-57 15.5q-38 0 -49.5 -39.5t-11.5 -103.5q0 -14 -0.5 -40.5t-0.5 -57.5t-1 -60.5t-3 -49.5
q-7 -66 -30 -99t-72 -33zM574 126q47 0 98.5 13.5t96 45t73 86t28.5 136.5q0 95 -29.5 158t-88.5 94.5t-150 31.5q-132 0 -210 -53t-78 -154q0 -14 1 -43.5t2.5 -63t3 -62.5t2.5 -42q3 -36 34.5 -70t87 -55.5t129.5 -21.5z" />
    <glyph glyph-name="ydieresis" unicode="&#xff;" horiz-adv-x="1182" 
d="M198 -387q-44 0 -69.5 23t-25.5 56q0 37 28.5 67.5t76.5 54.5q52 33 104 72t95.5 78t70 73t26.5 56q0 20 -28.5 46.5t-91.5 64.5q-52 34 -103.5 83t-96.5 108t-80 121t-54.5 121.5t-19.5 110.5q0 33 15 59.5t41 41.5t59 15q53 0 90 -26.5t68 -94.5q42 -116 96 -215
t106 -167q29 -35 59 -60t48 -25q27 0 52.5 27t42.5 57q55 87 94 187.5t77 206.5q24 52 56.5 86t75.5 34q62 0 87 -32t25 -84q0 -61 -21 -136.5t-56.5 -156.5t-78.5 -159t-89 -145.5t-88 -116.5q-65 -75 -141.5 -151.5t-156 -140t-155 -101.5t-138.5 -38zM376 953
q-72 0 -102.5 27.5t-30.5 69.5q0 50 38.5 78t78.5 28q32 0 60.5 -9.5t46 -32.5t17.5 -65q0 -40 -24.5 -68t-83.5 -28zM777 955q-51 0 -84 28t-33 70q0 51 38 83t93 32q51 0 76 -30t25 -68q0 -48 -31.5 -81.5t-83.5 -33.5z" />
    <glyph glyph-name="Amacron" unicode="&#x100;" horiz-adv-x="1469" 
d="M1279 -40q-41 0 -70.5 20.5t-52.5 61.5q-9 27 -20 63.5t-21.5 74.5t-21.5 72.5t-22 57.5q-14 32 -34.5 47t-60.5 21q-20 2 -60.5 5.5t-88.5 6t-90 2.5q-64 0 -130 -3t-114 -8q-41 -4 -61.5 -16.5t-33.5 -43.5q-13 -29 -27 -70t-28 -86t-28 -88q-21 -48 -50.5 -72.5
t-81.5 -24.5q-40 0 -67 13t-40 43t-13 79q0 46 13 110.5t35.5 139.5t50 152t56 148.5t54.5 129t45 91.5q34 63 77.5 121t97 103.5t117.5 72t141 26.5q124 0 223.5 -75t176.5 -199q29 -42 58.5 -108.5t58.5 -147t54 -166.5t44.5 -169t30 -153t10.5 -118q0 -62 -34 -87.5
t-93 -25.5zM989 551q22 4 29 17t7 41q0 31 -10.5 76.5t-28.5 96t-42 94.5q-34 65 -80 108.5t-99 43.5q-58 0 -110.5 -45.5t-92.5 -115.5q-17 -28 -35 -64t-33 -74t-24.5 -71.5t-9.5 -56.5q0 -30 24 -41.5t77 -11.5h194h139.5t94.5 3zM751 1329q-106 0 -187 3.5t-126.5 17.5
t-45.5 44q0 28 29.5 42.5t112 19t240.5 4.5q106 0 183 -4t119 -15.5t42 -35.5q0 -36 -40.5 -52t-121.5 -20t-205 -4z" />
    <glyph glyph-name="amacron" unicode="&#x101;" horiz-adv-x="1205" 
d="M467 -97q-81 0 -153.5 16t-128.5 51t-88 91t-32 137q0 92 45 151t122.5 92.5t174.5 46.5t201 13q32 0 65 -2t62.5 -4t48.5 -2q26 0 35 8.5t9 29.5q0 39 -9.5 69t-27.5 53t-43 39q-40 27 -96.5 38.5t-121.5 11.5q-77 0 -136.5 -16t-105.5 -33t-84 -17q-52 0 -80 17t-28 55
q0 39 33 72t91.5 58t136 39t165.5 14q177 0 296.5 -44.5t179.5 -144t60 -267.5q0 -50 -5 -87t-12.5 -64.5t-12.5 -47.5t-5 -37q0 -24 15.5 -45.5t37 -42.5t37.5 -44.5t16 -52.5q0 -43 -28 -62t-62 -19q-31 0 -51.5 20.5t-37 40.5t-40.5 20q-14 0 -30.5 -8t-40.5 -25
q-30 -22 -76.5 -49.5t-118.5 -48t-177 -20.5zM494 56q62 0 120 19.5t104 54t73 81t27 100.5q0 34 -22.5 49t-73.5 19t-135 4q-83 0 -154 -16.5t-114 -55t-43 -104.5q0 -51 26 -84t75 -50t117 -17zM543 1048q-106 0 -187 3.5t-126.5 17.5t-45.5 44q0 28 29.5 42.5t112 19
t240.5 4.5q106 0 183 -4t119 -15.5t42 -35.5q0 -36 -40.5 -52t-121.5 -20t-205 -4z" />
    <glyph glyph-name="Abreve" unicode="&#x102;" horiz-adv-x="1493" 
d="M1279 -40q-41 0 -70.5 20.5t-52.5 61.5q-9 27 -20 63.5t-21.5 74.5t-21.5 72.5t-22 57.5q-14 32 -34.5 47t-60.5 21q-20 2 -60.5 5.5t-88.5 6t-90 2.5q-64 0 -130 -3t-114 -8q-41 -4 -61.5 -16.5t-33.5 -43.5q-13 -29 -27 -70t-28 -86t-28 -88q-21 -48 -50.5 -72.5
t-81.5 -24.5q-40 0 -67 13t-40 43t-13 79q0 46 13 110.5t35.5 139.5t50 152t56 148.5t54.5 129t45 91.5q34 63 77.5 121t97 103.5t117.5 72t141 26.5q124 0 223.5 -75t176.5 -199q29 -42 58.5 -108.5t58.5 -147t54 -166.5t44.5 -169t30 -153t10.5 -118q0 -62 -34 -87.5
t-93 -25.5zM989 551q22 4 29 17t7 41q0 31 -10.5 76.5t-28.5 96t-42 94.5q-34 65 -80 108.5t-99 43.5q-58 0 -110.5 -45.5t-92.5 -115.5q-17 -28 -35 -64t-33 -74t-24.5 -71.5t-9.5 -56.5q0 -30 24 -41.5t77 -11.5h194h139.5t94.5 3zM742 1315q-76 0 -139 26t-100 82
t-37 143q0 38 17.5 58.5t45.5 20.5q31 0 43.5 -19t17.5 -58q9 -77 54.5 -111t99.5 -34q44 0 82.5 17.5t65 53.5t33.5 90q5 37 20.5 52t37.5 15q23 0 39.5 -17t16.5 -57q0 -86 -42.5 -144.5t-110.5 -88t-144 -29.5z" />
    <glyph glyph-name="abreve" unicode="&#x103;" horiz-adv-x="1205" 
d="M467 -97q-81 0 -153.5 16t-128.5 51t-88 91t-32 137q0 92 45 151t122.5 92.5t174.5 46.5t201 13q32 0 65 -2t62.5 -4t48.5 -2q26 0 35 8.5t9 29.5q0 39 -9.5 69t-27.5 53t-43 39q-40 27 -96.5 38.5t-121.5 11.5q-77 0 -136.5 -16t-105.5 -33t-84 -17q-52 0 -80 17t-28 55
q0 39 33 72t91.5 58t136 39t165.5 14q177 0 296.5 -44.5t179.5 -144t60 -267.5q0 -50 -5 -87t-12.5 -64.5t-12.5 -47.5t-5 -37q0 -24 15.5 -45.5t37 -42.5t37.5 -44.5t16 -52.5q0 -43 -28 -62t-62 -19q-31 0 -51.5 20.5t-37 40.5t-40.5 20q-14 0 -30.5 -8t-40.5 -25
q-30 -22 -76.5 -49.5t-118.5 -48t-177 -20.5zM494 56q62 0 120 19.5t104 54t73 81t27 100.5q0 34 -22.5 49t-73.5 19t-135 4q-83 0 -154 -16.5t-114 -55t-43 -104.5q0 -51 26 -84t75 -50t117 -17zM537 1001q-76 0 -139 26t-100 82t-37 143q0 38 17.5 58.5t45.5 20.5
q31 0 43.5 -19t17.5 -58q9 -77 54.5 -111t99.5 -34q44 0 82.5 17.5t65 53.5t33.5 90q5 37 20.5 52t37.5 15q23 0 39.5 -17t16.5 -57q0 -86 -42.5 -144.5t-110.5 -88t-144 -29.5z" />
    <glyph glyph-name="Aogonek" unicode="&#x104;" horiz-adv-x="1469" 
d="M1279 -40q-41 0 -70.5 20.5t-52.5 61.5q-9 27 -20 63.5t-21.5 74.5t-21.5 72.5t-22 57.5q-14 32 -34.5 47t-60.5 21q-20 2 -60.5 5.5t-88.5 6t-90 2.5q-64 0 -130 -3t-114 -8q-41 -4 -61.5 -16.5t-33.5 -43.5q-13 -29 -27 -70t-28 -86t-28 -88q-21 -48 -50.5 -72.5
t-81.5 -24.5q-40 0 -67 13t-40 43t-13 79q0 46 13 110.5t35.5 139.5t50 152t56 148.5t54.5 129t45 91.5q34 63 77.5 121t97 103.5t117.5 72t141 26.5q124 0 223.5 -75t176.5 -199q29 -42 58.5 -108.5t58.5 -147t54 -166.5t44.5 -169t30 -153t10.5 -118q0 -62 -34 -87.5
t-93 -25.5zM989 551q22 4 29 17t7 41q0 31 -10.5 76.5t-28.5 96t-42 94.5q-34 65 -80 108.5t-99 43.5q-58 0 -110.5 -45.5t-92.5 -115.5q-17 -28 -35 -64t-33 -74t-24.5 -71.5t-9.5 -56.5q0 -30 24 -41.5t77 -11.5h194h139.5t94.5 3zM1445 -371q-62 0 -116 19t-86.5 62
t-32.5 114q0 47 14.5 101.5t36.5 98.5q19 35 38 53t51 18q29 0 40.5 -13t11.5 -32q0 -37 -19.5 -79t-19.5 -113q0 -43 14.5 -66t41.5 -31t65 -8q31 0 64.5 7t61.5 7q24 0 37.5 -10t13.5 -36q0 -31 -29 -52t-78 -30.5t-109 -9.5z" />
    <glyph glyph-name="aogonek" unicode="&#x105;" horiz-adv-x="1205" 
d="M467 -97q-81 0 -153.5 16t-128.5 51t-88 91t-32 137q0 92 45 151t122.5 92.5t174.5 46.5t201 13q32 0 65 -2t62.5 -4t48.5 -2q26 0 35 8.5t9 29.5q0 39 -9.5 69t-27.5 53t-43 39q-40 27 -96.5 38.5t-121.5 11.5q-77 0 -136.5 -16t-105.5 -33t-84 -17q-52 0 -80 17t-28 55
q0 39 33 72t91.5 58t136 39t165.5 14q177 0 296.5 -44.5t179.5 -144t60 -267.5q0 -50 -5 -87t-12.5 -64.5t-12.5 -47.5t-5 -37q0 -24 15.5 -45.5t37 -42.5t37.5 -44.5t16 -52.5q0 -43 -28 -62t-62 -19q-31 0 -51.5 20.5t-37 40.5t-40.5 20q-14 0 -30.5 -8t-40.5 -25
q-30 -22 -76.5 -49.5t-118.5 -48t-177 -20.5zM494 56q62 0 120 19.5t104 54t73 81t27 100.5q0 34 -22.5 49t-73.5 19t-135 4q-83 0 -154 -16.5t-114 -55t-43 -104.5q0 -51 26 -84t75 -50t117 -17zM1170 -374q-63 0 -116.5 19t-86 62t-32.5 115q0 47 14 101.5t37 98.5
q19 35 38 53t50 18q30 0 41.5 -13.5t11.5 -32.5q0 -36 -19.5 -78.5t-19.5 -113.5q0 -42 14 -65t41 -31.5t65 -8.5q32 0 65.5 7t60.5 7q24 0 38 -10t14 -35q0 -32 -29 -52.5t-78 -30.5t-109 -10z" />
    <glyph glyph-name="Cacute" unicode="&#x106;" horiz-adv-x="1205" 
d="M657 -64q-137 0 -247 39.5t-187.5 114t-118.5 180.5t-41 239q0 149 43.5 273t128 214.5t206.5 139.5t279 49q80 0 147.5 -16.5t117 -43.5t77 -60t27.5 -67q0 -41 -22 -61t-54 -20q-26 0 -47.5 12t-51.5 27.5t-79 27.5t-128 12q-66 0 -130 -28t-115 -83.5t-81.5 -137
t-30.5 -188.5q0 -81 21 -155t64.5 -131.5t110.5 -90.5t159 -33q70 0 120 18.5t86 43.5t65 43.5t56 18.5q53 0 73 -24.5t20 -68.5q0 -45 -34 -88.5t-96.5 -78.5t-148.5 -56t-189 -21zM581 1230q-22 0 -36 10t-14 33q0 30 55 76.5t138 98.5q54 34 109.5 57.5t90.5 23.5
q31 0 49 -16t18 -49q0 -39 -37.5 -72.5t-104.5 -68.5q-71 -37 -146 -65t-122 -28z" />
    <glyph glyph-name="cacute" unicode="&#x107;" horiz-adv-x="1157" 
d="M605 -60q-119 0 -222.5 32.5t-182 96.5t-123 158.5t-44.5 220.5q0 132 42 236.5t119.5 178t187 112t242.5 38.5q103 0 176 -20t112 -51t39 -63q0 -20 -11 -37t-29 -26.5t-38 -9.5q-23 0 -49.5 9.5t-68.5 19.5t-111 10q-80 0 -146 -26t-114 -74t-74 -113.5t-26 -144.5
q0 -106 43.5 -178.5t119 -109.5t170.5 -37q87 0 148 17.5t102.5 41.5t68.5 42t45 18q33 0 51 -14.5t25.5 -36t7.5 -41.5q0 -43 -31.5 -87t-90.5 -80.5t-144.5 -59t-193.5 -22.5zM482 1062q-22 0 -36 10t-14 33q0 30 55 76.5t138 98.5q54 34 109.5 57.5t90.5 23.5
q31 0 49 -16t18 -49q0 -39 -37.5 -72.5t-104.5 -68.5q-71 -37 -146 -65t-122 -28z" />
    <glyph glyph-name="Ccircumflex" unicode="&#x108;" horiz-adv-x="1205" 
d="M657 -64q-137 0 -247 39.5t-187.5 114t-118.5 180.5t-41 239q0 149 43.5 273t128 214.5t206.5 139.5t279 49q80 0 147.5 -16.5t117 -43.5t77 -60t27.5 -67q0 -41 -22 -61t-54 -20q-26 0 -47.5 12t-51.5 27.5t-79 27.5t-128 12q-66 0 -130 -28t-115 -83.5t-81.5 -137
t-30.5 -188.5q0 -81 21 -155t64.5 -131.5t110.5 -90.5t159 -33q70 0 120 18.5t86 43.5t65 43.5t56 18.5q53 0 73 -24.5t20 -68.5q0 -45 -34 -88.5t-96.5 -78.5t-148.5 -56t-189 -21zM356 1247q-50 0 -50 51q0 33 36.5 82t92.5 97t115 81t103 33q41 0 93.5 -32t102 -79
t81.5 -94.5t32 -77.5q0 -25 -12.5 -38.5t-34.5 -13.5q-33 0 -57 23t-56 69q-22 31 -50 59.5t-56 46.5t-50 18q-19 0 -49 -21.5t-63 -54t-61 -65.5q-37 -44 -61.5 -64t-55.5 -20z" />
    <glyph glyph-name="ccircumflex" unicode="&#x109;" horiz-adv-x="1157" 
d="M605 -60q-119 0 -222.5 32.5t-182 96.5t-123 158.5t-44.5 220.5q0 132 42 236.5t119.5 178t187 112t242.5 38.5q103 0 176 -20t112 -51t39 -63q0 -20 -11 -37t-29 -26.5t-38 -9.5q-23 0 -49.5 9.5t-68.5 19.5t-111 10q-80 0 -146 -26t-114 -74t-74 -113.5t-26 -144.5
q0 -106 43.5 -178.5t119 -109.5t170.5 -37q87 0 148 17.5t102.5 41.5t68.5 42t45 18q33 0 51 -14.5t25.5 -36t7.5 -41.5q0 -43 -31.5 -87t-90.5 -80.5t-144.5 -59t-193.5 -22.5zM295 1066q-50 0 -50 51q0 33 36.5 82t92.5 97t115 81t103 33q41 0 93.5 -32t102 -79
t81.5 -94.5t32 -77.5q0 -25 -12.5 -38.5t-34.5 -13.5q-33 0 -57 23t-56 69q-22 31 -50 59.5t-56 46.5t-50 18q-19 0 -49 -21.5t-63 -54t-61 -65.5q-37 -44 -61.5 -64t-55.5 -20z" />
    <glyph glyph-name="Cdotaccent" unicode="&#x10a;" horiz-adv-x="1205" 
d="M657 -64q-137 0 -247 39.5t-187.5 114t-118.5 180.5t-41 239q0 149 43.5 273t128 214.5t206.5 139.5t279 49q80 0 147.5 -16.5t117 -43.5t77 -60t27.5 -67q0 -41 -22 -61t-54 -20q-26 0 -47.5 12t-51.5 27.5t-79 27.5t-128 12q-66 0 -130 -28t-115 -83.5t-81.5 -137
t-30.5 -188.5q0 -81 21 -155t64.5 -131.5t110.5 -90.5t159 -33q70 0 120 18.5t86 43.5t65 43.5t56 18.5q53 0 73 -24.5t20 -68.5q0 -45 -34 -88.5t-96.5 -78.5t-148.5 -56t-189 -21zM642 1250q-56 0 -102 28t-46 79q0 29 21 51.5t53.5 36t64.5 13.5q35 0 66.5 -16t52 -42
t20.5 -60q0 -49 -38 -69.5t-92 -20.5z" />
    <glyph glyph-name="cdotaccent" unicode="&#x10b;" horiz-adv-x="1157" 
d="M605 -60q-119 0 -222.5 32.5t-182 96.5t-123 158.5t-44.5 220.5q0 132 42 236.5t119.5 178t187 112t242.5 38.5q103 0 176 -20t112 -51t39 -63q0 -20 -11 -37t-29 -26.5t-38 -9.5q-23 0 -49.5 9.5t-68.5 19.5t-111 10q-80 0 -146 -26t-114 -74t-74 -113.5t-26 -144.5
q0 -106 43.5 -178.5t119 -109.5t170.5 -37q87 0 148 17.5t102.5 41.5t68.5 42t45 18q33 0 51 -14.5t25.5 -36t7.5 -41.5q0 -43 -31.5 -87t-90.5 -80.5t-144.5 -59t-193.5 -22.5zM543 1082q-56 0 -102 28t-46 79q0 29 21 51.5t53.5 36t64.5 13.5q35 0 66.5 -16t52 -42
t20.5 -60q0 -49 -38 -69.5t-92 -20.5z" />
    <glyph glyph-name="Ccaron" unicode="&#x10c;" horiz-adv-x="1205" 
d="M657 -64q-137 0 -247 39.5t-187.5 114t-118.5 180.5t-41 239q0 149 43.5 273t128 214.5t206.5 139.5t279 49q80 0 147.5 -16.5t117 -43.5t77 -60t27.5 -67q0 -41 -22 -61t-54 -20q-26 0 -47.5 12t-51.5 27.5t-79 27.5t-128 12q-66 0 -130 -28t-115 -83.5t-81.5 -137
t-30.5 -188.5q0 -81 21 -155t64.5 -131.5t110.5 -90.5t159 -33q70 0 120 18.5t86 43.5t65 43.5t56 18.5q53 0 73 -24.5t20 -68.5q0 -45 -34 -88.5t-96.5 -78.5t-148.5 -56t-189 -21zM624 1247q-41 0 -94 31.5t-102.5 79t-81.5 94.5t-32 78q0 25 13 38.5t34 13.5
q33 0 57.5 -23t56.5 -70q22 -30 50 -58.5t56 -47t49 -18.5t50.5 22t62 54.5t60.5 65.5q38 44 62.5 64t54.5 20q51 0 51 -52q0 -32 -37 -81t-93 -97.5t-114.5 -81t-102.5 -32.5z" />
    <glyph glyph-name="ccaron" unicode="&#x10d;" horiz-adv-x="1157" 
d="M605 -60q-119 0 -222.5 32.5t-182 96.5t-123 158.5t-44.5 220.5q0 132 42 236.5t119.5 178t187 112t242.5 38.5q103 0 176 -20t112 -51t39 -63q0 -20 -11 -37t-29 -26.5t-38 -9.5q-23 0 -49.5 9.5t-68.5 19.5t-111 10q-80 0 -146 -26t-114 -74t-74 -113.5t-26 -144.5
q0 -106 43.5 -178.5t119 -109.5t170.5 -37q87 0 148 17.5t102.5 41.5t68.5 42t45 18q33 0 51 -14.5t25.5 -36t7.5 -41.5q0 -43 -31.5 -87t-90.5 -80.5t-144.5 -59t-193.5 -22.5zM525 1079q-41 0 -94 31.5t-102.5 79t-81.5 94.5t-32 78q0 25 13 38.5t34 13.5q33 0 57.5 -23
t56.5 -70q22 -30 50 -58.5t56 -47t49 -18.5t50.5 22t62 54.5t60.5 65.5q38 44 62.5 64t54.5 20q51 0 51 -52q0 -32 -37 -81t-93 -97.5t-114.5 -81t-102.5 -32.5z" />
    <glyph glyph-name="Dcaron" unicode="&#x10e;" horiz-adv-x="1338" 
d="M349 -21q-77 0 -125.5 23.5t-75.5 71.5t-40 120q-14 72 -19.5 168.5t-5.5 215.5t6 224t23 185q24 108 79.5 169.5t165.5 61.5q158 0 297.5 -38t253.5 -102.5t196.5 -146t127 -169t44.5 -169.5q0 -97 -44.5 -188t-126.5 -168.5t-196.5 -135t-256 -90t-303.5 -32.5z
M455 218q110 0 198.5 24t155.5 64t112.5 91t68.5 106.5t23 107.5q0 46 -27 97.5t-78.5 101t-123.5 89.5t-162.5 64.5t-195.5 24.5q-30 0 -48 -25.5t-27 -70.5q-9 -40 -13.5 -92.5t-4.5 -110.5q0 -130 4.5 -222.5t18.5 -149.5q25 -99 99 -99zM686 1272q-41 0 -94 31.5
t-102.5 79t-81.5 94.5t-32 78q0 25 13 38.5t34 13.5q33 0 57.5 -23t56.5 -70q22 -30 50 -58.5t56 -47t49 -18.5t50.5 22t62 54.5t60.5 65.5q38 44 62.5 64t54.5 20q51 0 51 -52q0 -32 -37 -81t-93 -97.5t-114.5 -81t-102.5 -32.5z" />
    <glyph glyph-name="dcaron" unicode="&#x10f;" horiz-adv-x="1316" 
d="M512 -53q-147 0 -254.5 50t-166 148.5t-58.5 243.5q0 136 53 230t152 142.5t237 48.5q76 0 126.5 -16.5t82.5 -34.5q23 -13 41.5 -23t26.5 -10q16 0 16 29q0 26 -5 66.5t-11.5 88.5t-14 96t-12 89t-4.5 66q0 118 115 118q41 0 76.5 -19.5t57.5 -59.5q15 -35 29 -96
t26.5 -136t22 -152t15 -144t5.5 -113q0 -207 -55.5 -343t-178 -202.5t-322.5 -66.5zM519 98q92 0 155 34t95.5 97.5t32.5 151.5q0 87 -32 145.5t-90 88.5t-140 30q-89 0 -155 -31t-102 -91.5t-36 -150.5q0 -84 34 -145.5t95 -95t143 -33.5zM1224 808q-29 0 -42 13t-13 38
q0 26 4 69t4 88q0 37 -12 66t-24.5 56t-12.5 56q0 25 14.5 43t38.5 18q41 0 71.5 -37t47 -92t16.5 -107q0 -41 -11.5 -90.5t-32 -85t-48.5 -35.5z" />
    <glyph glyph-name="Dcroat" unicode="&#x110;" horiz-adv-x="1338" 
d="M234 564q-106 0 -164 3.5t-80 13.5t-22 31q0 26 24.5 38.5t90 17t189.5 4.5q104 0 176 -1.5t116 -7t63.5 -17t19.5 -31.5q0 -17 -21.5 -27.5t-70 -15.5t-127.5 -6.5t-194 -1.5zM349 -21q-77 0 -125.5 23.5t-75.5 71.5t-40 120q-14 72 -19.5 168.5t-5.5 215.5t6 224
t23 185q24 108 79.5 169.5t165.5 61.5q158 0 297.5 -38t253.5 -102.5t196.5 -146t127 -169t44.5 -169.5q0 -97 -44.5 -188t-126.5 -168.5t-196.5 -135t-256 -90t-303.5 -32.5zM455 218q110 0 198.5 24t155.5 64t112.5 91t68.5 106.5t23 107.5q0 46 -27 97.5t-78.5 101
t-123.5 89.5t-162.5 64.5t-195.5 24.5q-30 0 -48 -25.5t-27 -70.5q-9 -40 -13.5 -92.5t-4.5 -110.5q0 -130 4.5 -222.5t18.5 -149.5q25 -99 99 -99z" />
    <glyph glyph-name="dcroat" unicode="&#x111;" horiz-adv-x="1179" 
d="M725 1003q-116 0 -179.5 3.5t-88 15t-24.5 34.5q0 29 27.5 43.5t98.5 19.5t203 5q129 0 206 -2t116 -7.5t52 -17t13 -30.5q0 -20 -16.5 -32.5t-61.5 -19.5t-128.5 -9.5t-217.5 -2.5zM512 -53q-147 0 -254.5 50t-166 148.5t-58.5 243.5q0 136 53 230t152 142.5t237 48.5
q76 0 126.5 -16.5t82.5 -34.5q23 -13 41.5 -23t26.5 -10q16 0 16 29q0 26 -5 66.5t-11.5 88.5t-14 96t-12 89t-4.5 66q0 118 115 118q41 0 76.5 -19.5t57.5 -59.5q15 -35 29 -96t26.5 -136t22 -152t15 -144t5.5 -113q0 -207 -55.5 -343t-178 -202.5t-322.5 -66.5zM519 98
q92 0 155 34t95.5 97.5t32.5 151.5q0 87 -32 145.5t-90 88.5t-140 30q-89 0 -155 -31t-102 -91.5t-36 -150.5q0 -84 34 -145.5t95 -95t143 -33.5z" />
    <glyph glyph-name="Emacron" unicode="&#x112;" horiz-adv-x="1137" 
d="M505 -62q-127 0 -214 46t-134.5 139t-62.5 235q-4 34 -6 70.5t-3.5 76t-1.5 81.5v86q0 171 33 282.5t103.5 174.5t181 89t263.5 26q75 0 143.5 -6.5t121.5 -19.5t83.5 -32.5t30.5 -46.5q0 -28 -16.5 -44.5t-42.5 -21.5q-31 -4 -82 -1.5t-112 5.5t-124 3q-90 0 -151 -13.5
t-98 -44.5t-53 -84t-16 -131q0 -40 10.5 -60.5t49.5 -27t125 -6.5q21 0 52 0.5t64.5 1.5t63 1h46.5q75 0 104 -19t29 -56q0 -53 -34.5 -72.5t-91.5 -19.5h-55t-62.5 -0.5t-62.5 -0.5h-54q-89 0 -132 -5.5t-55.5 -24t-12.5 -58.5q0 -66 6 -118.5t21 -91t42.5 -63.5
t70.5 -37.5t104 -12.5q76 0 149 5t132 9.5t92 4.5q45 0 66 -18.5t21 -54.5q0 -40 -49.5 -68t-129 -45t-172.5 -24.5t-180 -7.5zM572 1371q-106 0 -187 3.5t-126.5 17.5t-45.5 44q0 28 29.5 42.5t112 19t240.5 4.5q106 0 183 -4t119 -15.5t42 -35.5q0 -36 -40.5 -52
t-121.5 -20t-205 -4z" />
    <glyph glyph-name="emacron" unicode="&#x113;" horiz-adv-x="1146" 
d="M607 -69q-168 0 -291 51t-190 157.5t-67 271.5q0 137 45.5 239.5t125.5 171.5t185 103.5t224 34.5q81 0 153.5 -17t129 -52.5t88.5 -90.5t32 -131q0 -81 -34 -131.5t-93 -79t-133.5 -42t-155.5 -20.5q-41 -7 -97 -11.5t-108.5 -7t-81.5 -2.5q-30 0 -41 -8t-11 -29
q0 -25 14 -58.5t40 -65.5q48 -59 111.5 -78.5t156.5 -19.5q81 0 148 19.5t120.5 39t96.5 19.5q39 0 61.5 -14.5t22.5 -56.5q0 -38 -34.5 -73t-95.5 -61.5t-143 -42t-178 -15.5zM528 487q81 0 151 15.5t113.5 53t43.5 103.5q0 78 -57 117.5t-160 39.5q-61 0 -119 -21.5
t-103 -59.5t-72 -86t-27 -103q0 -28 22.5 -40.5t73 -15.5t134.5 -3zM630 1130q-106 0 -187 3.5t-126.5 17.5t-45.5 44q0 28 29.5 42.5t112 19t240.5 4.5q106 0 183 -4t119 -15.5t42 -35.5q0 -36 -40.5 -52t-121.5 -20t-205 -4z" />
    <glyph glyph-name="Ebreve" unicode="&#x114;" horiz-adv-x="1137" 
d="M505 -62q-127 0 -214 46t-134.5 139t-62.5 235q-4 34 -6 70.5t-3.5 76t-1.5 81.5v86q0 171 33 282.5t103.5 174.5t181 89t263.5 26q75 0 143.5 -6.5t121.5 -19.5t83.5 -32.5t30.5 -46.5q0 -28 -16.5 -44.5t-42.5 -21.5q-31 -4 -82 -1.5t-112 5.5t-124 3q-90 0 -151 -13.5
t-98 -44.5t-53 -84t-16 -131q0 -40 10.5 -60.5t49.5 -27t125 -6.5q21 0 52 0.5t64.5 1.5t63 1h46.5q75 0 104 -19t29 -56q0 -53 -34.5 -72.5t-91.5 -19.5h-55t-62.5 -0.5t-62.5 -0.5h-54q-89 0 -132 -5.5t-55.5 -24t-12.5 -58.5q0 -66 6 -118.5t21 -91t42.5 -63.5
t70.5 -37.5t104 -12.5q76 0 149 5t132 9.5t92 4.5q45 0 66 -18.5t21 -54.5q0 -40 -49.5 -68t-129 -45t-172.5 -24.5t-180 -7.5zM566 1324q-76 0 -139 26t-100 82t-37 143q0 38 17.5 58.5t45.5 20.5q31 0 43.5 -19t17.5 -58q9 -77 54.5 -111t99.5 -34q44 0 82.5 17.5t65 53.5
t33.5 90q5 37 20.5 52t37.5 15q23 0 39.5 -17t16.5 -57q0 -86 -42.5 -144.5t-110.5 -88t-144 -29.5z" />
    <glyph glyph-name="ebreve" unicode="&#x115;" horiz-adv-x="1146" 
d="M607 -69q-168 0 -291 51t-190 157.5t-67 271.5q0 137 45.5 239.5t125.5 171.5t185 103.5t224 34.5q81 0 153.5 -17t129 -52.5t88.5 -90.5t32 -131q0 -81 -34 -131.5t-93 -79t-133.5 -42t-155.5 -20.5q-41 -7 -97 -11.5t-108.5 -7t-81.5 -2.5q-30 0 -41 -8t-11 -29
q0 -25 14 -58.5t40 -65.5q48 -59 111.5 -78.5t156.5 -19.5q81 0 148 19.5t120.5 39t96.5 19.5q39 0 61.5 -14.5t22.5 -56.5q0 -38 -34.5 -73t-95.5 -61.5t-143 -42t-178 -15.5zM528 487q81 0 151 15.5t113.5 53t43.5 103.5q0 78 -57 117.5t-160 39.5q-61 0 -119 -21.5
t-103 -59.5t-72 -86t-27 -103q0 -28 22.5 -40.5t73 -15.5t134.5 -3zM625 1083q-76 0 -139 26t-100 82t-37 143q0 38 17.5 58.5t45.5 20.5q31 0 43.5 -19t17.5 -58q9 -77 54.5 -111t99.5 -34q44 0 82.5 17.5t65 53.5t33.5 90q5 37 20.5 52t37.5 15q23 0 39.5 -17t16.5 -57
q0 -86 -42.5 -144.5t-110.5 -88t-144 -29.5z" />
    <glyph glyph-name="Edotaccent" unicode="&#x116;" horiz-adv-x="1137" 
d="M505 -62q-127 0 -214 46t-134.5 139t-62.5 235q-4 34 -6 70.5t-3.5 76t-1.5 81.5v86q0 171 33 282.5t103.5 174.5t181 89t263.5 26q75 0 143.5 -6.5t121.5 -19.5t83.5 -32.5t30.5 -46.5q0 -28 -16.5 -44.5t-42.5 -21.5q-31 -4 -82 -1.5t-112 5.5t-124 3q-90 0 -151 -13.5
t-98 -44.5t-53 -84t-16 -131q0 -40 10.5 -60.5t49.5 -27t125 -6.5q21 0 52 0.5t64.5 1.5t63 1h46.5q75 0 104 -19t29 -56q0 -53 -34.5 -72.5t-91.5 -19.5h-55t-62.5 -0.5t-62.5 -0.5h-54q-89 0 -132 -5.5t-55.5 -24t-12.5 -58.5q0 -66 6 -118.5t21 -91t42.5 -63.5
t70.5 -37.5t104 -12.5q76 0 149 5t132 9.5t92 4.5q45 0 66 -18.5t21 -54.5q0 -40 -49.5 -68t-129 -45t-172.5 -24.5t-180 -7.5zM581 1325q-56 0 -102 28t-46 79q0 29 21 51.5t53.5 36t64.5 13.5q35 0 66.5 -16t52 -42t20.5 -60q0 -49 -38 -69.5t-92 -20.5z" />
    <glyph glyph-name="edotaccent" unicode="&#x117;" horiz-adv-x="1146" 
d="M607 -69q-168 0 -291 51t-190 157.5t-67 271.5q0 137 45.5 239.5t125.5 171.5t185 103.5t224 34.5q81 0 153.5 -17t129 -52.5t88.5 -90.5t32 -131q0 -81 -34 -131.5t-93 -79t-133.5 -42t-155.5 -20.5q-41 -7 -97 -11.5t-108.5 -7t-81.5 -2.5q-30 0 -41 -8t-11 -29
q0 -25 14 -58.5t40 -65.5q48 -59 111.5 -78.5t156.5 -19.5q81 0 148 19.5t120.5 39t96.5 19.5q39 0 61.5 -14.5t22.5 -56.5q0 -38 -34.5 -73t-95.5 -61.5t-143 -42t-178 -15.5zM528 487q81 0 151 15.5t113.5 53t43.5 103.5q0 78 -57 117.5t-160 39.5q-61 0 -119 -21.5
t-103 -59.5t-72 -86t-27 -103q0 -28 22.5 -40.5t73 -15.5t134.5 -3zM640 1084q-56 0 -102 28t-46 79q0 29 21 51.5t53.5 36t64.5 13.5q35 0 66.5 -16t52 -42t20.5 -60q0 -49 -38 -69.5t-92 -20.5z" />
    <glyph glyph-name="Eogonek" unicode="&#x118;" horiz-adv-x="1137" 
d="M505 -62q-127 0 -214 46t-134.5 139t-62.5 235q-4 34 -6 70.5t-3.5 76t-1.5 81.5v86q0 171 33 282.5t103.5 174.5t181 89t263.5 26q75 0 143.5 -6.5t121.5 -19.5t83.5 -32.5t30.5 -46.5q0 -28 -16.5 -44.5t-42.5 -21.5q-31 -4 -82 -1.5t-112 5.5t-124 3q-90 0 -151 -13.5
t-98 -44.5t-53 -84t-16 -131q0 -40 10.5 -60.5t49.5 -27t125 -6.5q21 0 52 0.5t64.5 1.5t63 1h46.5q75 0 104 -19t29 -56q0 -53 -34.5 -72.5t-91.5 -19.5h-55t-62.5 -0.5t-62.5 -0.5h-54q-89 0 -132 -5.5t-55.5 -24t-12.5 -58.5q0 -66 6 -118.5t21 -91t42.5 -63.5
t70.5 -37.5t104 -12.5q76 0 149 5t132 9.5t92 4.5q45 0 66 -18.5t21 -54.5q0 -40 -49.5 -68t-129 -45t-172.5 -24.5t-180 -7.5zM1079 -345q-63 0 -117 19.5t-86.5 62t-32.5 114.5q0 47 14.5 101.5t37.5 98.5q19 35 38 53t50 18q30 0 41.5 -13.5t11.5 -32.5q0 -36 -19.5 -78
t-19.5 -114q0 -42 14 -65t41 -31.5t65 -8.5q32 0 65.5 7.5t60.5 7.5q24 0 38 -10t14 -36q0 -32 -29.5 -52.5t-78 -30.5t-108.5 -10z" />
    <glyph glyph-name="eogonek" unicode="&#x119;" horiz-adv-x="1146" 
d="M607 -69q-168 0 -291 51t-190 157.5t-67 271.5q0 137 45.5 239.5t125.5 171.5t185 103.5t224 34.5q81 0 153.5 -17t129 -52.5t88.5 -90.5t32 -131q0 -81 -34 -131.5t-93 -79t-133.5 -42t-155.5 -20.5q-41 -7 -97 -11.5t-108.5 -7t-81.5 -2.5q-30 0 -41 -8t-11 -29
q0 -25 14 -58.5t40 -65.5q48 -59 111.5 -78.5t156.5 -19.5q81 0 148 19.5t120.5 39t96.5 19.5q39 0 61.5 -14.5t22.5 -56.5q0 -38 -34.5 -73t-95.5 -61.5t-143 -42t-178 -15.5zM528 487q81 0 151 15.5t113.5 53t43.5 103.5q0 78 -57 117.5t-160 39.5q-61 0 -119 -21.5
t-103 -59.5t-72 -86t-27 -103q0 -28 22.5 -40.5t73 -15.5t134.5 -3zM1102 -316q-63 0 -116.5 19t-86 62t-32.5 114q0 47 14 101.5t37 98.5q19 35 38 53t51 18q29 0 40.5 -13t11.5 -32q0 -37 -19.5 -79t-19.5 -113q0 -43 14.5 -66t41 -31t65.5 -8q31 0 64.5 7t61.5 7
q23 0 37 -10t14 -36q0 -31 -29 -52t-78 -30.5t-109 -9.5z" />
    <glyph glyph-name="Ecaron" unicode="&#x11a;" horiz-adv-x="1137" 
d="M505 -62q-127 0 -214 46t-134.5 139t-62.5 235q-4 34 -6 70.5t-3.5 76t-1.5 81.5v86q0 171 33 282.5t103.5 174.5t181 89t263.5 26q75 0 143.5 -6.5t121.5 -19.5t83.5 -32.5t30.5 -46.5q0 -28 -16.5 -44.5t-42.5 -21.5q-31 -4 -82 -1.5t-112 5.5t-124 3q-90 0 -151 -13.5
t-98 -44.5t-53 -84t-16 -131q0 -40 10.5 -60.5t49.5 -27t125 -6.5q21 0 52 0.5t64.5 1.5t63 1h46.5q75 0 104 -19t29 -56q0 -53 -34.5 -72.5t-91.5 -19.5h-55t-62.5 -0.5t-62.5 -0.5h-54q-89 0 -132 -5.5t-55.5 -24t-12.5 -58.5q0 -66 6 -118.5t21 -91t42.5 -63.5
t70.5 -37.5t104 -12.5q76 0 149 5t132 9.5t92 4.5q45 0 66 -18.5t21 -54.5q0 -40 -49.5 -68t-129 -45t-172.5 -24.5t-180 -7.5zM564 1322q-41 0 -94 31.5t-102.5 79t-81.5 94.5t-32 78q0 25 13 38.5t34 13.5q33 0 57.5 -23t56.5 -70q22 -30 50 -58.5t56 -47t49 -18.5
t50.5 22t62 54.5t60.5 65.5q38 44 62.5 64t54.5 20q51 0 51 -52q0 -32 -37 -81t-93 -97.5t-114.5 -81t-102.5 -32.5z" />
    <glyph glyph-name="ecaron" unicode="&#x11b;" horiz-adv-x="1146" 
d="M607 -69q-168 0 -291 51t-190 157.5t-67 271.5q0 137 45.5 239.5t125.5 171.5t185 103.5t224 34.5q81 0 153.5 -17t129 -52.5t88.5 -90.5t32 -131q0 -81 -34 -131.5t-93 -79t-133.5 -42t-155.5 -20.5q-41 -7 -97 -11.5t-108.5 -7t-81.5 -2.5q-30 0 -41 -8t-11 -29
q0 -25 14 -58.5t40 -65.5q48 -59 111.5 -78.5t156.5 -19.5q81 0 148 19.5t120.5 39t96.5 19.5q39 0 61.5 -14.5t22.5 -56.5q0 -38 -34.5 -73t-95.5 -61.5t-143 -42t-178 -15.5zM528 487q81 0 151 15.5t113.5 53t43.5 103.5q0 78 -57 117.5t-160 39.5q-61 0 -119 -21.5
t-103 -59.5t-72 -86t-27 -103q0 -28 22.5 -40.5t73 -15.5t134.5 -3zM622 1081q-41 0 -94 31.5t-102.5 79t-81.5 94.5t-32 78q0 25 13 38.5t34 13.5q33 0 57.5 -23t56.5 -70q22 -30 50 -58.5t56 -47t49 -18.5t50.5 22t62 54.5t60.5 65.5q38 44 62.5 64t54.5 20q51 0 51 -52
q0 -32 -37 -81t-93 -97.5t-114.5 -81t-102.5 -32.5z" />
    <glyph glyph-name="Gcircumflex" unicode="&#x11c;" horiz-adv-x="1440" 
d="M716 -77q-153 0 -274 43.5t-206 128t-129 210.5t-44 292q0 143 40.5 250t111.5 183t163.5 123t196.5 69t210 22q75 0 147 -13.5t129.5 -37.5t92 -54.5t34.5 -65.5q0 -38 -26 -59.5t-65 -21.5q-24 0 -51.5 10t-65 23t-91 23.5t-130.5 10.5q-92 0 -169.5 -32t-135 -92
t-89 -146.5t-31.5 -196.5q0 -162 50.5 -265.5t147 -152t232.5 -48.5q71 0 132.5 13.5t107.5 42t72 72t26 103.5q0 49 -28 86.5t-83.5 60t-137.5 25.5q-84 6 -131.5 24t-47.5 66q0 38 29.5 59t84.5 29.5t132 8.5q102 0 184.5 -19.5t140.5 -60t89 -103.5t31 -149
q0 -128 -48.5 -217t-136 -142.5t-205.5 -77.5t-259 -24zM454 1337q-50 0 -50 51q0 33 36.5 82t92.5 97t115 81t103 33q41 0 93.5 -32t102 -79t81.5 -94.5t32 -77.5q0 -25 -12.5 -38.5t-34.5 -13.5q-33 0 -57 23t-56 69q-22 31 -50 59.5t-56 46.5t-50 18q-19 0 -49 -21.5
t-63 -54t-61 -65.5q-37 -44 -61.5 -64t-55.5 -20z" />
    <glyph glyph-name="gcircumflex" unicode="&#x11d;" horiz-adv-x="1274" 
d="M534 -442q-124 0 -213 18.5t-145.5 47t-83 61t-26.5 61.5q0 26 16.5 43.5t44 26.5t62.5 9q28 0 65.5 -12t86 -27.5t110 -26.5t136.5 -8q81 1 137 30t91 76.5t51 103t16 111.5q0 10 -1.5 17t-4.5 11.5t-9 4.5q-11 0 -35.5 -20.5t-66 -46.5t-103 -46.5t-145.5 -20.5
q-158 0 -265 53t-161.5 152.5t-54.5 238.5q0 125 48 215.5t131.5 149.5t190 87t222.5 28q126 0 226 -38.5t169.5 -112.5t106 -179.5t36.5 -239.5q0 -200 -40.5 -345t-120 -238.5t-197.5 -138.5t-274 -45zM579 141q69 0 130 21.5t107 61t72.5 93.5t26.5 119q0 79 -34.5 140.5
t-99.5 97t-159 35.5q-56 0 -116 -13.5t-111 -47t-82.5 -90.5t-31.5 -144q0 -82 36.5 -144t103.5 -95.5t158 -33.5zM347 1001q-50 0 -50 51q0 33 36.5 82t92.5 97t115 81t103 33q41 0 93.5 -32t102 -79t81.5 -94.5t32 -77.5q0 -25 -12.5 -38.5t-34.5 -13.5q-33 0 -57 23
t-56 69q-22 31 -50 59.5t-56 46.5t-50 18q-19 0 -49 -21.5t-63 -54t-61 -65.5q-37 -44 -61.5 -64t-55.5 -20z" />
    <glyph glyph-name="Gbreve" unicode="&#x11e;" horiz-adv-x="1440" 
d="M716 -77q-153 0 -274 43.5t-206 128t-129 210.5t-44 292q0 143 40.5 250t111.5 183t163.5 123t196.5 69t210 22q75 0 147 -13.5t129.5 -37.5t92 -54.5t34.5 -65.5q0 -38 -26 -59.5t-65 -21.5q-24 0 -51.5 10t-65 23t-91 23.5t-130.5 10.5q-92 0 -169.5 -32t-135 -92
t-89 -146.5t-31.5 -196.5q0 -162 50.5 -265.5t147 -152t232.5 -48.5q71 0 132.5 13.5t107.5 42t72 72t26 103.5q0 49 -28 86.5t-83.5 60t-137.5 25.5q-84 6 -131.5 24t-47.5 66q0 38 29.5 59t84.5 29.5t132 8.5q102 0 184.5 -19.5t140.5 -60t89 -103.5t31 -149
q0 -128 -48.5 -217t-136 -142.5t-205.5 -77.5t-259 -24zM724 1339q-76 0 -139 26t-100 82t-37 143q0 38 17.5 58.5t45.5 20.5q31 0 43.5 -19t17.5 -58q9 -77 54.5 -111t99.5 -34q44 0 82.5 17.5t65 53.5t33.5 90q5 37 20.5 52t37.5 15q23 0 39.5 -17t16.5 -57
q0 -86 -42.5 -144.5t-110.5 -88t-144 -29.5z" />
    <glyph glyph-name="gbreve" unicode="&#x11f;" horiz-adv-x="1274" 
d="M534 -442q-124 0 -213 18.5t-145.5 47t-83 61t-26.5 61.5q0 26 16.5 43.5t44 26.5t62.5 9q28 0 65.5 -12t86 -27.5t110 -26.5t136.5 -8q81 1 137 30t91 76.5t51 103t16 111.5q0 10 -1.5 17t-4.5 11.5t-9 4.5q-11 0 -35.5 -20.5t-66 -46.5t-103 -46.5t-145.5 -20.5
q-158 0 -265 53t-161.5 152.5t-54.5 238.5q0 125 48 215.5t131.5 149.5t190 87t222.5 28q126 0 226 -38.5t169.5 -112.5t106 -179.5t36.5 -239.5q0 -200 -40.5 -345t-120 -238.5t-197.5 -138.5t-274 -45zM579 141q69 0 130 21.5t107 61t72.5 93.5t26.5 119q0 79 -34.5 140.5
t-99.5 97t-159 35.5q-56 0 -116 -13.5t-111 -47t-82.5 -90.5t-31.5 -144q0 -82 36.5 -144t103.5 -95.5t158 -33.5zM618 1003q-76 0 -139 26t-100 82t-37 143q0 38 17.5 58.5t45.5 20.5q31 0 43.5 -19t17.5 -58q9 -77 54.5 -111t99.5 -34q44 0 82.5 17.5t65 53.5t33.5 90
q5 37 20.5 52t37.5 15q23 0 39.5 -17t16.5 -57q0 -86 -42.5 -144.5t-110.5 -88t-144 -29.5z" />
    <glyph glyph-name="Gdotaccent" unicode="&#x120;" horiz-adv-x="1440" 
d="M716 -77q-153 0 -274 43.5t-206 128t-129 210.5t-44 292q0 143 40.5 250t111.5 183t163.5 123t196.5 69t210 22q75 0 147 -13.5t129.5 -37.5t92 -54.5t34.5 -65.5q0 -38 -26 -59.5t-65 -21.5q-24 0 -51.5 10t-65 23t-91 23.5t-130.5 10.5q-92 0 -169.5 -32t-135 -92
t-89 -146.5t-31.5 -196.5q0 -162 50.5 -265.5t147 -152t232.5 -48.5q71 0 132.5 13.5t107.5 42t72 72t26 103.5q0 49 -28 86.5t-83.5 60t-137.5 25.5q-84 6 -131.5 24t-47.5 66q0 38 29.5 59t84.5 29.5t132 8.5q102 0 184.5 -19.5t140.5 -60t89 -103.5t31 -149
q0 -128 -48.5 -217t-136 -142.5t-205.5 -77.5t-259 -24zM768 1660q15 -6 13 -18t-11 -25q-14 -17 -24.5 -40.5t-14.5 -42.5q-8 -28 0 -33q5 -2 14 -0.5t21 1.5q24 0 42.5 -13t23.5 -36q9 -26 0.5 -49t-35.5 -40q-33 -24 -71.5 -14.5t-59.5 41.5q-27 35 -27 78t19 93
q10 26 27.5 49.5t36.5 35.5q11 9 23 13t23 0z" />
    <glyph glyph-name="gdotaccent" unicode="&#x121;" horiz-adv-x="1274" 
d="M534 -442q-124 0 -213 18.5t-145.5 47t-83 61t-26.5 61.5q0 26 16.5 43.5t44 26.5t62.5 9q28 0 65.5 -12t86 -27.5t110 -26.5t136.5 -8q81 1 137 30t91 76.5t51 103t16 111.5q0 10 -1.5 17t-4.5 11.5t-9 4.5q-11 0 -35.5 -20.5t-66 -46.5t-103 -46.5t-145.5 -20.5
q-158 0 -265 53t-161.5 152.5t-54.5 238.5q0 125 48 215.5t131.5 149.5t190 87t222.5 28q126 0 226 -38.5t169.5 -112.5t106 -179.5t36.5 -239.5q0 -200 -40.5 -345t-120 -238.5t-197.5 -138.5t-274 -45zM579 141q69 0 130 21.5t107 61t72.5 93.5t26.5 119q0 79 -34.5 140.5
t-99.5 97t-159 35.5q-56 0 -116 -13.5t-111 -47t-82.5 -90.5t-31.5 -144q0 -82 36.5 -144t103.5 -95.5t158 -33.5zM634 1004q-56 0 -102 28t-46 79q0 29 21 51.5t53.5 36t64.5 13.5q35 0 66.5 -16t52 -42t20.5 -60q0 -49 -38 -69.5t-92 -20.5z" />
    <glyph glyph-name="uni0122" unicode="&#x122;" horiz-adv-x="1440" 
d="M716 -77q-153 0 -274 43.5t-206 128t-129 210.5t-44 292q0 143 40.5 250t111.5 183t163.5 123t196.5 69t210 22q75 0 147 -13.5t129.5 -37.5t92 -54.5t34.5 -65.5q0 -38 -26 -59.5t-65 -21.5q-24 0 -51.5 10t-65 23t-91 23.5t-130.5 10.5q-92 0 -169.5 -32t-135 -92
t-89 -146.5t-31.5 -196.5q0 -162 50.5 -265.5t147 -152t232.5 -48.5q71 0 132.5 13.5t107.5 42t72 72t26 103.5q0 49 -28 86.5t-83.5 60t-137.5 25.5q-84 6 -131.5 24t-47.5 66q0 38 29.5 59t84.5 29.5t132 8.5q102 0 184.5 -19.5t140.5 -60t89 -103.5t31 -149
q0 -128 -48.5 -217t-136 -142.5t-205.5 -77.5t-259 -24zM694 -466q-16 6 -14.5 18t10.5 26q14 18 25 41.5t14 42.5q4 12 5 21.5t-4 12.5q-5 1 -14 0t-21 -1q-24 0 -43 12.5t-23 36.5q-10 25 -2.5 48.5t35.5 41.5q33 25 72 16t61 -41q28 -35 29 -78.5t-18 -95.5
q-10 -27 -27.5 -51t-37.5 -36q-11 -9 -24 -13.5t-23 -0.5z" />
    <glyph glyph-name="uni0123" unicode="&#x123;" horiz-adv-x="1274" 
d="M534 -442q-124 0 -213 18.5t-145.5 47t-83 61t-26.5 61.5q0 26 16.5 43.5t44 26.5t62.5 9q28 0 65.5 -12t86 -27.5t110 -26.5t136.5 -8q81 1 137 30t91 76.5t51 103t16 111.5q0 10 -1.5 17t-4.5 11.5t-9 4.5q-11 0 -35.5 -20.5t-66 -46.5t-103 -46.5t-145.5 -20.5
q-158 0 -265 53t-161.5 152.5t-54.5 238.5q0 125 48 215.5t131.5 149.5t190 87t222.5 28q126 0 226 -38.5t169.5 -112.5t106 -179.5t36.5 -239.5q0 -200 -40.5 -345t-120 -238.5t-197.5 -138.5t-274 -45zM579 141q69 0 130 21.5t107 61t72.5 93.5t26.5 119q0 79 -34.5 140.5
t-99.5 97t-159 35.5q-56 0 -116 -13.5t-111 -47t-82.5 -90.5t-31.5 -144q0 -82 36.5 -144t103.5 -95.5t158 -33.5zM662 1324q15 -6 13 -18t-11 -25q-14 -17 -24.5 -40.5t-14.5 -42.5q-8 -28 0 -33q5 -2 14 -0.5t21 1.5q24 0 42.5 -13t23.5 -36q9 -26 0.5 -49t-35.5 -40
q-33 -24 -71.5 -14.5t-59.5 41.5q-27 35 -27 78t19 93q10 26 27.5 49.5t36.5 35.5q11 9 23 13t23 0z" />
    <glyph glyph-name="Hcircumflex" unicode="&#x124;" horiz-adv-x="1333" 
d="M1079 -22q-43 0 -63.5 18t-26.5 60q-2 36 -2.5 75.5t-0.5 80v78.5t0.5 71t-0.5 56q0 52 -9.5 73.5t-28.5 30.5q-22 10 -82.5 17t-193.5 7q-75 0 -121.5 -1t-74 -3.5t-43 -6t-28.5 -9.5q-14 -6 -27 -19.5t-16 -44.5q-3 -15 -4.5 -36t-3.5 -48t-3 -60.5t-2.5 -75
t-2.5 -92.5q-5 -67 -19 -102t-38 -47.5t-61 -12.5q-55 0 -82.5 49.5t-41.5 124.5q-5 39 -9.5 95t-6.5 117.5t-3.5 120.5t-1.5 104q0 69 1.5 130t5.5 115.5t8.5 101.5t11.5 86q12 69 31 115t47.5 69t68.5 23q46 0 68.5 -32.5t30.5 -114.5q2 -29 4 -58.5t4 -57.5t4 -51.5
t4 -41.5t3 -29q6 -36 15.5 -57.5t36.5 -27.5q35 -7 103 -8.5t145 -1.5q63 0 118 -1.5t96 -0.5t58 6q18 7 29 25.5t15 63.5q2 21 4 50t4.5 66t5.5 77.5t8 82.5q9 75 33 105.5t60 30.5q51 0 77.5 -37.5t40.5 -125.5q7 -26 11.5 -71t8 -103.5t5 -125t1.5 -134.5
q0 -56 -2 -116.5t-5.5 -121t-8.5 -117t-10.5 -104.5t-11.5 -84q-16 -77 -49.5 -111t-83.5 -34zM414 1353q-50 0 -50 51q0 33 36.5 82t92.5 97t115 81t103 33q41 0 93.5 -32t102 -79t81.5 -94.5t32 -77.5q0 -25 -12.5 -38.5t-34.5 -13.5q-33 0 -57 23t-56 69q-22 31 -50 59.5
t-56 46.5t-50 18q-19 0 -49 -21.5t-63 -54t-61 -65.5q-37 -44 -61.5 -64t-55.5 -20z" />
    <glyph glyph-name="hcircumflex" unicode="&#x125;" horiz-adv-x="1221" 
d="M166 -50q-38 0 -59 21.5t-32 67.5q-5 23 -8.5 67t-6.5 105t-4.5 135.5t-1.5 160.5q0 65 3.5 134t11 136.5t18.5 132t25.5 121t32.5 102.5q26 59 62 89t80 30q48 0 75 -34.5t27 -102.5q0 -36 -3 -80t-8 -89t-9.5 -87t-8 -75t-3.5 -52q0 -30 12 -30q11 0 33.5 24.5t64 56
t108.5 56t166 24.5q110 0 182.5 -40.5t114.5 -108t60 -149.5t18 -164q0 -41 -5.5 -91t-14.5 -100.5t-20.5 -94.5t-25.5 -73q-18 -35 -48.5 -52.5t-74.5 -17.5q-36 0 -55 16t-28 42q-4 21 -1.5 58.5t7 85t7.5 99t1 99.5q-1 52 -11.5 103.5t-33 95t-63 69.5t-102.5 26
q-77 0 -135.5 -26.5t-98 -67.5t-61 -85t-25.5 -78q-5 -66 -10 -120.5t-10.5 -99.5t-12.5 -81t-15 -66q-16 -46 -44.5 -69t-69.5 -23zM3 1284q-50 0 -50 51q0 33 36.5 82t92.5 97t115 81t103 33q41 0 93.5 -32t102 -79t81.5 -94.5t32 -77.5q0 -25 -12.5 -38.5t-34.5 -13.5
q-33 0 -57 23t-56 69q-22 31 -50 59.5t-56 46.5t-50 18q-19 0 -49 -21.5t-63 -54t-61 -65.5q-37 -44 -61.5 -64t-55.5 -20z" />
    <glyph glyph-name="Hbar" unicode="&#x126;" horiz-adv-x="1333" 
d="M572 952q-146 0 -252.5 2t-175.5 8t-102.5 16.5t-33.5 27.5q0 22 31.5 35t103.5 20t194 10t303 3q191 0 321.5 -2t209 -8.5t113.5 -19.5t35 -35q0 -15 -24 -26t-77 -17t-140 -9t-212.5 -4t-293.5 -1zM1079 -22q-43 0 -63.5 18t-26.5 60q-2 36 -2.5 75.5t-0.5 80v78.5
t0.5 71t-0.5 56q0 52 -9.5 73.5t-28.5 30.5q-22 10 -82.5 17t-193.5 7q-75 0 -121.5 -1t-74 -3.5t-43 -6t-28.5 -9.5q-14 -6 -27 -19.5t-16 -44.5q-3 -15 -4.5 -36t-3.5 -48t-3 -60.5t-2.5 -75t-2.5 -92.5q-5 -67 -19 -102t-38 -47.5t-61 -12.5q-55 0 -82.5 49.5
t-41.5 124.5q-5 39 -9.5 95t-6.5 117.5t-3.5 120.5t-1.5 104q0 69 1.5 130t5.5 115.5t8.5 101.5t11.5 86q12 69 31 115t47.5 69t68.5 23q46 0 68.5 -32.5t30.5 -114.5q2 -29 4 -58.5t4 -57.5t4 -51.5t4 -41.5t3 -29q6 -36 15.5 -57.5t36.5 -27.5q35 -7 103 -8.5t145 -1.5
q63 0 118 -1.5t96 -0.5t58 6q18 7 29 25.5t15 63.5q2 21 4 50t4.5 66t5.5 77.5t8 82.5q9 75 33 105.5t60 30.5q51 0 77.5 -37.5t40.5 -125.5q7 -26 11.5 -71t8 -103.5t5 -125t1.5 -134.5q0 -56 -2 -116.5t-5.5 -121t-8.5 -117t-10.5 -104.5t-11.5 -84q-16 -77 -49.5 -111
t-83.5 -34z" />
    <glyph glyph-name="hbar" unicode="&#x127;" horiz-adv-x="1221" 
d="M270 1003q-116 0 -179.5 3.5t-88 15t-24.5 34.5q0 29 27.5 43.5t98.5 19.5t204 5q129 0 206 -2t116 -7.5t52 -17t13 -30.5q0 -20 -17 -32.5t-62 -19.5t-128.5 -9.5t-217.5 -2.5zM166 -50q-38 0 -59 21.5t-32 67.5q-5 23 -8.5 67t-6.5 105t-4.5 135.5t-1.5 160.5
q0 65 3.5 134t11 136.5t18.5 132t25.5 121t32.5 102.5q26 59 62 89t80 30q48 0 75 -34.5t27 -102.5q0 -36 -3 -80t-8 -89t-9.5 -87t-8 -75t-3.5 -52q0 -30 12 -30q11 0 33.5 24.5t64 56t108.5 56t166 24.5q110 0 182.5 -40.5t114.5 -108t60 -149.5t18 -164q0 -41 -5.5 -91
t-14.5 -100.5t-20.5 -94.5t-25.5 -73q-18 -35 -48.5 -52.5t-74.5 -17.5q-36 0 -55 16t-28 42q-4 21 -1.5 58.5t7 85t7.5 99t1 99.5q-1 52 -11.5 103.5t-33 95t-63 69.5t-102.5 26q-77 0 -135.5 -26.5t-98 -67.5t-61 -85t-25.5 -78q-5 -66 -10 -120.5t-10.5 -99.5t-12.5 -81
t-15 -66q-16 -46 -44.5 -69t-69.5 -23z" />
    <glyph glyph-name="Itilde" unicode="&#x128;" horiz-adv-x="479" 
d="M232 -13q-66 0 -97.5 48t-31.5 124v90t1 133t2.5 159t4 169t6.5 162t9 137q11 97 39 137t91 40q53 0 77 -40.5t31 -110.5q2 -43 4 -108t3 -142t1.5 -157.5t0.5 -155v-135t-1 -96.5q0 -95 -13 -150.5t-42.5 -79.5t-84.5 -24zM2 1237q-19 0 -31.5 11.5t-12.5 34.5
q0 42 27 85t70 72t88 29q42 0 74 -22t57.5 -50.5t49.5 -50.5t51 -22q33 0 52.5 13.5t36.5 55.5q14 33 27 44.5t32 11.5q13 0 24.5 -10t11.5 -36q0 -47 -26 -87t-66.5 -64t-86.5 -24q-44 0 -77 21t-59.5 48.5t-50 48.5t-48.5 21q-26 0 -48 -23.5t-42 -62.5q-12 -25 -25 -34.5
t-28 -9.5z" />
    <glyph glyph-name="itilde" unicode="&#x129;" horiz-adv-x="503" 
d="M214 -45q-51 0 -79.5 26.5t-39 71t-10.5 99.5q0 26 0.5 57t2 66.5t3.5 73.5t4.5 77.5t6 79.5t7.5 79q20 147 60 215t109 68q41 0 65 -36.5t35 -106.5t11 -172q0 -46 -1.5 -92.5t-4 -91.5t-6 -87t-8.5 -80t-10.5 -71t-12.5 -59q-18 -52 -50 -84.5t-82 -32.5zM30 946
q-19 0 -31.5 11.5t-12.5 34.5q0 42 27 85t70 72t88 29q42 0 74 -22t57.5 -50.5t49.5 -50.5t51 -22q33 0 52.5 13.5t36.5 55.5q14 33 27 44.5t32 11.5q13 0 24.5 -10t11.5 -36q0 -47 -26 -87t-66.5 -64t-86.5 -24q-44 0 -77 21t-59.5 48.5t-50 48.5t-48.5 21q-26 0 -48 -23.5
t-42 -62.5q-12 -25 -25 -34.5t-28 -9.5z" />
    <glyph glyph-name="Imacron" unicode="&#x12a;" horiz-adv-x="479" 
d="M232 -13q-66 0 -97.5 48t-31.5 124v90t1 133t2.5 159t4 169t6.5 162t9 137q11 97 39 137t91 40q53 0 77 -40.5t31 -110.5q2 -43 4 -108t3 -142t1.5 -157.5t0.5 -155v-135t-1 -96.5q0 -95 -13 -150.5t-42.5 -79.5t-84.5 -24zM252 1286q-106 0 -187 3.5t-126.5 17
t-45.5 43.5q0 29 29.5 43.5t111.5 19t241 4.5q106 0 183 -4t119 -15.5t42 -35.5q0 -36 -40.5 -52t-121.5 -20t-205 -4z" />
    <glyph glyph-name="imacron" unicode="&#x12b;" horiz-adv-x="503" 
d="M27 1049q0 29 20 43t75.5 18.5t162.5 4.5q111 0 170.5 -9.5t59.5 -44.5q0 -36 -27.5 -52t-81.5 -20t-136 -4q-72 0 -127 3.5t-85.5 17t-30.5 43.5zM214 -45q-51 0 -79.5 26.5t-39 71t-10.5 99.5q0 26 0.5 57t2 66.5t3.5 73.5t4.5 77.5t6 79.5t7.5 79q20 147 60 215
t109 68q41 0 65 -36.5t35 -106.5t11 -172q0 -46 -1.5 -92.5t-4 -91.5t-6 -87t-8.5 -80t-10.5 -71t-12.5 -59q-18 -52 -50 -84.5t-82 -32.5z" />
    <glyph glyph-name="Ibreve" unicode="&#x12c;" horiz-adv-x="479" 
d="M232 -13q-66 0 -97.5 48t-31.5 124v90t1 133t2.5 159t4 169t6.5 162t9 137q11 97 39 137t91 40q53 0 77 -40.5t31 -110.5q2 -43 4 -108t3 -142t1.5 -157.5t0.5 -155v-135t-1 -96.5q0 -95 -13 -150.5t-42.5 -79.5t-84.5 -24zM253 1233q-76 0 -139 26.5t-100 82t-37 142.5
q0 38 17.5 58.5t45.5 20.5q31 0 43.5 -19t17.5 -58q9 -76 54.5 -110.5t99.5 -34.5q44 0 82.5 17.5t65 53.5t33.5 91q5 36 20.5 51t37.5 15q23 0 39.5 -16.5t16.5 -57.5q0 -86 -42.5 -144.5t-110.5 -88t-144 -29.5z" />
    <glyph glyph-name="ibreve" unicode="&#x12d;" horiz-adv-x="503" 
d="M214 -45q-51 0 -79.5 26.5t-39 71t-10.5 99.5q0 26 0.5 57t2 66.5t3.5 73.5t4.5 77.5t6 79.5t7.5 79q20 147 60 215t109 68q41 0 65 -36.5t35 -106.5t11 -172q0 -46 -1.5 -92.5t-4 -91.5t-6 -87t-8.5 -80t-10.5 -71t-12.5 -59q-18 -52 -50 -84.5t-82 -32.5zM261 938
q-76 0 -139 26t-100 82t-37 143q0 38 17.5 58.5t45.5 20.5q31 0 43.5 -19t17.5 -58q9 -77 54.5 -111t99.5 -34q44 0 82.5 17.5t65 53.5t33.5 90q5 37 20.5 52t37.5 15q23 0 39.5 -17t16.5 -57q0 -86 -42.5 -144.5t-110.5 -88t-144 -29.5z" />
    <glyph glyph-name="Iogonek" unicode="&#x12e;" horiz-adv-x="479" 
d="M232 -13q-66 0 -97.5 48t-31.5 124v90t1 133t2.5 159t4 169t6.5 162t9 137q11 97 39 137t91 40q53 0 77 -40.5t31 -110.5q2 -43 4 -108t3 -142t1.5 -157.5t0.5 -155v-135t-1 -96.5q0 -95 -13 -150.5t-42.5 -79.5t-84.5 -24zM356 -394q-62 0 -116 19t-86.5 62t-32.5 115
q0 47 14.5 101.5t36.5 98.5q19 35 38 53t51 18q29 0 40.5 -13.5t11.5 -32.5q0 -36 -19 -78.5t-19 -113.5q0 -42 14 -65t41 -31.5t65 -8.5q32 0 65.5 7t60.5 7q24 0 37.5 -10t13.5 -35q0 -32 -29 -52.5t-78 -30.5t-109 -10z" />
    <glyph glyph-name="iogonek" unicode="&#x12f;" horiz-adv-x="503" 
d="M214 -45q-51 0 -79.5 26.5t-39 71t-10.5 99.5q0 26 0.5 57t2 66.5t3.5 73.5t4.5 77.5t6 79.5t7.5 79q20 147 60 224.5t109 77.5q41 0 65 -41.5t35 -116t11 -176.5q0 -46 -1.5 -92.5t-4 -91.5t-6 -87t-8.5 -80t-10.5 -71t-12.5 -59q-18 -52 -50 -84.5t-82 -32.5zM277 939
q-57 0 -102.5 27.5t-45.5 79.5q0 29 21 51.5t53 35.5t64 13q35 0 67 -15.5t52 -42t20 -59.5q0 -49 -38 -69.5t-91 -20.5zM370 -387q-63 0 -117 19.5t-86.5 62t-32.5 114.5q0 47 14.5 101.5t37.5 98.5q19 35 38 53t50 18q30 0 41.5 -13.5t11.5 -32.5q0 -36 -19.5 -78
t-19.5 -114q0 -42 14 -65t41 -31.5t65 -8.5q32 0 65.5 7.5t60.5 7.5q24 0 38 -10t14 -36q0 -32 -29.5 -52.5t-78 -30.5t-108.5 -10z" />
    <glyph glyph-name="Idotaccent" unicode="&#x130;" horiz-adv-x="479" 
d="M232 -13q-66 0 -97.5 48t-31.5 124v90t1 133t2.5 159t4 169t6.5 162t9 137q11 97 39 137t91 40q53 0 77 -40.5t31 -110.5q2 -43 4 -108t3 -142t1.5 -157.5t0.5 -155v-135t-1 -96.5q0 -95 -13 -150.5t-42.5 -79.5t-84.5 -24zM265 1233q-56 0 -102 27.5t-46 79.5
q0 29 21 51.5t53.5 35.5t64.5 13q35 0 66.5 -15.5t52 -42t20.5 -59.5q0 -49 -38 -69.5t-92 -20.5z" />
    <glyph glyph-name="dotlessi" unicode="&#x131;" horiz-adv-x="503" 
d="M214 -45q-51 0 -79.5 26.5t-39 71t-10.5 99.5q0 26 0.5 57t2 66.5t3.5 73.5t4.5 77.5t6 79.5t7.5 79q20 147 60 215t109 68q41 0 65 -36.5t35 -106.5t11 -172q0 -46 -1.5 -92.5t-4 -91.5t-6 -87t-8.5 -80t-10.5 -71t-12.5 -59q-18 -52 -50 -84.5t-82 -32.5z" />
    <glyph glyph-name="Jcircumflex" unicode="&#x134;" horiz-adv-x="1128" 
d="M492 -70q-73 0 -140 13.5t-122.5 41.5t-94.5 68q-40 44 -65.5 99.5t-37 116t-11.5 119.5q0 39 9.5 68t27 49.5t41 30.5t50.5 10q29 0 48 -18t29 -66q7 -54 17.5 -98.5t28.5 -82.5q29 -62 77 -91.5t116 -29.5t109 18.5t72 56.5q35 43 54 105.5t26.5 141t7.5 165.5
q0 71 -2.5 134t-5.5 116.5t-6.5 96.5t-6 74.5t-2.5 52.5q0 36 11 62.5t39.5 40.5t83.5 14q44 0 75.5 -18.5t53.5 -53.5q12 -23 22.5 -54.5t18.5 -73t13.5 -93t8.5 -112.5t3 -133q0 -136 -13.5 -235t-37 -169.5t-54 -121.5t-64.5 -90q-75 -85 -175.5 -119.5t-203.5 -34.5z
M564 1257q-50 0 -50 51q0 33 36.5 82t92.5 97t115 81t103 33q41 0 93.5 -32t102 -79t81.5 -94.5t32 -77.5q0 -25 -12.5 -38.5t-34.5 -13.5q-33 0 -57 23t-56 69q-22 31 -50 59.5t-56 46.5t-50 18q-19 0 -49 -21.5t-63 -54t-61 -65.5q-37 -44 -61.5 -64t-55.5 -20z" />
    <glyph glyph-name="jcircumflex" unicode="&#x135;" horiz-adv-x="637" 
d="M73 -461q-64 0 -117.5 12.5t-85 36.5t-31.5 59q0 33 19 52.5t48 26.5q30 5 78 1t104 -4q69 0 98.5 95t29.5 272q0 34 -2 82t-5 103t-7 112t-7 110t-5.5 97.5t-2.5 72.5q0 91 35.5 129t99.5 38q48 0 75.5 -19.5t41 -58t19 -94t8.5 -126.5q2 -31 4.5 -76t5 -97t4.5 -104
t3.5 -96t1.5 -72q0 -171 -43.5 -294.5t-134 -190.5t-234.5 -67zM41 913q-50 0 -50 51q0 33 36.5 82t92.5 97t115 81t103 33q41 0 93.5 -32t102 -79t81.5 -94.5t32 -77.5q0 -25 -12.5 -38.5t-34.5 -13.5q-33 0 -57 23t-56 69q-22 31 -50 59.5t-56 46.5t-50 18
q-19 0 -49 -21.5t-63 -54t-61 -65.5q-37 -44 -61.5 -64t-55.5 -20z" />
    <glyph glyph-name="uni0136" unicode="&#x136;" horiz-adv-x="1172" 
d="M238 -19q-70 0 -102 45.5t-43 141.5q-3 48 -5 99t-2.5 102.5t1 102.5t2.5 100q4 101 14.5 202t31.5 197t55 181q26 51 65 74.5t94 23.5q45 0 71 -28t26 -73q0 -23 -4.5 -64.5t-11 -90.5t-13 -96.5t-10.5 -85t-3 -53.5q3 -21 10 -30.5t26 -9.5q16 0 36 10.5t44 30.5
q57 46 147.5 116.5t184.5 144.5q80 63 140.5 99.5t102.5 36.5q34 0 54 -12.5t29.5 -33t9.5 -43.5q0 -17 -10.5 -38t-31 -45t-50 -51t-67.5 -56q-53 -39 -117 -82.5t-125 -82t-103 -63.5q-34 -18 -49 -30t-15 -23q0 -10 8 -21t28 -28q16 -15 49.5 -44t74.5 -64.5t80.5 -70
t70 -62t43.5 -38.5q83 -77 118.5 -122.5t35.5 -69.5q0 -33 -14 -52.5t-39 -29t-58 -9.5q-40 0 -96.5 30.5t-142.5 107.5q-81 75 -132.5 126t-84 85t-55 59.5t-46.5 50.5q-19 25 -31 38.5t-20.5 19t-16.5 5.5q-11 0 -16 -10t-5 -30q0 -5 -0.5 -31.5t-1 -62.5t-2 -73.5t-2 -68
t-1.5 -42.5q-6 -117 -35 -163t-91 -46zM553 -375q-16 6 -14.5 18t10.5 26q14 18 25 41.5t14 42.5q4 12 5 21.5t-4 12.5q-5 1 -14 0t-21 -1q-24 0 -43 12.5t-23 36.5q-10 25 -2.5 48.5t35.5 41.5q33 25 72 16t61 -41q28 -35 29 -78.5t-18 -95.5q-10 -27 -27.5 -51t-37.5 -36
q-11 -9 -24 -13.5t-23 -0.5z" />
    <glyph glyph-name="uni0137" unicode="&#x137;" horiz-adv-x="1088" 
d="M168 -40q-39 0 -61 19.5t-30.5 55.5t-8.5 84q0 44 7.5 114t18.5 159.5t21 190.5q10 99 21.5 183.5t22.5 154.5t23 124.5t22 91.5q22 68 51 99t68 31q50 0 67.5 -38t17.5 -113q0 -33 -2.5 -74t-7 -87t-9 -93t-9 -92t-7 -84.5t-2.5 -68.5q0 -32 3.5 -52.5t13.5 -20.5
t22 8.5t27 23.5q16 14 45.5 42t64.5 62t69.5 66.5t61 56t37.5 31.5q24 18 52 28t52 10q39 0 62 -20.5t23 -51.5q0 -26 -19 -57.5t-56 -61.5q-58 -59 -116 -104.5t-109 -96.5q-25 -23 -25 -37q0 -8 7 -14.5t21 -16.5q28 -20 75.5 -52t102.5 -69t105.5 -71t82.5 -60
q22 -18 35.5 -35t13.5 -37q0 -22 -13.5 -42.5t-36 -32.5t-51.5 -12q-31 0 -60.5 14.5t-56.5 34.5q-42 29 -100 72t-118.5 91t-111.5 90q-25 21 -47 34.5t-41 13.5q-20 0 -32.5 -13t-18.5 -38q-20 -98 -36 -160.5t-28 -98.5q-18 -46 -42.5 -63.5t-60.5 -17.5zM466 -425
q-16 6 -14.5 18t10.5 26q14 18 25 41.5t14 42.5q4 12 5 21.5t-4 12.5q-5 1 -14 0t-21 -1q-24 0 -43 12.5t-23 36.5q-10 25 -2.5 48.5t35.5 41.5q33 25 72 16t61 -41q28 -35 29 -78.5t-18 -95.5q-10 -27 -27.5 -51t-37.5 -36q-11 -9 -24 -13.5t-23 -0.5z" />
    <glyph glyph-name="kgreenlandic" unicode="&#x138;" horiz-adv-x="1088" 
d="M168 -40q-29 0 -48.5 11t-31 32.5t-16 50.5t-4.5 65q0 24 5 76.5t14 122t20 143t22 140t21 115t16 65.5q22 64 58 100.5t74 36.5q39 0 60.5 -26.5t21.5 -76.5q0 -24 -2 -50.5t-4 -54.5t-4 -53.5t-2 -46.5q0 -32 3.5 -49t15.5 -17t23.5 8.5t26.5 23.5q16 14 45.5 42
t64.5 62t69.5 66.5t61 56t37.5 31.5q24 18 52 28t52 10q39 0 62 -20.5t23 -51.5q0 -26 -19 -57.5t-56 -61.5q-58 -59 -116 -104.5t-109 -96.5q-25 -23 -25 -37q0 -8 7 -14.5t21 -16.5q28 -20 75.5 -52t102.5 -69t105.5 -71t82.5 -60q22 -18 35.5 -35t13.5 -37
q0 -22 -13.5 -42.5t-36 -32.5t-51.5 -12q-31 0 -60.5 14.5t-56.5 34.5q-42 29 -100 72t-118.5 91t-111.5 90q-25 21 -47 34.5t-41 13.5q-20 0 -32.5 -13t-18.5 -38q-11 -49 -20 -89t-16.5 -71.5t-14.5 -56t-13 -42.5q-18 -46 -42.5 -63.5t-60.5 -17.5z" />
    <glyph glyph-name="Lacute" unicode="&#x139;" horiz-adv-x="1100" 
d="M308 -33q-130 28 -177.5 131t-47.5 274q0 49 2.5 112.5t7.5 132.5t11 135t12 121t11 89q20 133 59 193t106 60q43 0 64 -18.5t28 -52.5t7 -81q0 -31 -2 -72.5t-4 -88.5t-4 -98.5t-4 -102.5t-2.5 -99.5t0.5 -91.5q2 -85 10.5 -142t33.5 -89.5t73.5 -47t130.5 -15.5
q71 -3 134.5 -5.5t104.5 -5.5q60 4 98 3.5t57 -7.5q16 -8 23.5 -22.5t7.5 -40.5q0 -42 -26 -71t-72.5 -49t-107.5 -35q-64 -15 -148 -24t-167 -9q-33 0 -73.5 1.5t-79 5.5t-66.5 10zM239 1230q-22 0 -36 10t-14 33q0 30 55 76.5t138 98.5q54 34 109.5 57.5t90.5 23.5
q31 0 49 -16t18 -49q0 -39 -37.5 -72.5t-104.5 -68.5q-71 -37 -146 -65t-122 -28z" />
    <glyph glyph-name="lacute" unicode="&#x13a;" horiz-adv-x="701" 
d="M394 -53q-98 0 -158.5 41.5t-91.5 137.5t-42 259q-5 41 -7.5 101.5t-3 131t0.5 139t2.5 127t4.5 94.5q3 96 13.5 158.5t38 93.5t77.5 31q63 0 87 -38.5t24 -128.5q0 -29 -2 -75t-5 -102t-6.5 -115.5t-6 -117.5t-4.5 -107t-2 -84q0 -119 7.5 -193.5t22.5 -115t36.5 -56
t49.5 -15.5q38 0 63.5 14.5t46.5 29t43 14.5q24 0 37.5 -17t13.5 -44q0 -32 -20 -61.5t-53.5 -52t-76.5 -36t-89 -13.5zM328 1296q-22 0 -36 10.5t-14 33.5q0 29 55.5 75.5t137.5 98.5q54 34 109.5 57.5t90.5 23.5q31 0 49 -16t18 -49q0 -39 -37 -72.5t-104 -68.5
q-72 -37 -147 -65t-122 -28z" />
    <glyph glyph-name="uni013B" unicode="&#x13b;" horiz-adv-x="1100" 
d="M308 -33q-130 28 -177.5 131t-47.5 274q0 49 2.5 112.5t7.5 132.5t11 135t12 121t11 89q20 133 59 193t106 60q43 0 64 -18.5t28 -52.5t7 -81q0 -31 -2 -72.5t-4 -88.5t-4 -98.5t-4 -102.5t-2.5 -99.5t0.5 -91.5q2 -85 10.5 -142t33.5 -89.5t73.5 -47t130.5 -15.5
q71 -3 134.5 -5.5t104.5 -5.5q60 4 98 3.5t57 -7.5q16 -8 23.5 -22.5t7.5 -40.5q0 -42 -26 -71t-72.5 -49t-107.5 -35q-64 -15 -148 -24t-167 -9q-33 0 -73.5 1.5t-79 5.5t-66.5 10zM503 -425q-16 6 -14.5 18t10.5 26q14 18 25 41.5t14 42.5q4 12 5 21.5t-4 12.5q-5 1 -14 0
t-21 -1q-24 0 -43 12.5t-23 36.5q-10 25 -2.5 48.5t35.5 41.5q33 25 72 16t61 -41q28 -35 29 -78.5t-18 -95.5q-10 -27 -27.5 -51t-37.5 -36q-11 -9 -24 -13.5t-23 -0.5z" />
    <glyph glyph-name="uni013C" unicode="&#x13c;" horiz-adv-x="701" 
d="M394 -53q-98 0 -158.5 41.5t-91.5 137.5t-42 259q-5 41 -7.5 101.5t-3 131t0.5 139t2.5 127t4.5 94.5q3 96 13.5 158.5t38 93.5t77.5 31q63 0 87 -38.5t24 -128.5q0 -29 -2 -75t-5 -102t-6.5 -115.5t-6 -117.5t-4.5 -107t-2 -84q0 -119 7.5 -193.5t22.5 -115t36.5 -56
t49.5 -15.5q38 0 63.5 14.5t46.5 29t43 14.5q24 0 37.5 -17t13.5 -44q0 -32 -20 -61.5t-53.5 -52t-76.5 -36t-89 -13.5zM333 -437q-16 6 -14.5 18t10.5 26q14 18 25 41.5t14 42.5q4 12 5 21.5t-4 12.5q-5 1 -14 0t-21 -1q-24 0 -43 12.5t-23 36.5q-10 25 -2.5 48.5
t35.5 41.5q33 25 72 16t61 -41q28 -35 29 -78.5t-18 -95.5q-10 -27 -27.5 -51t-37.5 -36q-11 -9 -24 -13.5t-23 -0.5z" />
    <glyph glyph-name="Lcaron" unicode="&#x13d;" horiz-adv-x="1088" 
d="M308 -33q-130 28 -177.5 131t-47.5 274q0 49 2.5 112.5t7.5 132.5t11 135t12 121t11 89q20 133 59 193t106 60q43 0 64 -18.5t28 -52.5t7 -81q0 -31 -2 -72.5t-4 -88.5t-4 -98.5t-4 -102.5t-2.5 -99.5t0.5 -91.5q2 -85 10.5 -142t33.5 -89.5t73.5 -47t130.5 -15.5
q71 -3 134.5 -5.5t104.5 -5.5q60 4 98 3.5t57 -7.5q16 -8 23.5 -22.5t7.5 -40.5q0 -42 -26 -71t-72.5 -49t-107.5 -35q-64 -15 -148 -24t-167 -9q-33 0 -73.5 1.5t-79 5.5t-66.5 10zM912 738q-29 0 -42 13t-13 38q0 26 4 69t4 88q0 37 -12 66t-24.5 56t-12.5 56
q0 25 14.5 43t38.5 18q41 0 71.5 -37t47 -92t16.5 -107q0 -41 -11.5 -90.5t-32 -85t-48.5 -35.5z" />
    <glyph glyph-name="lcaron" unicode="&#x13e;" horiz-adv-x="701" 
d="M394 -53q-98 0 -158.5 41.5t-91.5 137.5t-42 259q-5 41 -7.5 101.5t-3 131t0.5 139t2.5 127t4.5 94.5q3 96 13.5 158.5t38 93.5t77.5 31q63 0 87 -38.5t24 -128.5q0 -29 -2 -75t-5 -102t-6.5 -115.5t-6 -117.5t-4.5 -107t-2 -84q0 -119 7.5 -193.5t22.5 -115t36.5 -56
t49.5 -15.5q38 0 63.5 14.5t46.5 29t43 14.5q24 0 37.5 -17t13.5 -44q0 -32 -20 -61.5t-53.5 -52t-76.5 -36t-89 -13.5zM536 808q-29 0 -42 13t-13 38q0 26 4 69t4 88q0 37 -12 66t-24.5 56t-12.5 56q0 25 14.5 43t38.5 18q41 0 71.5 -37t47 -92t16.5 -107
q0 -41 -11.5 -90.5t-32 -85t-48.5 -35.5z" />
    <glyph glyph-name="Ldot" unicode="&#x13f;" horiz-adv-x="1100" 
d="M308 -33q-130 28 -177.5 131t-47.5 274q0 49 2.5 112.5t7.5 132.5t11 135t12 121t11 89q20 133 59 193t106 60q43 0 64 -18.5t28 -52.5t7 -81q0 -31 -2 -72.5t-4 -88.5t-4 -98.5t-4 -102.5t-2.5 -99.5t0.5 -91.5q2 -85 10.5 -142t33.5 -89.5t73.5 -47t130.5 -15.5
q71 -3 134.5 -5.5t104.5 -5.5q60 4 98 3.5t57 -7.5q16 -8 23.5 -22.5t7.5 -40.5q0 -42 -26 -71t-72.5 -49t-107.5 -35q-64 -15 -148 -24t-167 -9q-33 0 -73.5 1.5t-79 5.5t-66.5 10zM796 632q-56 0 -102 28t-46 79q0 29 21 51.5t53.5 36t64.5 13.5q35 0 66.5 -16t52 -42
t20.5 -60q0 -49 -38 -69.5t-92 -20.5z" />
    <glyph glyph-name="ldot" unicode="&#x140;" horiz-adv-x="701" 
d="M394 -53q-98 0 -158.5 41.5t-91.5 137.5t-42 259q-5 41 -7.5 101.5t-3 131t0.5 139t2.5 127t4.5 94.5q3 96 13.5 158.5t38 93.5t77.5 31q63 0 87 -38.5t24 -128.5q0 -29 -2 -75t-5 -102t-6.5 -115.5t-6 -117.5t-4.5 -107t-2 -84q0 -119 7.5 -193.5t22.5 -115t36.5 -56
t49.5 -15.5q38 0 63.5 14.5t46.5 29t43 14.5q24 0 37.5 -17t13.5 -44q0 -32 -20 -61.5t-53.5 -52t-76.5 -36t-89 -13.5zM562 532q-55 0 -98.5 30.5t-43.5 86.5q0 31 20 56t51 39t61 14q34 0 64 -17t49.5 -45.5t19.5 -64.5q0 -54 -35.5 -76.5t-87.5 -22.5z" />
    <glyph glyph-name="Lslash" unicode="&#x141;" horiz-adv-x="1187" 
d="M49 294q-14 0 -25 5.5t-17.5 16.5t-6.5 26q0 22 19 51t51.5 63.5t71.5 74.5q47 47 101.5 95.5t109.5 95t104.5 88t86.5 73.5q38 26 72 40.5t63 14.5q22 0 31.5 -12t9.5 -32q0 -9 -2 -18.5t-6.5 -18t-10.5 -17.5t-13 -17q-29 -32 -76.5 -81t-104 -106t-115 -113
t-108.5 -100q-36 -29 -82.5 -59t-88 -50t-64.5 -20zM395 -33q-130 28 -178 131t-48 274q0 49 3 112.5t8 132.5t10.5 135t12 121t10.5 89q21 133 60 193t106 60q43 0 64 -18.5t27.5 -52.5t6.5 -81q0 -31 -1.5 -72.5t-3.5 -88.5t-4.5 -98.5t-4 -102.5t-2.5 -99.5t1 -91.5
q1 -85 10 -142t33.5 -89.5t73.5 -47t130 -15.5q72 -3 135.5 -5.5t104.5 -5.5q59 4 97 3.5t58 -7.5q16 -8 23.5 -22.5t7.5 -40.5q0 -42 -26 -71t-72.5 -49t-107.5 -35q-64 -15 -148 -24t-167 -9q-33 0 -73.5 1.5t-79 5.5t-66.5 10z" />
    <glyph glyph-name="lslash" unicode="&#x142;" horiz-adv-x="728" 
d="M35 275q-14 0 -25 6t-17.5 16.5t-6.5 25.5q0 24 18 53t49.5 63.5t70.5 75.5q47 48 99 98.5t104 99.5t99.5 92.5t84.5 77.5q38 28 70 41.5t61 13.5q22 0 32 -12t10 -32q0 -9 -2.5 -18.5t-7 -18t-10.5 -17.5t-13 -17q-28 -32 -77.5 -85t-109 -115.5t-119.5 -122.5
t-109 -105q-55 -44 -111.5 -82t-89.5 -38zM290 -60q-67 0 -92 43.5t-25 123.5q0 29 2 85.5t6 132.5t9 163.5t11 178t13 176t14 158t14 121.5q17 83 42 114.5t66 31.5q27 0 45 -26t30 -66.5t20 -83.5q6 -44 9 -112t4.5 -149.5t1.5 -166.5t-1 -163.5t-2.5 -142t-3.5 -99.5
q-2 -71 -10.5 -129.5t-27 -101t-49 -65.5t-76.5 -23z" />
    <glyph glyph-name="Nacute" unicode="&#x143;" horiz-adv-x="1438" 
d="M257 -48q-41 0 -67.5 25.5t-44.5 71.5q-9 24 -17 79.5t-15 129.5t-12.5 154.5t-9.5 157.5t-6 138.5t-2 94.5q0 117 15.5 198.5t56.5 125t119 43.5q54 0 107 -43.5t124 -137.5t176 -245q140 -206 225 -305.5t122 -99.5q18 0 29.5 9t18 36.5t8.5 83.5q2 24 2 73t-0.5 110.5
t-1.5 126.5t-1 123t0.5 99t2.5 55q12 60 39 83t75 23q36 0 60.5 -12.5t40 -37t23 -63t9.5 -90.5q1 -30 2 -87t2 -129.5t0.5 -150.5t-2 -151.5t-4.5 -133.5t-9 -96q-12 -77 -36.5 -128.5t-65 -77t-103.5 -25.5q-57 0 -125 57.5t-146.5 159t-167.5 229.5q-57 82 -106 151.5
t-86.5 121t-63.5 80t-39 28.5q-23 0 -32 -26.5t-9 -106.5q0 -46 2 -101.5t5 -114.5t7 -118.5t6 -115t2.5 -102.5t-2.5 -81q-11 -51 -37 -69.5t-68 -18.5zM660 1236q-22 0 -36 10t-14 33q0 30 55 76.5t138 98.5q54 34 109.5 57.5t90.5 23.5q31 0 49 -16t18 -49
q0 -39 -37.5 -72.5t-104.5 -68.5q-71 -37 -146 -65t-122 -28z" />
    <glyph glyph-name="nacute" unicode="&#x144;" horiz-adv-x="1262" 
d="M159 -22q-47 0 -74 25t-39 81q-4 26 -5 59t0 75t5 92q12 199 81 337.5t192 211t293 72.5q171 0 293 -69t187 -212t65 -365q0 -40 -1.5 -74t-4.5 -62t-9 -51q-15 -64 -44.5 -92t-76.5 -28q-48 0 -73 16t-36 48t-15 79q-3 75 -5.5 132.5t-7 103t-10.5 85t-15 79.5
q-23 102 -77 155t-161 53q-103 0 -165.5 -57t-96.5 -157q-15 -42 -25 -88t-16.5 -95t-11 -103t-8.5 -113q-5 -56 -24 -86t-48 -41t-67 -11zM573 1013q-22 0 -36 10t-14 33q0 30 55 76.5t138 98.5q54 34 109.5 57.5t90.5 23.5q31 0 49 -16t18 -49q0 -39 -37.5 -72.5
t-104.5 -68.5q-71 -37 -146 -65t-122 -28z" />
    <glyph glyph-name="uni0145" unicode="&#x145;" horiz-adv-x="1438" 
d="M257 -48q-41 0 -67.5 25.5t-44.5 71.5q-9 24 -17 79.5t-15 129.5t-12.5 154.5t-9.5 157.5t-6 138.5t-2 94.5q0 117 15.5 198.5t56.5 125t119 43.5q54 0 107 -43.5t124 -137.5t176 -245q140 -206 225 -305.5t122 -99.5q18 0 29.5 9t18 36.5t8.5 83.5q2 24 2 73t-0.5 110.5
t-1.5 126.5t-1 123t0.5 99t2.5 55q12 60 39 83t75 23q36 0 60.5 -12.5t40 -37t23 -63t9.5 -90.5q1 -30 2 -87t2 -129.5t0.5 -150.5t-2 -151.5t-4.5 -133.5t-9 -96q-12 -77 -36.5 -128.5t-65 -77t-103.5 -25.5q-57 0 -125 57.5t-146.5 159t-167.5 229.5q-57 82 -106 151.5
t-86.5 121t-63.5 80t-39 28.5q-23 0 -32 -26.5t-9 -106.5q0 -46 2 -101.5t5 -114.5t7 -118.5t6 -115t2.5 -102.5t-2.5 -81q-11 -51 -37 -69.5t-68 -18.5zM714 -425q-16 6 -14.5 18t10.5 26q14 18 25 41.5t14 42.5q4 12 5 21.5t-4 12.5q-5 1 -14 0t-21 -1q-24 0 -43 12.5
t-23 36.5q-10 25 -2.5 48.5t35.5 41.5q33 25 72 16t61 -41q28 -35 29 -78.5t-18 -95.5q-10 -27 -27.5 -51t-37.5 -36q-11 -9 -24 -13.5t-23 -0.5z" />
    <glyph glyph-name="uni0146" unicode="&#x146;" horiz-adv-x="1262" 
d="M159 -22q-47 0 -74 25t-39 81q-4 26 -5 59t0 75t5 92q12 199 81 337.5t192 211t293 72.5q171 0 293 -69t187 -212t65 -365q0 -40 -1.5 -74t-4.5 -62t-9 -51q-15 -64 -44.5 -92t-76.5 -28q-48 0 -73 16t-36 48t-15 79q-3 75 -5.5 132.5t-7 103t-10.5 85t-15 79.5
q-23 102 -77 155t-161 53q-103 0 -165.5 -57t-96.5 -157q-15 -42 -25 -88t-16.5 -95t-11 -103t-8.5 -113q-5 -56 -24 -86t-48 -41t-67 -11zM586 -435q-16 6 -14.5 18t10.5 26q14 18 25 41.5t14 42.5q4 12 5 21.5t-4 12.5q-5 1 -14 0t-21 -1q-24 0 -43 12.5t-23 36.5
q-10 25 -2.5 48.5t35.5 41.5q33 25 72 16t61 -41q28 -35 29 -78.5t-18 -95.5q-10 -27 -27.5 -51t-37.5 -36q-11 -9 -24 -13.5t-23 -0.5z" />
    <glyph glyph-name="Ncaron" unicode="&#x147;" horiz-adv-x="1438" 
d="M257 -48q-41 0 -67.5 25.5t-44.5 71.5q-9 24 -17 79.5t-15 129.5t-12.5 154.5t-9.5 157.5t-6 138.5t-2 94.5q0 117 15.5 198.5t56.5 125t119 43.5q54 0 107 -43.5t124 -137.5t176 -245q140 -206 225 -305.5t122 -99.5q18 0 29.5 9t18 36.5t8.5 83.5q2 24 2 73t-0.5 110.5
t-1.5 126.5t-1 123t0.5 99t2.5 55q12 60 39 83t75 23q36 0 60.5 -12.5t40 -37t23 -63t9.5 -90.5q1 -30 2 -87t2 -129.5t0.5 -150.5t-2 -151.5t-4.5 -133.5t-9 -96q-12 -77 -36.5 -128.5t-65 -77t-103.5 -25.5q-57 0 -125 57.5t-146.5 159t-167.5 229.5q-57 82 -106 151.5
t-86.5 121t-63.5 80t-39 28.5q-23 0 -32 -26.5t-9 -106.5q0 -46 2 -101.5t5 -114.5t7 -118.5t6 -115t2.5 -102.5t-2.5 -81q-11 -51 -37 -69.5t-68 -18.5zM703 1253q-41 0 -94 31.5t-102.5 79t-81.5 94.5t-32 78q0 25 13 38.5t34 13.5q33 0 57.5 -23t56.5 -70
q22 -30 50 -58.5t56 -47t49 -18.5t50.5 22t62 54.5t60.5 65.5q38 44 62.5 64t54.5 20q51 0 51 -52q0 -32 -37 -81t-93 -97.5t-114.5 -81t-102.5 -32.5z" />
    <glyph glyph-name="ncaron" unicode="&#x148;" horiz-adv-x="1262" 
d="M159 -22q-47 0 -74 25t-39 81q-4 26 -5 59t0 75t5 92q12 199 81 337.5t192 211t293 72.5q171 0 293 -69t187 -212t65 -365q0 -40 -1.5 -74t-4.5 -62t-9 -51q-15 -64 -44.5 -92t-76.5 -28q-48 0 -73 16t-36 48t-15 79q-3 75 -5.5 132.5t-7 103t-10.5 85t-15 79.5
q-23 102 -77 155t-161 53q-103 0 -165.5 -57t-96.5 -157q-15 -42 -25 -88t-16.5 -95t-11 -103t-8.5 -113q-5 -56 -24 -86t-48 -41t-67 -11zM616 1030q-41 0 -94 31.5t-102.5 79t-81.5 94.5t-32 78q0 25 13 38.5t34 13.5q33 0 57.5 -23t56.5 -70q22 -30 50 -58.5t56 -47
t49 -18.5t50.5 22t62 54.5t60.5 65.5q38 44 62.5 64t54.5 20q51 0 51 -52q0 -32 -37 -81t-93 -97.5t-114.5 -81t-102.5 -32.5z" />
    <glyph glyph-name="napostrophe" unicode="&#x149;" horiz-adv-x="1262" 
d="M159 -22q-47 0 -74 25t-39 81q-4 26 -5 59t0 75t5 92q12 199 81 337.5t192 211t293 72.5q171 0 293 -69t187 -212t65 -365q0 -40 -1.5 -74t-4.5 -62t-9 -51q-15 -64 -44.5 -92t-76.5 -28q-48 0 -73 16t-36 48t-15 79q-3 75 -5.5 132.5t-7 103t-10.5 85t-15 79.5
q-23 102 -77 155t-161 53q-103 0 -165.5 -57t-96.5 -157q-15 -42 -25 -88t-16.5 -95t-11 -103t-8.5 -113q-5 -56 -24 -86t-48 -41t-67 -11zM68 850q-21 0 -37.5 21t-27.5 56t-16.5 77.5t-5.5 85.5q0 53 3.5 89.5t13 58t28 31t47.5 9.5q24 0 41 -10t27 -29.5t15 -48t5 -65.5
q0 -78 -6 -131t-18 -84.5t-29.5 -45.5t-39.5 -14z" />
    <glyph glyph-name="Eng" unicode="&#x14a;" horiz-adv-x="1438" 
d="M795 -405q-46 0 -81 11.5t-55 34t-20 54.5q0 20 9 33.5t24 22t33 10.5q31 3 69 -0.5t64 -1.5q52 3 92.5 23t67.5 62q24 37 40 96.5t16 108.5l268 161q-9 -103 -34 -196t-67 -169.5t-103 -132.5t-141.5 -86.5t-181.5 -30.5zM257 -48q-41 0 -67.5 25.5t-44.5 71.5
q-9 24 -17 79.5t-15 129.5t-12.5 154.5t-9.5 157.5t-6 138.5t-2 94.5q0 117 15.5 198.5t56.5 125t119 43.5q54 0 107 -43.5t124 -137.5t176 -245q140 -206 225 -305.5t122 -99.5q18 0 29.5 9t18 36.5t8.5 83.5q2 24 2 73t-0.5 110.5t-1.5 126.5t-1 123t0.5 99t2.5 55
q12 60 39 83t75 23q36 0 60.5 -12.5t40 -37t23 -63t9.5 -90.5q1 -30 2 -87t2 -129.5t0.5 -150.5t-2 -151.5t-4.5 -133.5t-9 -96q-12 -77 -36.5 -128.5t-65 -77t-103.5 -25.5q-57 0 -125 57.5t-146.5 159t-167.5 229.5q-57 82 -106 151.5t-86.5 121t-63.5 80t-39 28.5
q-23 0 -32 -26.5t-9 -106.5q0 -46 2 -101.5t5 -114.5t7 -118.5t6 -115t2.5 -102.5t-2.5 -81q-11 -51 -37 -69.5t-68 -18.5z" />
    <glyph glyph-name="eng" unicode="&#x14b;" horiz-adv-x="1262" 
d="M782 -453q-25 0 -51 4.5t-45 10.5q-46 17 -79 45t-33 68q0 26 16.5 43t38.5 24q19 4 41.5 -0.5t49 -9t55.5 0.5q70 12 104.5 67t46.5 141t12 192q0 49 -1.5 94t-5 86t-8.5 77.5t-11 67.5t-14 56q-30 107 -89.5 162.5t-169.5 55.5t-180.5 -59.5t-108.5 -165.5
q-23 -61 -36 -118t-18 -122.5t-7 -149.5q-2 -77 -39 -108t-92 -31q-41 0 -68 16.5t-40.5 53.5t-13.5 96q0 56 4.5 115t13.5 117.5t23 114.5t32 105t41 89q68 126 186.5 193.5t275.5 67.5q149 0 257 -54t172 -176q31 -44 54 -94.5t38.5 -108.5t23 -125t7.5 -144
q0 -115 -11 -219t-36.5 -191t-69 -151.5t-109 -100t-156.5 -35.5z" />
    <glyph glyph-name="Omacron" unicode="&#x14c;" horiz-adv-x="1578" 
d="M716 -104q-144 0 -263.5 44.5t-207 128.5t-135 202t-47.5 265q0 138 43 245t118 185t170.5 128t201.5 74.5t210 24.5q153 0 282 -45t225 -128.5t149 -200t53 -260.5q0 -159 -60 -282.5t-169 -208.5t-254.5 -128.5t-315.5 -43.5zM763 158q175 0 280 56t152 149t47 204
q0 102 -33.5 182t-93.5 135t-139 83.5t-170 28.5q-89 0 -170 -27t-144 -77t-99.5 -121t-36.5 -159q0 -105 30.5 -188.5t85 -143t129 -91t162.5 -31.5zM804 1316q-106 0 -187 3.5t-126.5 17.5t-45.5 44q0 28 29.5 42.5t112 19t240.5 4.5q106 0 183 -4t119 -15.5t42 -35.5
q0 -36 -40.5 -52t-121.5 -20t-205 -4z" />
    <glyph glyph-name="omacron" unicode="&#x14d;" horiz-adv-x="1339" 
d="M631 -53q-116 0 -223.5 26t-192 83t-133.5 148.5t-49 223.5q0 145 47.5 253.5t131.5 181t194.5 109t236.5 36.5q114 0 223 -29t196 -91t138.5 -160.5t51.5 -237.5q0 -105 -42.5 -202t-123 -173.5t-195 -122t-260.5 -45.5zM622 168q102 0 173 31.5t115.5 83t65 112.5
t20.5 121q0 84 -32.5 142.5t-86 94.5t-119.5 52.5t-135 16.5q-90 0 -170 -38.5t-129.5 -116t-49.5 -195.5q0 -96 39.5 -164.5t117.5 -104t191 -35.5zM654 1128q-106 0 -187 3.5t-126.5 17.5t-45.5 44q0 28 29.5 42.5t112 19t240.5 4.5q106 0 183 -4t119 -15.5t42 -35.5
q0 -36 -40.5 -52t-121.5 -20t-205 -4z" />
    <glyph glyph-name="Obreve" unicode="&#x14e;" horiz-adv-x="1578" 
d="M716 -104q-144 0 -263.5 44.5t-207 128.5t-135 202t-47.5 265q0 138 43 245t118 185t170.5 128t201.5 74.5t210 24.5q153 0 282 -45t225 -128.5t149 -200t53 -260.5q0 -159 -60 -282.5t-169 -208.5t-254.5 -128.5t-315.5 -43.5zM763 158q175 0 280 56t152 149t47 204
q0 102 -33.5 182t-93.5 135t-139 83.5t-170 28.5q-89 0 -170 -27t-144 -77t-99.5 -121t-36.5 -159q0 -105 30.5 -188.5t85 -143t129 -91t162.5 -31.5zM798 1269q-76 0 -139 26t-100 82t-37 143q0 38 17.5 58.5t45.5 20.5q31 0 43.5 -19t17.5 -58q9 -77 54.5 -111t99.5 -34
q44 0 82.5 17.5t65 53.5t33.5 90q5 37 20.5 52t37.5 15q23 0 39.5 -17t16.5 -57q0 -86 -42.5 -144.5t-110.5 -88t-144 -29.5z" />
    <glyph glyph-name="obreve" unicode="&#x14f;" horiz-adv-x="1339" 
d="M631 -53q-116 0 -223.5 26t-192 83t-133.5 148.5t-49 223.5q0 145 47.5 253.5t131.5 181t194.5 109t236.5 36.5q114 0 223 -29t196 -91t138.5 -160.5t51.5 -237.5q0 -105 -42.5 -202t-123 -173.5t-195 -122t-260.5 -45.5zM622 168q102 0 173 31.5t115.5 83t65 112.5
t20.5 121q0 84 -32.5 142.5t-86 94.5t-119.5 52.5t-135 16.5q-90 0 -170 -38.5t-129.5 -116t-49.5 -195.5q0 -96 39.5 -164.5t117.5 -104t191 -35.5zM648 1081q-76 0 -139 26t-100 82t-37 143q0 38 17.5 58.5t45.5 20.5q31 0 43.5 -19t17.5 -58q9 -77 54.5 -111t99.5 -34
q44 0 82.5 17.5t65 53.5t33.5 90q5 37 20.5 52t37.5 15q23 0 39.5 -17t16.5 -57q0 -86 -42.5 -144.5t-110.5 -88t-144 -29.5z" />
    <glyph glyph-name="Ohungarumlaut" unicode="&#x150;" horiz-adv-x="1586" 
d="M716 -104q-144 0 -263.5 44.5t-207 128.5t-135 202t-47.5 265q0 138 43 245t118 185t170.5 128t201.5 74.5t210 24.5q153 0 282 -45t225 -128.5t149 -200t53 -260.5q0 -159 -60 -282.5t-169 -208.5t-254.5 -128.5t-315.5 -43.5zM763 158q175 0 280 56t152 149t47 204
q0 102 -33.5 182t-93.5 135t-139 83.5t-170 28.5q-89 0 -170 -27t-144 -77t-99.5 -121t-36.5 -159q0 -105 30.5 -188.5t85 -143t129 -91t162.5 -31.5zM547 1288q-17 0 -29 8t-12 28q0 28 20.5 77t53 99.5t69.5 85t70 34.5q24 0 39.5 -17.5t15.5 -41.5q0 -23 -27 -67.5
t-66 -92t-76.5 -80.5t-57.5 -33zM801 1278q-17 0 -25 6t-8 26q0 25 23 70t59 92.5t75.5 80.5t72.5 33q24 0 37.5 -13.5t13.5 -37.5q0 -23 -30 -65.5t-73.5 -86.5t-84 -74.5t-60.5 -30.5z" />
    <glyph glyph-name="ohungarumlaut" unicode="&#x151;" horiz-adv-x="1483" 
d="M631 -53q-116 0 -223.5 26t-192 83t-133.5 148.5t-49 223.5q0 145 47.5 253.5t131.5 181t194.5 109t236.5 36.5q114 0 223 -29t196 -91t138.5 -160.5t51.5 -237.5q0 -105 -42.5 -202t-123 -173.5t-195 -122t-260.5 -45.5zM622 168q102 0 173 31.5t115.5 83t65 112.5
t20.5 121q0 84 -32.5 142.5t-86 94.5t-119.5 52.5t-135 16.5q-90 0 -170 -38.5t-129.5 -116t-49.5 -195.5q0 -96 39.5 -164.5t117.5 -104t191 -35.5zM526 1160q-17 0 -29 8t-12 28q0 28 20.5 77t53 99.5t69.5 85t70 34.5q24 0 39.5 -17.5t15.5 -41.5q0 -23 -27 -67.5
t-66 -92t-76.5 -80.5t-57.5 -33zM780 1150q-17 0 -25 6t-8 26q0 25 23 70t59 92.5t75.5 80.5t72.5 33q24 0 37.5 -13.5t13.5 -37.5q0 -23 -30 -65.5t-73.5 -86.5t-84 -74.5t-60.5 -30.5z" />
    <glyph glyph-name="OE" unicode="&#x152;" horiz-adv-x="2323" 
d="M716 -104q-144 0 -263.5 44.5t-207 128.5t-135 202t-47.5 265q0 138 43 245t118 185t170.5 128t201.5 74.5t210 24.5q153 0 282 -45t225 -128.5t149 -200t53 -260.5q0 -159 -60 -282.5t-169 -208.5t-254.5 -128.5t-315.5 -43.5zM763 158q175 0 280 56t152 149t47 204
q0 102 -33.5 182t-93.5 135t-139 83.5t-170 28.5q-89 0 -170 -27t-144 -77t-99.5 -121t-36.5 -159q0 -105 30.5 -188.5t85 -143t129 -91t162.5 -31.5zM1691 -62q-128 0 -214.5 46t-134.5 139t-63 235q-3 34 -5 70.5t-3.5 76t-2 81.5t-0.5 86q0 171 33.5 282.5t103.5 174.5
t180.5 89t263.5 26q75 0 144 -6.5t122 -19.5t83.5 -32.5t30.5 -46.5q0 -28 -16.5 -44.5t-43.5 -21.5q-31 -4 -81.5 -1.5t-111.5 5.5t-124 3q-90 0 -151.5 -13.5t-98 -44.5t-53 -84t-16.5 -131q0 -40 11 -60.5t50 -27t125 -6.5q21 0 51.5 0.5t64 1.5t63 1h47.5q75 0 104 -19
t29 -56q0 -53 -34.5 -72.5t-92.5 -19.5h-54.5t-62.5 -0.5t-62.5 -0.5h-53.5q-89 0 -132 -5.5t-55.5 -24t-12.5 -58.5q0 -66 6 -118.5t21 -91t42.5 -63.5t70 -37.5t104.5 -12.5q76 0 149 5t132 9.5t92 4.5q45 0 65.5 -18.5t20.5 -54.5q0 -40 -49 -68t-128.5 -45t-172.5 -24.5
t-180 -7.5z" />
    <glyph glyph-name="oe" unicode="&#x153;" horiz-adv-x="2113" 
d="M631 -53q-116 0 -223.5 26t-192 83t-133.5 148.5t-49 223.5q0 145 47.5 253.5t131.5 181t194.5 109t236.5 36.5q114 0 223 -29t196 -91t138.5 -160.5t51.5 -237.5q0 -105 -42.5 -202t-123 -173.5t-195 -122t-260.5 -45.5zM622 168q102 0 173 31.5t115.5 83t65 112.5
t20.5 121q0 84 -32.5 142.5t-86 94.5t-119.5 52.5t-135 16.5q-90 0 -170 -38.5t-129.5 -116t-49.5 -195.5q0 -96 39.5 -164.5t117.5 -104t191 -35.5zM1575 -59q-169 0 -292 51.5t-189.5 158t-66.5 271.5q0 137 45.5 239.5t125 171t184.5 103.5t224 35q81 0 154 -17t129 -53
t88.5 -91t32.5 -131q0 -80 -34.5 -130.5t-93.5 -79.5t-133.5 -42.5t-155.5 -19.5q-40 -7 -96.5 -12t-108.5 -7t-81 -2q-30 0 -41 -8t-11 -30q0 -24 13.5 -58t39.5 -65q48 -59 111.5 -78.5t157.5 -19.5q80 0 147 19.5t121 39t97 19.5q38 0 60.5 -15t22.5 -56
q0 -39 -34.5 -73.5t-95.5 -61.5t-143 -42.5t-177 -15.5zM1496 497q81 0 151 15.5t113 53t43 103.5q0 79 -56.5 118.5t-160.5 39.5q-61 0 -118.5 -21.5t-103 -59.5t-72.5 -86.5t-27 -102.5q0 -28 22.5 -40.5t73 -16t135.5 -3.5z" />
    </font>
</defs>
</svg>
