<?xml version="1.0" standalone="no"?>
<!DOCTYPE svg PUBLIC "-//W3C//DTD SVG 1.1//EN" "http://www.w3.org/Graphics/SVG/1.1/DTD/svg11.dtd" >
<svg xmlns="http://www.w3.org/2000/svg" xmlns:xlink="http://www.w3.org/1999/xlink" version="1.1">
<metadata>
Created by FontForge 20190801 at Wed Jul  8 08:49:57 2020
 By www-data
Copyright (c) 2020 by Ilham Herry. All rights reserved.
</metadata>
<defs>
<font id="GentyDemoRegular" horiz-adv-x="500" >
  <font-face 
    font-family="GentyDemoRegular"
    font-weight="400"
    font-stretch="normal"
    units-per-em="1000"
    panose-1="0 0 5 0 0 0 0 0 0 0"
    ascent="800"
    descent="-200"
    x-height="500"
    cap-height="744"
    bbox="-324 -261 1137.61 790"
    underline-thickness="50"
    underline-position="-100"
    unicode-range="U+0020-FB02"
  />
<missing-glyph horiz-adv-x="487" 
d="M20 -59v776h447v-776h-447zM421 683h-355l178 -319zM54 23l170 306l-170 306v-612zM433 635l-170 -306l170 -306v612zM421 -25l-177 319l-178 -319h355z" />
    <glyph glyph-name="fi" unicode="fi" horiz-adv-x="505" 
d="M545 283q13 0 23.5 -11.5t5.5 -21.5q-9 -15 -21 -42q-28 -58 -53 -100t-64 -75t-87 -33t-70 34t-22 91q0 69 25 149q28 87 52 138l-43 2q-35 1 -104 5q-20 -88 -33 -208q-2 -13 -4 -43q-5 -56 -11.5 -89.5t-27 -56t-59.5 -22.5q-36 0 -51.5 18t-15.5 56q0 32 9.5 79.5
t28.5 120.5q19 71 44 149h-13q-30 0 -43.5 9.5t-13.5 24.5t11 28.5t21 13.5h67q27 68 62 127q43 70 96.5 104.5t137.5 34.5q61 0 115.5 -29t51.5 -106v-7v-2q-9 -80 -99 -80q-67 0 -83 43q-11 30 -23 41.5t-40 11.5q-64 0 -106 -138l217 1h1q34 0 34 -45q0 -21 -6 -43
t-18 -53q-2 -5 -8 -24t-9.5 -34t-3.5 -27q0 -24 12 -37t33 -13t36.5 12.5t32.5 37.5q6 9 16 9z" />
    <glyph glyph-name="fl" unicode="fl" horiz-adv-x="511" 
d="M550 283q14 0 24.5 -12t4.5 -22l-19 -37q-28 -58 -54.5 -101t-68 -77t-93.5 -34q-95 0 -95 103q0 74 34 171l25 73q56 162 79 217q-5 24 -20.5 38.5t-40.5 14.5q-65 0 -110 -118h98q7 0 11 -7.5t4 -20.5q0 -23 -11.5 -43.5t-28.5 -20.5l-99 9q-23 -89 -36 -205
q-2 -13 -4 -43q-5 -56 -11.5 -89.5t-27 -56t-59.5 -22.5q-36 0 -51.5 18t-15.5 56q0 32 9.5 79.5t28.5 120.5q22 80 45 149h-14q-30 0 -43.5 9.5t-13.5 24.5t11 28.5t21 13.5h67q51 127 113.5 196.5t141.5 69.5q90 0 115 -64q21 18 45 18q41 0 41 -37q0 -24 -17 -57
q-86 -173 -117 -287q-12 -41 -12 -66q0 -23 10.5 -36t36.5 -13q48 0 81 51q6 9 16 9z" />
    <glyph glyph-name=".notdef" horiz-adv-x="487" 
d="M20 -59v776h447v-776h-447zM421 683h-355l178 -319zM54 23l170 306l-170 306v-612zM433 635l-170 -306l170 -306v612zM421 -25l-177 319l-178 -319h355z" />
    <glyph glyph-name=".null" horiz-adv-x="0" 
 />
    <glyph glyph-name="nonmarkingreturn" horiz-adv-x="333" 
 />
    <glyph glyph-name="space" unicode=" " horiz-adv-x="360" 
 />
    <glyph glyph-name="exclam" unicode="!" horiz-adv-x="299" 
d="M151 278q0 83 25.5 197.5t65.5 197t84 82.5q29 0 44 -16.5t15 -48.5q0 -54 -41 -164.5t-91 -201.5t-73 -91q-29 0 -29 45zM57 15q-25 25 -25 59q0 35 25 59.5t59 24.5q35 0 59.5 -24.5t24.5 -59.5q0 -34 -24.5 -59t-59.5 -25q-34 0 -59 25z" />
    <glyph glyph-name="quotedbl" unicode="&#x22;" horiz-adv-x="340" 
d="M114.5 470q-4.5 15 -4.5 39q0 40 12 84.5t36.5 75.5t59.5 31q38 0 38 -37q0 -32 -26 -81t-57.5 -88t-45.5 -39q-8 0 -12.5 15zM285.5 470q-4.5 15 -4.5 39q0 40 12 84.5t36.5 75.5t59.5 31q38 0 38 -37q0 -32 -26 -81t-57.5 -88t-45.5 -39q-8 0 -12.5 15z" />
    <glyph glyph-name="numbersign" unicode="#" horiz-adv-x="577" 
d="M615 484h-99l-54 -169h85v-30h-95q-36 -111 -59 -171t-42.5 -87.5t-40.5 -27.5q-33 0 -33 31q0 58 84 255h-98q-39 -109 -64.5 -169.5t-46.5 -88.5t-42 -28q-33 0 -33 31t23.5 93.5t69.5 161.5h-54v30h68l83 169h-83v30h98l113 230l21 -8l-75 -222h125l80 169l29 61
l21 -8l-71 -222h90v-30zM374 315l77 169h-120l-58 -169h101z" />
    <glyph glyph-name="dollar" unicode="$" horiz-adv-x="390" 
d="M446.5 614.5q16.5 -26.5 16.5 -58.5q0 -30 -20 -59t-46 -46q-6 -4 -15.5 -0.5t-14.5 11t0 14.5q10 12 10 32q0 16 -8.5 26.5t-25.5 10.5q-20 0 -32.5 -13.5t-12.5 -41.5q0 -19 10 -39t30 -51q25 -38 38 -66.5t13 -61.5q0 -54 -23.5 -97t-66 -67t-95.5 -24q-21 0 -46 5
q-10 -58 -27.5 -89t-35.5 -31q-30 0 -36 27q-3 12 12.5 42t47.5 65q-40 19 -62.5 58.5t-22.5 94.5q0 53 19 88t46 50.5t52 15.5q14 0 22.5 -5t8.5 -14q0 -6 -8 -14.5t-13 -17.5t-5 -26q0 -30 16 -47t45 -17q26 0 43 16.5t17 43.5q0 17 -7.5 33t-23.5 45q-21 36 -32 62.5
t-11 58.5q0 56 36 94t105 38h5q10 56 27.5 86t35.5 30q31 0 36 -26q3 -11 -10.5 -38.5t-41.5 -59.5q34 -11 50.5 -37.5z" />
    <glyph glyph-name="percent" unicode="%" horiz-adv-x="660" 
d="M122.5 399.5q-22.5 34.5 -22.5 90.5t23 116t64.5 100t93.5 40q43 0 64.5 -33.5t21.5 -87.5q0 -55 -23.5 -116.5t-64.5 -102.5t-89 -41q-45 0 -67.5 34.5zM33 21q0 76 614 710l17 -13q-55 -69 -102 -129.5t-89 -113.5q-144 -185 -218.5 -277.5t-126 -145t-74.5 -52.5
q-21 0 -21 21zM276 514q24 29 24 69q0 28 -13 43.5t-36 15.5q-35 0 -58.5 -31t-23.5 -69q0 -25 14.5 -41t36.5 -16q32 0 56 29zM367.5 33.5q-22.5 34.5 -22.5 90.5t23 116t64.5 100t93.5 40q43 0 64.5 -33.5t21.5 -87.5q0 -55 -23.5 -116.5t-64.5 -102.5t-89 -41
q-45 0 -67.5 34.5zM521 147.5q24 28.5 24 67.5q0 30 -13 45.5t-36 15.5q-35 0 -58.5 -30.5t-23.5 -66.5q0 -27 14 -43.5t37 -16.5q32 0 56 28.5z" />
    <glyph glyph-name="ampersand" unicode="&#x26;" horiz-adv-x="700" 
d="M664.5 219.5q15.5 -12.5 26 -33.5t10.5 -45q0 -57 -33.5 -99t-107.5 -42q-85 0 -160 67q-35 -37 -79.5 -58.5t-95.5 -21.5q-59 0 -108 29t-77.5 80t-28.5 116q0 60 24 116t71.5 97.5t115.5 57.5v22q0 115 43 182t129 67q58 0 90 -33t32 -83q0 -41 -25 -80.5t-77.5 -71
t-131.5 -44.5q9 -61 33 -117.5t60 -97.5q30 15 59.5 44.5t43.5 59.5q-23 10 -39 10q-15 0 -22.5 -5.5t-16.5 -16.5q-5 -7 -9.5 -10.5t-9.5 -3.5q-8 0 -12.5 7.5t-4.5 20.5q0 23 13 52t37 49t55 20q20 0 41.5 -7.5t56.5 -22.5q18 -8 35 -14.5t28 -6.5q9 0 16.5 4t16.5 11
q17 13 27 13q9 0 13.5 -6.5t4.5 -17.5q0 -21 -14.5 -48t-41.5 -46t-62 -19q-25 0 -58 13q-11 -38 -29.5 -78t-37.5 -66q31 -11 63 -11q31 0 48.5 8.5t24.5 19.5t14 28q4 12 8 18t12 6q14 0 29.5 -12.5zM296.5 596.5q-18.5 -27.5 -18.5 -91.5v-8q45 17 67.5 43t22.5 50
q0 15 -8 24.5t-22 9.5q-23 0 -41.5 -27.5zM182 224.5q29 -34.5 78 -34.5q19 0 40 6q-59 109 -74 235q-36 -16 -54.5 -48t-18.5 -72q0 -52 29 -86.5z" />
    <glyph glyph-name="quotesingle" unicode="'" horiz-adv-x="210" 
d="M124.5 470q-4.5 15 -4.5 39q0 40 12 84.5t36.5 75.5t59.5 31q38 0 38 -37q0 -32 -26 -81t-57.5 -88t-45.5 -39q-8 0 -12.5 15z" />
    <glyph glyph-name="parenleft" unicode="(" horiz-adv-x="280" 
d="M189 -112q-93 103 -93 246q0 109 39 220t111.5 203.5t169.5 147.5l16 -18q-79 -62 -137.5 -160t-90 -212t-31.5 -223q0 -110 34 -196z" />
    <glyph glyph-name="parenright" unicode=")" horiz-adv-x="296" 
d="M155 703q93 -103 93 -246q0 -109 -39 -220t-111.5 -203.5t-169.5 -147.5l-16 18q79 62 137.5 160t90 212t31.5 223q0 110 -34 196z" />
    <glyph glyph-name="asterisk" unicode="*" horiz-adv-x="350" 
d="M181 411q0 21 8 48.5t19 51.5q-25 -21 -55.5 -38t-51.5 -17q-19 0 -26 16q-2 8 -2 10q0 23 39.5 38t84.5 20q-38 14 -71.5 36.5t-33.5 44.5q0 9 5 15q7 10 20 10q20 0 48.5 -25.5t50.5 -56.5q-5 27 -5 57q0 34 8 55.5t27 21.5q14 0 21 -10t7 -27q0 -22 -8.5 -50.5
t-20.5 -51.5q26 21 57 38t52 17q19 0 26 -16q2 -6 2 -10q0 -23 -39.5 -37.5t-84.5 -19.5q38 -14 71.5 -37t33.5 -45q0 -9 -5 -15q-7 -10 -20 -10q-20 0 -48.5 26t-50.5 57q5 -28 5 -58q0 -34 -8 -55.5t-26 -21.5q-29 0 -29 39z" />
    <glyph glyph-name="plus" unicode="+" horiz-adv-x="364" 
d="M377 382.5q27 -8.5 27 -29.5q0 -10 -4 -21q-12 -33 -44 -46t-106 -15q-14 -47 -27.5 -84.5t-18.5 -42.5q-19 -19 -48 -19q-20 0 -35.5 9t-18.5 22q-2 8 7 40.5t25 76.5q-48 3 -71 12.5t-23 29.5q0 8 3 17q8 24 18.5 35.5t37 17.5t82.5 7q58 126 90 126q20 0 20 -43
q0 -30 -10 -82q69 -2 96 -10.5z" />
    <glyph glyph-name="comma" unicode="," horiz-adv-x="238" 
d="M2.5 -124q-18.5 14 -18.5 39q0 19 11.5 32t28.5 10q10 -2 28 -2q26 0 45 8t29 19t10 20q0 5 -3 8q-4 3 -8.5 -0.5t-10.5 -6.5t-17 -3q-25 0 -46 21t-21 53q0 35 25 59.5t59 24.5q36 0 60 -28t24 -77q0 -53 -21.5 -96.5t-56 -69t-72.5 -25.5q-27 0 -45.5 14z" />
    <glyph glyph-name="hyphen" unicode="-" horiz-adv-x="403" 
d="M49 260q-41 8 -41 33q0 6 3 15q9 26 24 36.5t56 15t134 4.5q89 0 123.5 -8t34.5 -29q0 -10 -4 -19q-9 -24 -29.5 -35.5t-58.5 -16t-106 -4.5q-95 0 -136 8z" />
    <glyph glyph-name="period" unicode="." horiz-adv-x="238" 
d="M55 15q-25 25 -25 59q0 35 25 59.5t59 24.5q35 0 59.5 -24.5t24.5 -59.5q0 -34 -24.5 -59t-59.5 -25q-34 0 -59 25z" />
    <glyph glyph-name="slash" unicode="/" horiz-adv-x="260" 
d="M-75 -91q0 44 130.5 282.5t297.5 516.5l21 -8q-58 -117 -138 -283q-101 -209 -152 -310.5t-86.5 -160t-51.5 -58.5q-21 0 -21 21z" />
    <glyph glyph-name="zero" unicode="0" horiz-adv-x="530" 
d="M94.5 70.5q-44.5 67.5 -44.5 175.5q0 110 45.5 227t126 195t181.5 78q84 0 125.5 -65t41.5 -171q0 -108 -46 -227t-125 -199.5t-173 -80.5q-87 0 -131.5 67.5zM349 264q32 28 51.5 74t19.5 97q0 54 -19 81.5t-55 27.5q-40 0 -72 -30t-50.5 -76.5t-18.5 -93.5
q0 -49 20 -78.5t57 -29.5q35 0 67 28z" />
    <glyph glyph-name="one" unicode="1" horiz-adv-x="315" 
d="M52 20q-22 20 -22 60q0 70 65 194q62 120 84 181q6 17 6 26q0 14 -7.5 18.5t-23.5 7.5q-12 1 -18.5 4t-6.5 12q0 23 44.5 78.5t101.5 100t96 44.5q34 0 34 -35q0 -25 -18 -60q-39 -79 -65 -151t-53 -162q-23 -78 -45 -184q-14 -66 -23.5 -95t-28.5 -44t-57 -15
q-41 0 -63 20z" />
    <glyph glyph-name="two" unicode="2" 
d="M218.5 10q-30.5 13 -64.5 36q-21 14 -33.5 20.5t-24.5 6.5t-19.5 -7.5t-7.5 -19.5q0 -18 -12 -32t-36 -14q-22 0 -35.5 13.5t-13.5 44.5q0 45 27.5 97.5t97.5 93.5q95 55 150 95t82 75.5t27 72.5q0 29 -15.5 46.5t-45.5 17.5t-54.5 -17t-33.5 -43q-6 -17 -16 -25.5
t-22 -8.5q-15 0 -26 13t-11 38q0 16 4 33q21 89 81.5 144.5t146.5 55.5q82 0 131.5 -46t49.5 -126q0 -73 -41 -131t-96 -98t-135 -85q-60 -35 -82 -51q-9 -7 -9 -18q0 -6 3.5 -10.5t8.5 -4.5q6 0 13 7q21 22 45 34t56 12q33 0 69 -15q19 -7 28 -7q21 0 40 31q6 9 18 9
q10 0 16 -6.5t3 -17.5q-33 -121 -80 -173.5t-113 -52.5q-40 0 -70.5 13z" />
    <glyph glyph-name="three" unicode="3" horiz-adv-x="507" 
d="M111 23q-46 25 -67.5 64.5t-21.5 85.5q0 39 15 75t41 57.5t58 21.5q14 0 21.5 -5t7.5 -15q0 -4 -3.5 -17t-3.5 -26q0 -31 20.5 -49t56.5 -18q39 0 66 24.5t27 60.5q0 28 -18.5 44.5t-47.5 16.5q-20 0 -32 9.5t-12 26.5q0 16 12.5 27t32.5 11q50 0 82.5 24t32.5 61
q0 30 -18 47t-50 17t-56 -18t-35 -52q-5 -16 -15.5 -25t-22.5 -9q-17 0 -27 15.5t-10 42.5q0 60 31.5 112t85 83t115.5 31q82 0 131.5 -44t49.5 -117q0 -67 -45.5 -117t-120.5 -67q-10 -2 -16 -7t-6 -11q0 -4 4.5 -8.5t12.5 -6.5q43 -11 67.5 -49t24.5 -92q0 -68 -32 -120
t-89 -80.5t-129 -28.5q-71 0 -117 25z" />
    <glyph glyph-name="four" unicode="4" horiz-adv-x="542" 
d="M559 358q9 0 14.5 -8.5t5.5 -24.5q0 -27 -11.5 -63t-41 -63.5t-79.5 -27.5q-12 0 -18 1q-17 -71 -33 -107.5t-36 -50.5t-53 -14q-30 0 -45 12t-15 40q0 46 44 152q-58 15 -89 15q-23 0 -36.5 -6t-28.5 -17q-7 -5 -15 -9.5t-17 -4.5q-22 0 -39 18t-17 44q0 28 24 55
q84 88 125 143.5t41 101.5q0 14 -5.5 22t-15.5 8q-17 0 -25 -14q-21 5 -32.5 25t-11.5 47q0 31 15 60.5t45.5 48.5t75.5 19q60 0 93 -37.5t33 -94.5q0 -69 -54 -139.5t-150 -145.5q-7 -6 -7 -11q0 -7 12 -7q86 0 133 1q69 151 104 221t62 104.5t52 34.5q18 0 18 -18
q0 -13 -7.5 -34.5t-28.5 -71.5q-41 -104 -53 -138q-15 -42 -26 -93q57 7 70 17t23 10z" />
    <glyph glyph-name="five" unicode="5" horiz-adv-x="502" 
d="M603 746q4 0 7 -4t1 -7q-8 -22 -11 -33q-20 -56 -36.5 -89t-47 -56.5t-77.5 -23.5q-17 0 -32.5 4t-34.5 12q-3 1 -21.5 8t-38.5 7q-24 -1 -37.5 -13t-23.5 -37l-25 -65q43 16 92 16q85 0 130.5 -55t45.5 -136q0 -67 -31.5 -131t-91.5 -104.5t-142 -40.5q-71 0 -117 25
t-67.5 64.5t-21.5 85.5q0 39 15 75t41 57.5t58 21.5q14 0 21.5 -5t7.5 -15q0 -4 -3.5 -17t-3.5 -26q0 -26 20.5 -41.5t56.5 -15.5q42 0 71 30.5t29 74.5q0 36 -19 57.5t-50 21.5q-58 0 -96 -33q-5 -5 -16 -5q-15 0 -28.5 10.5t-13.5 27.5q0 8 3 15l109 297q13 37 88 37
q29 0 93 -4t95 -4q64 0 99 13z" />
    <glyph glyph-name="six" unicode="6" horiz-adv-x="523" 
d="M103 68q-49 65 -49 168q0 112 45 231.5t126 199t181 79.5q50 0 86.5 -23.5t55 -61.5t18.5 -83q0 -59 -29 -107q-9 -14 -23 -14q-6 0 -11.5 3.5t-7.5 10.5q-22 81 -104 81q-53 0 -95.5 -30t-65.5 -81q-3 -6 -3 -10q0 -8 7 -8q3 0 8 3q50 29 115 29q76 0 115 -46.5
t39 -118.5q0 -66 -32.5 -133t-92.5 -110.5t-138 -43.5q-96 0 -145 65zM343.5 253q22.5 24 22.5 58q0 28 -16.5 49t-50.5 21q-42 0 -64 -23t-22 -54q0 -30 19.5 -52.5t51.5 -22.5q37 0 59.5 24z" />
    <glyph glyph-name="seven" unicode="7" horiz-adv-x="441" 
d="M79 33q-31 35 -31 90q0 87 90 195q51 61 100 103t104 83q32 24 43.5 34.5t9.5 17.5q-1 7 -7 7t-19 -8q-19 -10 -34 -15t-35 -5q-17 0 -38 6q-27 8 -49 8q-19 0 -31 -5t-25 -14q-10 -7 -17.5 -10.5t-16.5 -3.5t-15.5 5.5t-6.5 15.5q0 6 3 15l54 136q12 30 36 45.5t56 15.5
q60 0 102 -5.5t91 -14.5q35 -8 55 -8q23 0 39 16q11 11 23 11q31 0 31 -41q0 -44 -41 -96.5t-126 -138.5q-73 -76 -87 -91q-30 -34 -44.5 -64t-14.5 -51q0 -14 5.5 -22t15.5 -8q12 0 19.5 8t13.5 8q15 0 15 -19q0 -44 -16 -98.5t-55.5 -95.5t-104.5 -41q-61 0 -92 35z" />
    <glyph glyph-name="eight" unicode="8" horiz-adv-x="508" 
d="M96.5 41.5q-59.5 53.5 -59.5 150.5q0 68 27 124t69.5 92t88.5 49q7 2 9.5 6t-2.5 10q-29 36 -29 96q0 77 49 126t142 49q91 0 133.5 -44.5t42.5 -106.5q0 -57 -33 -103t-90 -74q-5 -2 -7.5 -6t0.5 -8q26 -32 41.5 -72t15.5 -93q0 -72 -31.5 -128.5t-87 -88.5t-125.5 -32
q-94 0 -153.5 53.5zM419 487.5q17 17.5 17 48.5q0 29 -16 45.5t-45 16.5q-30 0 -46.5 -17t-16.5 -48q0 -30 15.5 -46.5t43.5 -16.5q31 0 48 17.5zM342 252q22 22 22 59q0 33 -20 53t-53 20q-37 0 -59.5 -22t-22.5 -59q0 -33 20 -53t54 -20q37 0 59 22z" />
    <glyph glyph-name="nine" unicode="9" horiz-adv-x="520" 
d="M113 27q-39 24 -59 64t-20 86q0 61 31 111q9 14 23 14q6 0 11.5 -3.5t7.5 -10.5q26 -91 114 -91q55 0 98 31t66 84q3 6 3 10q0 5 -4 6.5t-10 -2.5q-50 -32 -119 -32q-76 0 -115 46.5t-39 118.5q0 66 32.5 133t92.5 110.5t138 43.5q96 0 145 -65t49 -168
q0 -112 -45 -231.5t-126 -199t-181 -79.5q-54 0 -93 24zM379.5 425q23.5 27 23.5 61q0 27 -17.5 45.5t-50.5 18.5q-40 0 -64.5 -24t-24.5 -58q0 -28 17.5 -49t53.5 -21q39 0 62.5 27z" />
    <glyph glyph-name="colon" unicode=":" horiz-adv-x="288" 
d="M55 15q-25 25 -25 59q0 35 25 59.5t59 24.5q35 0 59.5 -24.5t24.5 -59.5q0 -34 -24.5 -59t-59.5 -25q-34 0 -59 25zM157 357q-25 25 -25 59q0 35 25 59.5t59 24.5q35 0 59.5 -24.5t24.5 -59.5q0 -34 -24.5 -59t-59.5 -25q-34 0 -59 25z" />
    <glyph glyph-name="semicolon" unicode=";" horiz-adv-x="288" 
d="M157 357q-25 25 -25 59q0 35 25 59.5t59 24.5q35 0 59.5 -24.5t24.5 -59.5q0 -34 -24.5 -59t-59.5 -25q-34 0 -59 25zM2.5 -124q-18.5 14 -18.5 39q0 19 11.5 32t28.5 10q10 -2 28 -2q26 0 45 8t29 19t10 20q0 5 -3 8q-4 3 -8.5 -0.5t-10.5 -6.5t-17 -3q-25 0 -46 21
t-21 53q0 35 25 59.5t59 24.5q36 0 60 -28t24 -77q0 -53 -21.5 -96.5t-56 -69t-72.5 -25.5q-27 0 -45.5 14z" />
    <glyph glyph-name="less" unicode="&#x3c;" horiz-adv-x="456" 
d="M269 179.5q-86 35.5 -157.5 76.5t-71.5 64q0 31 91.5 75.5t202 81.5t132.5 37q14 0 19.5 -6.5t9.5 -20.5q1 -3 1 -9q0 -32 -53.5 -62.5t-164.5 -76.5l-54 -23q104 -43 154 -71.5t50 -55.5q0 -10 -7 -18q-11 -14 -20 -20.5t-23 -6.5q-23 0 -109 35.5z" />
    <glyph glyph-name="equal" unicode="=" horiz-adv-x="441" 
d="M157 371q-40 9 -40 35q0 8 3 17q9 28 23.5 39.5t54 16.5t129.5 5q87 0 120.5 -8.5t33.5 -31.5q0 -10 -4 -21q-9 -26 -29 -38.5t-56.5 -17.5t-102.5 -5q-92 0 -132 9zM80 172q-40 9 -40 35q0 8 3 17q9 28 23.5 39.5t54 16.5t129.5 5q87 0 120.5 -8.5t33.5 -31.5
q0 -10 -4 -21q-9 -26 -29 -38.5t-56.5 -17.5t-102.5 -5q-92 0 -132 9z" />
    <glyph glyph-name="greater" unicode="&#x3e;" horiz-adv-x="456" 
d="M50.5 144.5q-5.5 6.5 -9.5 20.5q-1 3 -1 8q0 33 53.5 63.5t164.5 76.5l54 23q-105 44 -154 72t-49 55q0 9 6 18q11 14 20 20.5t23 6.5q23 0 109 -35.5t157.5 -76.5t71.5 -64q0 -31 -91.5 -75.5t-202 -81.5t-132.5 -37q-14 0 -19.5 6.5z" />
    <glyph glyph-name="question" unicode="?" horiz-adv-x="411" 
d="M214 228q-11 -7 -25 -7q-16 0 -27 10t-10 29q3 48 28 78.5t70 64.5q39 30 57 51.5t18 52.5q0 30 -17.5 49.5t-50.5 19.5q-36 0 -62.5 -22t-38.5 -58q-6 -17 -16 -25.5t-22 -8.5q-15 0 -26 13t-11 38q0 16 4 33q21 89 82 144.5t149 55.5q81 0 129.5 -46t48.5 -126
q0 -53 -21 -90t-52 -60.5t-79 -51.5q-40 -24 -61.5 -39.5t-37 -37t-17.5 -50.5q-1 -10 -12 -17zM105 15q-25 25 -25 59q0 35 25 59.5t59 24.5q35 0 59.5 -24.5t24.5 -59.5q0 -34 -24.5 -59t-59.5 -25q-34 0 -59 25z" />
    <glyph glyph-name="at" unicode="@" horiz-adv-x="640" 
d="M165 41.5q-68 41.5 -106.5 112.5t-38.5 157q0 28 2 42q11 94 64 174t133 126.5t169 46.5q70 0 133 -31.5t102 -90t39 -135.5q0 -70 -32 -132.5t-85.5 -99.5t-115.5 -37q-32 0 -49.5 22.5t-17.5 60.5q0 8 2 26h-3q-24 -49 -57 -79t-71 -30q-37 0 -57 30.5t-20 82.5
q0 56 22.5 117t66.5 102.5t104 41.5q25 0 37.5 -5t22.5 -14t17 -9t13.5 3.5t12.5 8.5q18 16 39 16q26 0 26 -27q0 -16 -6 -31.5t-19 -41.5l-11 -23q-15 -33 -15 -56t12.5 -35.5t35.5 -12.5q40 0 68.5 35.5t28.5 88.5q0 57 -34.5 99t-90.5 64t-118 22q-76 0 -145 -43
t-111 -115t-42 -155q0 -69 34.5 -125.5t95 -89t136.5 -32.5q60 0 115.5 25.5t97.5 69.5q11 11 22 11q9 0 15.5 -7.5t6.5 -17.5q0 -11 -9 -23q-52 -60 -122 -94t-146 -34q-83 0 -151 41.5zM354.5 351.5q18.5 22.5 18.5 47.5q0 19 -10.5 29.5t-28.5 10.5q-28 0 -46 -22
t-18 -48q0 -19 10.5 -29.5t27.5 -10.5q28 0 46.5 22.5z" />
    <glyph glyph-name="A" unicode="A" horiz-adv-x="854" 
d="M893 283q14 0 24.5 -12t4.5 -22l-19 -37q-28 -58 -54.5 -101t-68 -77t-93.5 -34q-50 0 -73.5 41t-23.5 108q0 34 8 84q-62 3 -122 17l-36 -65q-57 -99 -129.5 -163t-148.5 -64q-65 0 -108 24t-63.5 62t-20.5 82q0 41 17 79t47 61t69 23q6 0 10.5 -3.5t4.5 -8.5
q0 -33 28 -53.5t70 -20.5q86 0 160 85q-78 40 -122.5 102t-44.5 136q0 51 22 88t59 56t80 19q54 0 82 -28.5t28 -67.5q0 -11 -6 -17t-16 -5q-34 4 -59 -17t-25 -71q0 -77 56 -124l27 46q106 191 203.5 269t189.5 78q50 0 76.5 -27.5t26.5 -70.5q-1 -48 -23 -82.5t-53 -34.5
q-6 0 -18 5.5t-19 4.5q-16 0 -34 -28t-36 -86q-12 -43 -19 -74t-7 -56q0 -70 51 -70q24 0 46.5 10t35.5 31q6 9 16 9zM668 453q13 30 17.5 44t4.5 27q0 14 -12 14q-10 0 -21.5 -8.5t-32.5 -32.5q-44 -57 -112 -180q41 -13 101 -16q21 72 55 152z" />
    <glyph glyph-name="B" unicode="B" horiz-adv-x="795" 
d="M28.5 -18q-39.5 24 -59 62.5t-19.5 81.5q0 41 17 79t47 61t69 23q6 0 10.5 -3.5t4.5 -8.5q0 -32 30 -53t70 -21q55 0 109 43t87 128l11 28q7 19 20 53.5t22 57.5q18 48 65 48t47 -34q0 -9 -3 -20q-10 -29 -10 -48q0 -32 30 -32q34 0 60.5 26t26.5 70t-40.5 65.5
t-104.5 21.5q-94 0 -155 -34.5t-61 -102.5q0 -22 11 -36.5t27 -14.5q4 -12 4 -19q0 -24 -17 -50t-47.5 -43.5t-70.5 -17.5q-59 0 -92 38t-33 92q0 88 54 161.5t153.5 117t231.5 43.5q105 0 176.5 -26t107 -70.5t35.5 -99.5q0 -59 -36.5 -106t-92.5 -57q-13 -3 -13 -13
q0 -5 4 -9q48 -48 48 -125q0 -73 -32 -129.5t-84 -87.5t-111 -31q-65 0 -104 37t-43 100q-55 -83 -119.5 -126t-135.5 -43q-55 0 -94.5 24zM589 235.5q21 28.5 21 66.5q0 22 -16 37.5t-47 15.5q-32 0 -51 -23t-19 -55q0 -30 14.5 -50t42.5 -20q34 0 55 28.5z" />
    <glyph glyph-name="C" unicode="C" horiz-adv-x="556" 
d="M101 59.5q-68 71.5 -68 215.5q0 119 54.5 225t145 169.5t191.5 63.5q93 0 141.5 -38.5t48.5 -104.5q0 -55 -28.5 -102t-70.5 -74t-80 -27q-16 0 -26.5 8t-10.5 19q0 4 4 14q29 55 29 90q0 25 -15.5 37.5t-41.5 12.5q-44 0 -81 -27.5t-58 -73t-21 -94.5q0 -71 50.5 -117.5
t145.5 -46.5q53 0 99.5 15t69.5 50q6 9 16 9q13 0 23.5 -12t5.5 -22q-65 -131 -147.5 -196t-195.5 -65q-112 0 -180 71.5z" />
    <glyph glyph-name="D" unicode="D" horiz-adv-x="814" 
d="M36 -18q-39 24 -57.5 62t-18.5 82q0 41 17 79t47 61t69 23q6 0 10.5 -3.5t4.5 -8.5q0 -33 28 -53.5t70 -20.5q51 0 103 43t85 128l11 28q7 19 20 53.5t22 57.5q18 48 65 48q46 0 46 -36q0 -16 -10.5 -45.5t-30.5 -80.5q-24 -59 -36.5 -96t-12.5 -60q0 -21 12 -33.5
t36 -12.5q42 0 76.5 38t54 96.5t19.5 118.5q0 72 -40.5 116t-136.5 44q-78 0 -132.5 -37.5t-54.5 -109.5q0 -22 11 -36.5t27 -14.5q7 -1 7 -11q0 -17 -19 -46t-50.5 -51t-68.5 -22q-59 0 -92 42.5t-33 103.5q0 85 50 157.5t139 115.5t201 43q179 0 260 -89t81 -230
q0 -105 -41.5 -206.5t-110.5 -165t-147 -63.5q-61 0 -97.5 37t-40.5 100q-43 -80 -106 -124.5t-139 -44.5q-58 0 -97 24z" />
    <glyph glyph-name="E" unicode="E" horiz-adv-x="516" 
d="M118 12q-49 24 -77.5 71t-28.5 111q0 88 47.5 144.5t127.5 63.5q13 1 13 12q0 7 -7 11q-60 34 -60 119q0 60 30 106t85.5 71t129.5 25q100 0 138.5 -48.5t38.5 -108.5q0 -49 -23 -81t-53 -32q-12 0 -19 6t-7 15q0 38 -17.5 60t-62.5 22q-48 0 -73 -25t-25 -61
q0 -24 12.5 -43t32.5 -28q34 0 78 6q32 4 41 4q12 0 17.5 -9.5t5.5 -29.5q0 -80 -120 -80q-46 0 -84 26q-20 -5 -33 -24t-13 -42q0 -35 39 -54.5t110 -19.5q59 0 106.5 19t71.5 56q6 9 16 9q13 0 23.5 -12t5.5 -22q-62 -125 -155 -193t-203 -68q-59 0 -108 24z" />
    <glyph glyph-name="F" unicode="F" horiz-adv-x="668" 
d="M813.5 777q8.5 -10 8.5 -31q0 -39 -18.5 -73t-54.5 -54.5t-85 -20.5q-30 0 -52 6t-55 18q-35 14 -63 21t-68 7q-73 0 -121 -23t-48 -68q0 -20 11 -33.5t27 -13.5q4 -12 4 -19q0 -24 -17 -50t-47.5 -43.5t-70.5 -17.5q-59 0 -92 40.5t-33 98.5q0 72 48 132t140.5 95.5
t219.5 35.5q52 0 118 -4q56 -4 86 -4q53 0 99 8q8 1 16.5 2t16.5 1q22 0 30.5 -10zM658.5 404.5q10.5 -9.5 10.5 -27.5t-11 -37t-34 -32t-56 -13q-43 0 -86 5q-14 -41 -30 -77q-56 -134 -134 -199.5t-174 -65.5q-66 0 -109.5 24t-64 62t-20.5 82q0 41 17 79t47 61t69 23
q6 0 10.5 -3.5t4.5 -8.5q0 -33 26 -53.5t69 -20.5t89 29t81 88q-20 2 -28 2q-17 0 -25.5 10t-8.5 27q0 23 15 37t44 14h42l13 35q6 15 17.5 47t20.5 54q18 48 65 48q50 0 50 -34q0 -6 -4 -20q-17 -56 -42 -128l98 2q28 0 38.5 -9.5z" />
    <glyph glyph-name="G" unicode="G" horiz-adv-x="543" 
d="M284 456q-7 -21 -7 -43q0 -41 24.5 -65t69.5 -24q71 0 112 52q11 9 23 9q16 0 27.5 -11.5t8.5 -22.5q-11 -47 -23 -87t-32 -97l-12 -37q-35 -106 -119 -166t-198 -60q-70 0 -120 25t-76 67.5t-26 95.5q0 60 31 101.5t80 41.5q6 0 10.5 -3.5t4.5 -8.5q0 -56 44.5 -92.5
t107.5 -36.5q98 0 154 95q2 4 2 7q0 5 -3 9t-6 4q-4 0 -7 -5q-17 -32 -45.5 -45.5t-59.5 -13.5q-63 0 -102.5 53t-39.5 149t42 186q-27 9 -48 9q-33 0 -53.5 -16t-20.5 -43q0 -22 13 -36t34 -14q3 -7 3 -17q0 -20 -16 -42t-46 -37t-69 -15q-67 0 -104 43.5t-37 111.5
q0 59 30 106t84 74t124 27q53 0 91 -13t74 -34q45 57 112 82t126 25q84 0 132 -41t48 -111q0 -50 -28 -87t-77 -56.5t-110 -19.5q-70 0 -127 27zM355 578q-30 -16 -30 -42q0 -35 64 -35q46 0 70.5 17t24.5 40q0 16 -14 26t-45 10q-40 0 -70 -16z" />
    <glyph glyph-name="H" unicode="H" horiz-adv-x="866" 
d="M905 283q14 0 24.5 -12t4.5 -22l-16 -30q-29 -58 -58 -103t-75 -80.5t-104 -35.5q-54 0 -85.5 31t-31.5 89q0 81 24 153l1 4q5 18 5 26q0 15 -9.5 19.5t-29.5 4.5l-36 -1q-13 0 -22 -4.5t-18 -21.5l-8 -17l-29 -66q-121 -259 -319 -259q-55 0 -94.5 24t-59 62.5
t-19.5 81.5q0 41 17 79t47 61t69 23q6 0 10.5 -3.5t4.5 -8.5q0 -33 28 -53.5t70 -20.5q57 0 111.5 43t86.5 128q23 59 51 126l34 84q-22 6 -43 6q-56 0 -95 -36.5t-39 -91.5q0 -21 11 -35.5t27 -14.5q4 -12 4 -19q0 -24 -17 -50t-47.5 -43.5t-70.5 -17.5q-59 0 -92 43
t-33 104q0 85 47.5 157.5t132.5 115t190 42.5q74 0 110.5 -25.5t36.5 -72.5q0 -29 -14 -66q-21 -66 -49 -136l-1 -2q-6 -15 -6 -24q0 -21 26 -21q31 0 50 2q13 1 20 6.5t12 18t11 28.5q36 105 67.5 169.5t68 98.5t83.5 34q40 0 62.5 -24.5t22.5 -75.5q0 -54 -27 -113
t-74.5 -108t-107.5 -73q-29 -12 -29 -52q0 -36 21 -60.5t56 -24.5q28 0 54 13.5t42 37.5q6 9 16 9zM746 449q0 -10 8 -10q14 0 32.5 18t32 42.5t13.5 42.5q0 12 -5.5 18.5t-15.5 6.5q-19 0 -31 -18.5t-23 -51.5q-11 -34 -11 -48z" />
    <glyph glyph-name="I" unicode="I" horiz-adv-x="425" 
d="M97 14.5q-31 26.5 -31 69.5q0 32 17.5 57.5t57.5 65.5q32 32 49 51q55 62 90 130t87 196q-21 5 -49 5q-51 0 -83.5 -23t-32.5 -63q0 -22 11 -36.5t27 -14.5q4 -12 4 -19q0 -24 -17 -50t-47.5 -43.5t-70.5 -17.5q-59 0 -92 38t-33 92q0 80 44.5 146.5t127 106t190.5 39.5
q78 0 111 -23t33 -69q0 -28 -11 -69q-22 -90 -60.5 -223.5t-67.5 -219.5q-24 -74 -69 -113t-104 -39q-50 0 -81 26.5z" />
    <glyph glyph-name="J" unicode="J" horiz-adv-x="519" 
d="M4.5 9.5q-54.5 51.5 -54.5 132.5q0 40 15.5 76t43.5 58.5t64 22.5q6 0 10.5 -3.5t4.5 -8.5q0 -37 31.5 -60.5t77.5 -23.5q54 0 109.5 43t87.5 128q48 127 85 210q-20 4 -44 4q-58 0 -95.5 -30.5t-37.5 -84.5q0 -22 11 -36.5t27 -14.5q4 -12 4 -19q0 -24 -17 -50
t-47.5 -43.5t-70.5 -17.5q-59 0 -92 38t-33 92q0 87 47 161t132 117.5t194 43.5q143 0 143 -96q0 -35 -16 -77q-10 -31 -60 -175l-45 -132q-54 -161 -131 -233.5t-189 -72.5q-100 0 -154.5 51.5z" />
    <glyph glyph-name="K" unicode="K" horiz-adv-x="821" 
d="M638 354q0 -4 4 -8q15 -12 23.5 -29t16.5 -43q11 -34 23.5 -50.5t42.5 -16.5q31 0 52 16.5t44 50.5q6 9 16 9q13 0 23 -11.5t6 -22.5q-41 -103 -107 -176t-144 -73q-64 0 -85.5 44.5t-21.5 117.5l1 48q1 14 1 38q0 27 -4.5 41t-15.5 14t-18.5 -7.5t-15.5 -31.5
q-54 -161 -131 -233.5t-189 -72.5q-100 0 -154.5 51.5t-54.5 132.5q0 40 15.5 76t43.5 58.5t64 22.5q6 0 10.5 -3.5t4.5 -8.5q0 -37 31.5 -60.5t77.5 -23.5q54 0 109.5 43t87.5 128q23 59 55 137l30 73q-24 6 -46 6q-40 0 -70 -18.5t-45.5 -48t-15.5 -60.5q0 -22 11 -36.5
t27 -14.5q4 -12 4 -19q0 -24 -17 -50t-47.5 -43.5t-70.5 -17.5q-59 0 -92 38t-33 92q0 90 45.5 166t128 121t187.5 45q155 0 155 -99q0 -35 -16 -76l-20 -60q-15 -43 -16 -45l-1 -3q-3 -10 -3 -19q0 -22 18 -22q23 0 48 38t57 114q26 58 45.5 91.5t50.5 57t75 23.5
q53 0 78 -31.5t25 -77.5q0 -35 -13.5 -66t-34.5 -50t-44 -19q-12 0 -26 8q-14 9 -28 9q-25 0 -43 -19t-43 -58q-22 -32 -33.5 -47t-27.5 -24q-10 -6 -10 -15z" />
    <glyph glyph-name="L" unicode="L" horiz-adv-x="604" 
d="M643 283q13 0 23.5 -12t5.5 -22q-53 -101 -92.5 -154.5t-74 -74t-75.5 -20.5q-64 0 -112 33t-93 90q-41 -67 -87.5 -101t-106.5 -34q-52 0 -89 22.5t-55.5 60t-18.5 80.5t22 82t65 63.5t104 24.5t124 -28q7 12 21 40q-88 25 -137.5 82t-49.5 136q0 83 48 133.5t128 50.5
q49 0 79.5 -23.5t30.5 -60.5q0 -27 -16 -27q-37 0 -62 -25t-25 -68q0 -30 12 -54.5t34 -41.5q44 109 84.5 175.5t87.5 100t107 33.5q69 0 108 -36t39 -104q0 -72 -38.5 -138t-116 -107.5t-186.5 -41.5h-11q-18 -44 -36 -81q39 -22 74 -34t75 -12q57 0 111.5 21t82.5 63
q6 9 16 9zM361 414q-2 -5 -4 -11q46 2 80.5 23t53 50.5t18.5 56.5q0 16 -8 27t-24 11q-49 0 -116 -157zM141 231q-26 26 -51 26q-17 0 -26 -8t-9 -20t8.5 -20t23.5 -8q27 0 54 30z" />
    <glyph glyph-name="M" unicode="M" horiz-adv-x="1034" 
d="M1069 282q8 0 17.5 -10.5t15.5 -22.5l-19 -37q-28 -58 -54.5 -101t-68 -77t-93.5 -34q-55 0 -83.5 38.5t-28.5 107.5q0 47 12.5 90t35.5 105q9 22 15.5 41.5t6.5 29.5q0 22 -19 22t-36.5 -24.5t-40 -90t-54.5 -189.5q-12 -47 -34.5 -64.5t-52.5 -17.5q-45 0 -62 15
t-17 48q0 23 6.5 51t20.5 73q15 52 23 86.5t8 67.5q0 48 -24 48q-22 0 -28 -28q-47 -232 -148.5 -341.5t-237.5 -109.5q-55 0 -94.5 24t-59 62.5t-19.5 81.5q0 41 17 79t47 61t69 23q6 0 10.5 -3.5t4.5 -8.5q0 -33 28.5 -53.5t72.5 -20.5q66 0 121.5 50t88.5 121.5t33 127.5
q0 39 -18 60.5t-51 21.5q-38 0 -65 -27.5t-27 -72.5q0 -26 14.5 -44t36.5 -18q4 -8 4 -19q0 -22 -15 -46t-43.5 -39.5t-64.5 -15.5q-60 0 -98.5 43t-38.5 113q0 76 41 141.5t116.5 105t172.5 39.5q128 0 201 -72.5t86 -200.5q34 71 84.5 133.5t108 101t110.5 38.5
q54 0 80 -29t26 -74q0 -29 -11 -58.5t-28.5 -48.5t-34.5 -19q-8 0 -19.5 5.5t-17.5 5.5q-23 0 -42 -43t-30 -99.5t-11 -90.5q0 -70 61 -70q23 0 44.5 13t37.5 38q6 8 12 8z" />
    <glyph glyph-name="N" unicode="N" horiz-adv-x="814" 
d="M28.5 -18q-39.5 24 -59 62.5t-19.5 81.5q0 41 17 79t47 61t69 23q6 0 10.5 -3.5t4.5 -8.5q0 -33 28.5 -53.5t72.5 -20.5q66 0 121.5 50t88.5 121.5t33 127.5q0 40 -17.5 61.5t-49.5 21.5q-31 0 -52.5 -19.5t-21.5 -51.5q0 -26 14.5 -44t36.5 -18q4 -8 4 -19
q0 -22 -15 -46t-43.5 -39.5t-64.5 -15.5q-60 0 -98.5 43.5t-38.5 115.5q0 67 35.5 125t103.5 93t161 35q123 0 187.5 -89t64.5 -291q0 -21 13 -21q6 0 11.5 6t6.5 15q11 101 46.5 187t98.5 140t152 54q70 0 105.5 -30.5t35.5 -73.5q0 -47 -26.5 -74t-79.5 -27q-18 0 -31 11
q-11 9 -24 9q-79 0 -139 -120.5t-99 -329.5q-11 -56 -38 -83t-64 -27q-51 0 -73 43t-22 128q0 110 12 225q1 10 -2.5 15.5t-10.5 5.5q-6 0 -11 -5t-6 -13q-46 -228 -146 -334.5t-234 -106.5q-55 0 -94.5 24z" />
    <glyph glyph-name="O" unicode="O" horiz-adv-x="530" 
d="M515 690.5q44 -54.5 44 -152.5q0 -113 -48.5 -240.5t-130 -213.5t-175.5 -86q-50 0 -95 27.5t-73 85t-28 141.5q0 79 24.5 163.5t59.5 139.5q39 60 86 60q17 0 28 -8q20 61 65.5 99.5t114.5 38.5q84 0 128 -54.5zM340.5 260q40.5 35 64.5 90.5t24 112.5q0 60 -21.5 90.5
t-59.5 30.5q-25 0 -39.5 -13.5t-14.5 -34.5q0 -19 11 -31t29 -12t27.5 -11.5t9.5 -29.5q0 -28 -20 -50t-56 -22q-38 0 -63 29.5t-34 76.5q-15 -36 -23 -67.5t-8 -71.5q0 -122 86 -122q47 0 87.5 35z" />
    <glyph glyph-name="P" unicode="P" horiz-adv-x="760" 
d="M723 678.5q84 -65.5 84 -189.5q0 -65 -31 -126.5t-91.5 -100.5t-145.5 -39q-27 0 -44 5.5t-32 14.5q-16 9 -26 9q-15 0 -24 -14l-5 -10l3 7l-3 -7q-46 -120 -123 -195t-171 -75q-82 0 -123 48.5t-41 116.5q0 42 17 80.5t47 62t69 23.5q6 0 10.5 -3.5t4.5 -8.5
q0 -33 24 -53.5t60 -20.5q46 0 95 43.5t82 127.5l11 28q7 19 20 53.5t22 57.5q18 48 65 48t47 -34q0 -9 -3 -20l-12 -35q-18 -53 -21 -65l3 7q-6 -16 -6 -28q0 -16 11 -23t35 -7q29 0 55.5 16t43.5 46t17 71q0 63 -44 92t-130 29q-94 0 -155 -33t-61 -98q0 -20 11 -33.5
t27 -13.5q4 -12 4 -19q0 -24 -17 -50t-47.5 -43.5t-70.5 -17.5q-59 0 -92 40.5t-33 98.5q0 83 53 152t150.5 110t226.5 41q170 0 254 -65.5z" />
    <glyph glyph-name="Q" unicode="Q" horiz-adv-x="540" 
d="M637 -27q-13 -71 -59.5 -122t-114.5 -51q-81 0 -115.5 60t-44.5 163q-48 -25 -98 -25q-48 0 -90.5 22t-69.5 68.5t-27 114.5q0 44 13 83t38 68q-10 29 -10 71q0 72 31.5 146t96.5 124t160 50q103 0 157.5 -60t54.5 -167q0 -105 -45.5 -224t-119.5 -199q18 -68 53 -105
t104 -37q49 0 77 24zM235.5 552q-33.5 -25 -54.5 -63t-27 -77q29 9 63 9q59 0 90.5 -31.5t47.5 -89.5q25 33 39.5 76.5t14.5 86.5q0 56 -26.5 85t-70.5 29q-43 0 -76.5 -25zM284 243q-8 44 -25 67.5t-47 23.5q-23 0 -37.5 -13.5t-14.5 -34.5t21.5 -36t62.5 -15q19 0 40 8z
" />
    <glyph glyph-name="R" unicode="R" horiz-adv-x="811" 
d="M0.5 7q-40.5 49 -40.5 119q0 41 17 79t47 61t69 23q6 0 10.5 -3.5t4.5 -8.5q0 -33 24 -53.5t60 -20.5q99 0 177 171l11 28q7 19 20 53.5t22 57.5q18 48 65 48t47 -34q0 -9 -3 -20q-26 -75 -30 -106q-1 -17 8 -22t30 -5q31 0 58 16.5t43.5 45t16.5 63.5q0 58 -47.5 84.5
t-129.5 26.5q-63 0 -109 -19t-70 -49t-24 -63q0 -20 11 -33.5t27 -13.5q4 -12 4 -19q0 -24 -17 -50t-47.5 -43.5t-70.5 -17.5q-59 0 -92 40.5t-33 98.5q0 73 54.5 143t155 115t229.5 45q161 0 241.5 -56t80.5 -160q0 -84 -42.5 -141.5t-116.5 -69.5q-20 -3 -27.5 -6.5
t-7.5 -9.5t7 -11t15.5 -12.5t17.5 -23.5q13 -23 28.5 -35t42.5 -12q31 0 52.5 16.5t44.5 50.5q6 9 16 9q13 0 23 -11.5t6 -22.5q-43 -101 -112 -175t-142 -74q-45 0 -73.5 31.5t-33.5 96.5l-2 30q-3 58 -12 90t-36 32q-11 0 -16.5 -5.5t-9.5 -17.5q-50 -134 -133.5 -216.5
t-186.5 -82.5q-81 0 -121.5 49z" />
    <glyph glyph-name="S" unicode="S" horiz-adv-x="518" 
d="M108.5 -15q-52.5 27 -82.5 80t-30 128q0 73 26 120t62.5 68t70.5 21q19 0 30 -7t11 -18q0 -10 -12 -22q-11 -12 -17 -24t-6 -34q0 -41 22 -64.5t61 -23.5q36 0 59 23t23 60q0 23 -10.5 46t-31.5 59q-28 48 -43.5 85t-15.5 82q0 48 21 89t64.5 66t107.5 25q82 0 122 -41
t40 -101q0 -45 -24 -84t-65 -60q-3 -5 -10 -5q-11 0 -23 10.5t-12 20.5q0 5 3 8q13 16 13 45q0 21 -10.5 35.5t-34.5 14.5q-27 0 -44.5 -18t-17.5 -55q0 -27 13 -53.5t41 -70.5q34 -53 52 -92t18 -84q0 -74 -32.5 -132t-89.5 -91t-130 -33q-66 0 -118.5 27z" />
    <glyph glyph-name="T" unicode="T" horiz-adv-x="524" 
d="M82 382.5q-33 40.5 -33 98.5q0 74 47 141.5t141.5 109.5t230.5 42q77 0 142 -5q16 -1 38 -2t52 -1q53 0 99 8q8 1 16.5 2t16.5 1q22 0 30.5 -10t8.5 -31q0 -40 -19 -73.5t-56 -54t-89 -20.5q-30 0 -53 5.5t-55 17.5q-38 14 -68.5 21.5t-74.5 7.5q-57 0 -100 -16.5
t-66 -44.5t-23 -60q0 -20 11 -33.5t27 -13.5q4 -12 4 -19q0 -24 -17 -50t-47.5 -43.5t-70.5 -17.5q-59 0 -92 40.5zM34.5 -18q-43.5 24 -64 62t-20.5 82q0 41 17 79t47 61t69 23q6 0 10.5 -3.5t4.5 -8.5q0 -33 26 -53.5t69 -20.5q52 0 107.5 43t88.5 128l11 28q7 19 20 53.5
t22 57.5q18 48 65 48q50 0 50 -34q0 -6 -4 -20q-59 -185 -101 -284q-56 -134 -134 -199.5t-174 -65.5q-66 0 -109.5 24z" />
    <glyph glyph-name="U" unicode="U" horiz-adv-x="570" 
d="M49 45.5q-33 46.5 -33 121.5t36 169t93 172.5t116 110.5q-126 5 -198 -28t-72 -98q0 -22 11 -36.5t27 -14.5q4 -12 4 -19q0 -24 -17 -50t-47.5 -43.5t-70.5 -17.5q-59 0 -92 38t-33 92q0 82 55.5 151t158.5 110t237 41q75 0 118.5 -21t43.5 -62q0 -15 -8 -37
q-47 -22 -90.5 -78t-69.5 -124t-26 -121q0 -68 49 -68q43 0 79 44.5t64 118.5q43 123 70 188t55 100t61 35q41 0 41 -37q0 -24 -17 -57q-83 -167 -117 -287q-12 -41 -12 -66q0 -23 10.5 -36t36.5 -13q48 0 81 51q6 9 16 9q14 0 24.5 -12t4.5 -22l-19 -37q-28 -58 -54.5 -101
t-68 -77t-93.5 -34q-95 0 -95 103q0 11 2 37q-77 -141 -167 -141q-61 0 -94 46.5z" />
    <glyph glyph-name="V" unicode="V" horiz-adv-x="490" 
d="M111.5 44.5q-40.5 44.5 -40.5 133.5q0 158 135 406q-29 8 -51 8q-49 0 -82.5 -26t-33.5 -64q0 -21 11 -35.5t27 -14.5q4 -12 4 -19q0 -24 -17 -50t-47.5 -43.5t-70.5 -17.5q-59 0 -92 43t-33 104q0 74 46.5 137t129 100.5t184.5 37.5q72 0 101.5 -24t29.5 -72
q0 -28 -8 -68q-26 -127 -37.5 -194t-11.5 -109q0 -54 24 -54q29 0 53 43.5t62 140.5l9 25q40 105 72 171t80.5 113.5t113.5 47.5q66 0 102 -33.5t36 -80.5q0 -45 -31.5 -78t-85.5 -33q-28 0 -48 12q-18 8 -31 8q-33 0 -62 -34t-53 -84t-58 -135q-40 -100 -70 -160.5
t-70 -103t-88 -42.5q-58 0 -98.5 44.5z" />
    <glyph glyph-name="W" unicode="W" horiz-adv-x="770" 
d="M105 44.5q-34 44.5 -34 133.5q0 158 135 406q-29 8 -51 8q-49 0 -82.5 -26t-33.5 -64q0 -21 11 -35.5t27 -14.5q4 -12 4 -19q0 -24 -17 -50t-47.5 -43.5t-70.5 -17.5q-59 0 -92 43t-33 104q0 74 46.5 137t129 100.5t184.5 37.5q78 0 110.5 -23.5t32.5 -71.5
q0 -27 -10 -69l-6 -25q-31 -137 -42 -192t-11 -85q0 -24 7 -34.5t23 -10.5q27 0 51.5 50t57.5 169q12 43 26 103q16 66 27 98.5t30.5 51.5t52.5 19q35 0 60.5 -20t25.5 -55q0 -26 -9.5 -50.5t-29.5 -61.5q-18 -36 -28.5 -60.5t-16.5 -52.5q-13 -68 -13 -113q0 -38 8 -58
t20 -20q24 0 40.5 34.5t39.5 110.5l9 29q57 186 133.5 271.5t176.5 85.5q66 0 102 -33.5t36 -80.5q0 -45 -31.5 -78t-85.5 -33q-19 0 -29.5 3t-21.5 9q-2 1 -11 4.5t-22 3.5q-43 0 -69.5 -33t-42 -82.5t-33.5 -134.5q-22 -101 -42 -162t-59.5 -104t-104.5 -43q-49 0 -81 34
t-32 107q0 34 5 61l1 8q0 10 -4 15t-11 5t-14.5 -7t-11.5 -21q-32 -107 -86 -154.5t-111 -47.5q-48 0 -82 44.5z" />
    <glyph glyph-name="X" unicode="X" horiz-adv-x="751" 
d="M25 -18q-37 24 -56 62.5t-19 81.5q0 44 17.5 84t48.5 64.5t68 24.5q24 0 24 -12q0 -33 28 -53.5t70 -20.5q68 0 116 51t72 126q13 42 13 72q0 34 -14 53.5t-42 19.5q-35 0 -55 -28.5t-20 -62.5q0 -16 4 -25q3 -9 3 -16q0 -15 -11.5 -23.5t-31.5 -8.5q-42 0 -64.5 35.5
t-22.5 90.5q0 58 25 116t73 96.5t114 38.5q78 0 106 -42.5t28 -108.5q0 -19 -2 -49l-1 -31q0 -26 10 -26q6 0 14 14t20 43q24 56 47 96.5t61.5 72t90.5 31.5t78.5 -31t26.5 -79q0 -43 -19 -87t-51 -73t-68 -29q-16 0 -23.5 6.5t-13.5 19.5q-7 13 -13.5 19t-21.5 6
q-39 0 -63.5 -43.5t-24.5 -96.5q0 -61 33.5 -94t91.5 -33q32 0 61 9.5t42 31.5q7 12 20 12q11 0 19 -8t8 -18q0 -7 -2 -11q-28 -59 -58.5 -109t-84 -95t-122.5 -45q-61 0 -82 39t-21 102l1 45q1 11 1 32q0 20 -3 29.5t-11 9.5q-11 0 -20.5 -15.5t-25.5 -53.5
q-25 -64 -53.5 -111t-84.5 -83t-142 -36q-51 0 -88 24z" />
    <glyph glyph-name="Y" unicode="Y" horiz-adv-x="760" 
d="M174.5 -184q-57.5 31 -84.5 80t-27 105q0 47 18.5 88.5t52.5 67t78 25.5q17 0 24.5 -4t8.5 -9t1 -17q0 -35 17 -66t53.5 -51t89.5 -20q86 0 136.5 44.5t70 99t19.5 90.5q0 12 -9 12q-8 0 -13 -12q-23 -80 -75 -124.5t-114 -44.5q-65 0 -101 46.5t-36 121.5q0 61 32 138.5
t83 142t104 90.5q-126 5 -198 -28t-72 -98q0 -22 11 -36.5t27 -14.5q4 -12 4 -19q0 -24 -17 -50t-47.5 -43.5t-70.5 -17.5q-59 0 -92 38t-33 92q0 82 55.5 151t158.5 110t237 41q75 0 118.5 -21.5t43.5 -64.5q0 -17 -8 -39q-43 -17 -81.5 -62.5t-62 -100.5t-23.5 -98
q0 -68 49 -68q57 0 92.5 57.5t72.5 182.5q33 117 65 154t65 37q32 0 49.5 -18.5t17.5 -52.5q0 -25 -11.5 -52t-34.5 -69q-20 -37 -33.5 -65.5t-22.5 -59.5q-3 -9 -13.5 -42.5t-19.5 -73t-16 -85.5q-30 -199 -128 -308.5t-266 -109.5q-87 0 -144.5 31z" />
    <glyph glyph-name="Z" unicode="Z" horiz-adv-x="604" 
d="M20.5 20.5q-23.5 29.5 -23.5 78.5q0 109 52 175t123 97.5t180 61.5q64 17 99 29.5t57.5 32t22.5 47.5q0 18 -15 18q-6 0 -12 -6l-7 -7q-16 -17 -36 -28t-58 -11q-30 0 -84 14t-85 14q-22 0 -33 -10t-11 -26q0 -13 7.5 -22t7.5 -16q0 -11 -11 -20t-31 -9q-42 0 -67.5 33.5
t-25.5 81.5q0 52 27.5 98t77.5 74t115 28q31 0 62 -7t74 -21q42 -13 66 -18.5t47 -5.5q28 0 39 8t18 23q5 11 10.5 16t18.5 5q28 0 38.5 -27t10.5 -80q0 -98 -50.5 -160.5t-118.5 -94t-171 -63.5q-81 -24 -117.5 -42.5t-36.5 -48.5q0 -5 3.5 -8.5t8.5 -3.5q8 0 12 6
q21 28 46.5 40t73.5 12q29 0 52 -6t50 -18q29 -11 48.5 -16.5t46.5 -5.5q77 0 106 42q6 9 16 9q14 0 24.5 -12t4.5 -22l-16 -29q-30 -58 -60 -103.5t-77 -81.5t-106 -36q-51 0 -84.5 13t-51.5 30.5t-38 45.5q-17 25 -30 36t-34 11q-16 0 -23 -8.5t-7 -19.5q0 -10 9 -23
q6 -8 9 -14.5t3 -17.5q0 -24 -20 -42.5t-57 -18.5q-45 0 -68.5 29.5z" />
    <glyph glyph-name="bracketleft" unicode="[" horiz-adv-x="280" 
d="M169 -112h-176l268 812h178l-20 -55h-104l-228 -702h102z" />
    <glyph glyph-name="backslash" unicode="\" horiz-adv-x="270" 
d="M139 97q-35 179 -87 495l-17 104l21 9l67 -267q64 -254 89 -364.5t25 -155.5q0 -21 -6 -27q-8 -8 -15 -8t-15 8q-27 27 -62 206z" />
    <glyph glyph-name="bracketright" unicode="]" horiz-adv-x="250" 
d="M193 700h176l-268 -812h-178l20 55h104l228 702h-102z" />
    <glyph glyph-name="asciicircum" unicode="^" horiz-adv-x="600" 
d="M388 328q-28 0 -48.5 41.5t-47.5 125.5l-14 42q-59 -108 -93 -157t-60 -49q-5 0 -11 3q-12 7 -16.5 13.5t-3.5 19.5q3 21 48 106.5t93.5 156.5t69.5 71q35 0 64 -67.5t47 -151.5t18 -116q0 -16 -7.5 -23t-22.5 -12q-7 -3 -16 -3z" />
    <glyph glyph-name="underscore" unicode="_" horiz-adv-x="465" 
d="M33 -81q-47 7 -47 26q0 5 3 11q9 20 25.5 28.5t63.5 12t155 3.5q74 0 114 -2.5t57 -9t17 -18.5q0 -7 -4 -14q-9 -18 -31 -27.5t-66 -13t-127 -3.5q-113 0 -160 7z" />
    <glyph glyph-name="grave" unicode="`" horiz-adv-x="320" 
d="M220 583.5q-53 17.5 -97 37.5t-43 29q2 10 14 27t28 29.5t28 12.5q16 0 54.5 -27t72 -59t33.5 -42q0 -8 -6.5 -16.5t-17.5 -8.5q-13 0 -66 17.5z" />
    <glyph glyph-name="a" unicode="a" horiz-adv-x="514" 
d="M29.5 41q-26.5 41 -26.5 110q0 75 30 156.5t88.5 137t139.5 55.5q34 0 51 -7.5t29 -19.5q13 -11 22 -11q10 0 17.5 4t17.5 12q13 11 24 16.5t28 5.5q35 0 35 -37q0 -16 -6 -32t-18 -40q-3 -8 -11 -24.5t-13 -30.5q-20 -41 -20 -71q0 -42 41 -42q47 0 79 51q6 9 16 9
q13 0 23.5 -12t5.5 -22l-24 -48q-31 -64 -55 -103.5t-58 -68.5t-78 -29q-43 0 -66 30.5t-23 80.5q0 17 3 35h-4q-32 -65 -76.5 -105.5t-94.5 -40.5t-76.5 41zM251 221.5q20 14.5 31 36.5t11 43q0 25 -14 39t-38 14q-37 0 -61 -29t-24 -64q0 -25 13.5 -39.5t36.5 -14.5
q25 0 45 14.5z" />
    <glyph glyph-name="b" unicode="b" horiz-adv-x="456" 
d="M494 281q14 0 25 -10t5 -22q-27 -56 -68 -94.5t-105 -42.5q-38 -52 -86 -82t-96 -30q-72 0 -118 49t-46 127q0 46 18 98q4 10 10 30l66 187q45 122 78 175t74 53q40 0 40 -36q0 -23 -16 -58q-9 -21 -11 -26q-41 -90 -52 -133l-1 -4q0 -4 3 -7t8 -3q9 0 17 8
q20 20 41.5 30t40.5 10q109 0 109 -142q0 -65 -21 -131q42 6 70 47q4 7 15 7zM168.5 222q12.5 -15 39.5 -15q24 0 43.5 14.5t30.5 36.5t11 43q0 23 -13.5 38t-41.5 15q-35 0 -58.5 -29t-23.5 -64q0 -24 12.5 -39z" />
    <glyph glyph-name="c" unicode="c" horiz-adv-x="420" 
d="M47 55.5q-44 55.5 -44 139.5q0 72 31.5 143t89.5 116.5t133 45.5q68 0 103 -35t35 -88q0 -40 -15.5 -67t-39 -40t-47.5 -13t-38 8.5t-14 19.5q0 7 7 16t11.5 17t4.5 24q0 15 -10 25t-31 10q-32 0 -51.5 -28.5t-19.5 -68.5q0 -50 32.5 -77t82.5 -27q47 0 95 25t81 73
q6 9 16 9q14 0 24.5 -12t4.5 -22q-66 -122 -145 -185.5t-167 -63.5q-85 0 -129 55.5z" />
    <glyph glyph-name="d" unicode="d" horiz-adv-x="514" 
d="M31.5 39q-28.5 39 -28.5 103q0 79 30 162.5t88.5 139.5t139.5 56q34 0 51 -9t29 -25q12 -14 22 -14q6 0 9.5 9t10.5 33q16 60 39 116q26 63 52 86t53 23q17 0 26.5 -11t9.5 -31q0 -23 -13 -52l-113 -289q-20 -41 -20 -71q0 -42 41 -42q47 0 79 51q6 9 16 9q13 0 23.5 -12
t5.5 -22l-24 -48q-31 -64 -55 -103.5t-58 -68.5t-78 -29q-41 0 -64.5 32t-23.5 83q0 9 2 31h-4q-33 -65 -75 -105.5t-85 -40.5q-57 0 -85.5 39zM251.5 221.5q19.5 14.5 30.5 36.5t11 43q0 23 -13.5 38t-41.5 15q-35 0 -58.5 -29t-23.5 -64q0 -24 12.5 -39t39.5 -15
q24 0 43.5 14.5z" />
    <glyph glyph-name="e" unicode="e" horiz-adv-x="430" 
d="M59 55.5q-44 55.5 -44 139.5q0 72 32 143t92 116.5t138 45.5q66 0 100 -36t34 -90q0 -37 -20.5 -73t-57 -59t-83.5 -23q-50 0 -78 16q-4 2 -6 2q-5 0 -8 -3.5t-3 -10.5q0 -25 29.5 -39t74.5 -14q54 0 108 27t86 77q6 9 16 9q14 0 24.5 -12t4.5 -22q-66 -123 -144.5 -186
t-165.5 -63q-85 0 -129 55.5zM268.5 311.5q17.5 17.5 17.5 38.5q0 18 -12 29.5t-34 11.5q-28 0 -45.5 -17t-17.5 -39q0 -18 12 -29.5t35 -11.5q27 0 44.5 17.5z" />
    <glyph glyph-name="f" unicode="f" horiz-adv-x="259" 
d="M423.5 740.5q23.5 -24.5 23.5 -63.5q0 -29 -12 -57.5t-31.5 -47t-40.5 -18.5t-21 15q0 48 -37 48q-58 0 -96 -118h105q7 0 11 -7.5t4 -20.5q0 -23 -11.5 -43.5t-28.5 -20.5q-7 1 -34.5 3.5t-68.5 5.5q-18 -85 -32 -205q-2 -13 -4 -43q-5 -56 -11.5 -89.5t-27 -56
t-59.5 -22.5q-36 0 -51.5 18t-15.5 56q0 32 9.5 79.5t28.5 120.5q22 80 45 149h-14q-30 0 -43.5 9.5t-13.5 24.5t11 28.5t21 13.5h67q51 127 113.5 196.5t141.5 69.5q49 0 72.5 -24.5z" />
    <glyph glyph-name="g" unicode="g" horiz-adv-x="505" 
d="M543 281q14 0 25 -10t5 -22l-20 -42q-32 -70 -55 -111t-54.5 -68.5t-71.5 -27.5q-22 0 -35 22q-48 -152 -107 -217.5t-145 -65.5q-79 0 -122.5 41t-43.5 114q0 46 16.5 78.5t36 46t20.5 1.5q4 -38 33.5 -60.5t79.5 -23.5q44 0 84.5 28.5t65 72t24.5 87.5q0 12 -9 12
q-10 0 -18 -15q-20 -51 -58 -81.5t-77 -30.5q-51 0 -82.5 38t-31.5 95q0 79 30 162.5t88.5 139.5t139.5 56q34 0 51 -7.5t29 -19.5q13 -11 22 -11q10 0 17.5 4t17.5 12q13 11 24 16.5t28 5.5q35 0 35 -37q0 -13 -6 -28.5t-20 -43.5q-34 -71 -55 -133q-5 -22 -5 -33
q0 -20 9 -29t23 -9q37 0 97 87q4 7 15 7zM251.5 221.5q19.5 14.5 30.5 36.5t11 43q0 23 -13.5 38t-41.5 15q-35 0 -58.5 -29t-23.5 -64q0 -24 12.5 -39t39.5 -15q24 0 43.5 14.5z" />
    <glyph glyph-name="h" unicode="h" horiz-adv-x="501" 
d="M-10 103q0 74 34 171l22 64q53 154 81.5 226.5t58.5 113.5t66 41q40 0 40 -36q0 -23 -16 -58q-6 -14 -30 -62q-35 -65 -43 -97q-4 -18 -4 -22q0 -7 2.5 -10.5t6.5 -3.5q9 0 22 13q59 57 121 57q44 0 67 -26t23 -66q0 -18 -4 -32.5t-12 -37.5q-8 -20 -12 -34t-4 -31
q0 -26 11 -38t35 -12q21 0 36.5 12.5t32.5 38.5q6 9 16 9q14 0 24.5 -12t4.5 -22l-19 -37q-28 -58 -54.5 -101t-68 -77t-93.5 -34q-46 0 -67 29t-21 75q0 29 7.5 55.5t21.5 63.5q18 47 18 65q0 17 -10 26t-28 9q-28 0 -53 -24.5t-40 -64t-15 -83.5v-45q0 -106 -79 -106
q-78 0 -78 103z" />
    <glyph glyph-name="i" unicode="i" horiz-adv-x="246" 
d="M137 558q-24 17 -24 54q0 92 100 92q94 0 87 -81q-8 -82 -99 -82q-40 0 -64 17zM20 34q-22 34 -22 91q0 69 25 149q37 116 70 171t74 55q34 0 34 -45q0 -21 -6 -43t-18 -53q-2 -5 -8 -24t-9.5 -34t-3.5 -27q0 -24 12 -37t33 -13t36.5 12.5t32.5 37.5q6 9 16 9
q13 0 23.5 -11.5t5.5 -21.5q-9 -15 -21 -42q-28 -58 -53 -100t-64 -75t-87 -33t-70 34z" />
    <glyph glyph-name="j" unicode="j" horiz-adv-x="254" 
d="M137 558q-24 17 -24 54q0 92 100 92q94 0 87 -81q-8 -82 -99 -82q-40 0 -64 17zM291 281q14 0 25.5 -10t5.5 -22l-20 -42q-32 -70 -55 -111t-54.5 -68.5t-71.5 -27.5q-22 0 -35 22q-32 -104 -67 -165.5t-78 -89.5t-99 -28q-79 0 -122.5 36t-43.5 100q0 45 14 76.5t31 45
t18 3.5q3 -29 25 -46.5t59 -17.5q47 0 73.5 22t45.5 68t53 157l29 91q36 114 72 170t78 56q22 0 33.5 -10.5t11.5 -33.5q0 -18 -6.5 -37.5t-22.5 -59.5q-5 -13 -16 -41.5t-20 -55.5q-6 -21 -6 -36q0 -20 9 -29.5t23 -9.5q23 0 46.5 22.5t50.5 64.5q4 7 14 7z" />
    <glyph glyph-name="k" unicode="k" horiz-adv-x="501" 
d="M-10 103q0 74 34 171l22 64q53 154 81.5 226.5t58.5 113.5t66 41q40 0 40 -36q0 -23 -16 -58q-16 -36 -25 -54q-33 -71 -51.5 -117.5t-28.5 -96.5q-2 -12 5 -19t18 -7q10 0 19 5.5t13 14.5q33 74 70.5 111.5t88.5 37.5q43 0 65.5 -22.5t22.5 -55.5q0 -102 -124 -102
q-24 -1 -36 -13.5t-12 -31.5q0 -25 24 -38.5t66 -13.5q100 0 133 51q8 14 21 14q10 0 18 -9.5t8 -20.5q0 -6 -2 -9q-5 -8 -9 -16.5t-8 -15.5q-44 -91 -97 -154t-131 -63q-50 0 -75 45t-40 152q-2 17 -10.5 26t-19.5 9q-13 0 -22.5 -13.5t-9.5 -36.5v-76q0 -106 -79 -106
q-78 0 -78 103z" />
    <glyph glyph-name="l" unicode="l" horiz-adv-x="252" 
d="M-10 103q0 74 34 171l22 64q53 154 81.5 226.5t58.5 113.5t66 41q41 0 41 -37q0 -24 -17 -57q-86 -173 -117 -287q-12 -41 -12 -66q0 -23 10.5 -36t36.5 -13q48 0 81 51q6 9 16 9q14 0 24.5 -12t4.5 -22l-19 -37q-28 -58 -54.5 -101t-68 -77t-93.5 -34q-95 0 -95 103z
" />
    <glyph glyph-name="m" unicode="m" horiz-adv-x="762" 
d="M9.5 20.5q-19.5 20.5 -19.5 52.5q0 104 33 201q36 108 65.5 167t56.5 59q16 0 23.5 -10.5t7.5 -27.5q0 -16 6.5 -26t16.5 -10q14 0 31 17q59 57 121 57q35 0 57 -17t30 -46q3 -11 9 -11t16 11q59 65 129 65q55 0 81 -25.5t26 -66.5q0 -18 -4 -32.5t-12 -37.5
q-8 -20 -12 -34t-4 -31q0 -26 12 -39t37 -13q21 0 36.5 13t32.5 38q6 9 16 9q14 0 24.5 -12t4.5 -22l-19 -37q-28 -58 -54.5 -101t-68 -77t-93.5 -34q-45 0 -65.5 29.5t-20.5 76.5q0 29 7 56.5t19 62.5q2 6 9 28.5t7 36.5q0 17 -10 26t-28 9q-28 0 -53 -23.5t-40 -60.5
t-15 -74q0 -14 4 -34q0 -4 1.5 -13.5t1.5 -20.5q0 -40 -19.5 -68.5t-69.5 -28.5q-80 0 -80 87q0 28 7.5 54.5t21.5 62.5q11 29 16 46t5 32q0 39 -38 39q-28 0 -53 -24.5t-40 -64t-15 -83.5v-45q0 -47 -18 -76.5t-66 -29.5q-34 0 -53.5 20.5z" />
    <glyph glyph-name="n" unicode="n" horiz-adv-x="501" 
d="M9.5 20.5q-19.5 20.5 -19.5 52.5q0 83 33 201q26 94 60 160t60 66q33 0 33 -38q0 -37 20 -37q14 0 32 18q59 57 121 57q44 0 67 -26t23 -66q0 -18 -4 -32.5t-12 -37.5q-8 -20 -12 -34t-4 -31q0 -26 11.5 -38t36.5 -12q21 0 36.5 12.5t32.5 38.5q6 9 16 9q14 0 24.5 -12
t4.5 -22l-19 -37q-28 -58 -54.5 -101t-68 -77t-93.5 -34q-44 0 -64.5 29t-20.5 75q0 29 7 56.5t19 62.5q2 6 9 28.5t7 36.5q0 17 -10 26t-28 9q-28 0 -53 -24.5t-40 -64t-15 -83.5v-45q0 -106 -82 -106q-34 0 -53.5 20.5z" />
    <glyph glyph-name="o" unicode="o" horiz-adv-x="476" 
d="M514 281q14 0 25 -10t5 -22q-28 -59 -69 -98t-106 -39h-12q-38 -52 -89.5 -82t-106.5 -30q-69 0 -112 45.5t-43 122.5q0 76 36.5 153.5t99.5 128t139 50.5q66 0 106 -41.5t40 -130.5q0 -53 -15 -103h7q46 0 80 49q4 7 15 7zM261.5 221.5q19.5 14.5 30.5 36.5t11 43
q0 23 -13.5 38t-41.5 15q-35 0 -58.5 -29t-23.5 -64q0 -24 12.5 -39t39.5 -15q24 0 43.5 14.5z" />
    <glyph glyph-name="p" unicode="p" horiz-adv-x="488" 
d="M526 281q14 0 25 -10t5 -22q-28 -59 -69 -98t-106 -39h-6q-36 -52 -82.5 -82t-93.5 -30q-40 0 -65 21t-25 64q0 17 2 27v4q0 7 -3 10.5t-8 3.5q-12 0 -17 -18l-7 -37q-19 -93 -33 -146.5t-36 -91t-52 -37.5q-70 0 -70 69q0 33 15.5 79.5t52.5 139.5l29 73l41 113l7 20
q34 100 49 137.5t30 53t40 15.5q46 0 40 -34q-1 -7 2.5 -11t10.5 -4q10 0 19 9q24 23 47.5 31.5t50.5 8.5q60 0 95.5 -41t35.5 -111q0 -61 -19 -123q46 0 80 49q4 7 15 7zM261.5 221.5q19.5 14.5 30.5 36.5t11 43q0 23 -13.5 38t-41.5 15q-35 0 -58.5 -29t-23.5 -64
q0 -24 12.5 -39t39.5 -15q24 0 43.5 14.5z" />
    <glyph glyph-name="q" unicode="q" horiz-adv-x="461" 
d="M184 -182.5q-17 18.5 -17 52.5q0 15 5 38q7 30 20 54t36 62q22 34 32.5 56t10.5 44q0 12 -6 12q-7 0 -13 -15q-23 -57 -57 -89t-78 -32q-51 0 -82.5 40.5t-31.5 101.5q0 79 30 162.5t88.5 139.5t139.5 56q34 0 51 -7.5t29 -19.5q13 -11 22 -11q10 0 17.5 4t17.5 12
q13 11 24 16.5t28 5.5q35 0 35 -37q0 -13 -6 -28.5t-20 -43.5q-26 -54 -46.5 -107.5t-40.5 -134.5l-31 -128l-35 -143q-9 -39 -31 -59t-48 -20t-43 18.5zM251.5 221.5q19.5 14.5 30.5 36.5t11 43q0 23 -13.5 38t-41.5 15q-35 0 -58.5 -29t-23.5 -64q0 -24 12.5 -39t39.5 -15
q24 0 43.5 14.5z" />
    <glyph glyph-name="r" unicode="r" horiz-adv-x="395" 
d="M434 283q14 0 24.5 -12t4.5 -22l-19 -37q-28 -58 -54.5 -101t-68 -77t-93.5 -34q-57 0 -83.5 30.5t-26.5 74.5q0 36 11.5 71.5t32.5 82.5q14 32 20 50t6 31q0 10 -13 25t-40 25q-18 -39 -67 -141q-4 -10 -16 -10q-11 0 -21.5 8.5t-10.5 18.5q0 5 3 8q27 38 61 131
q-16 6 -24.5 18.5t-8.5 37.5q0 33 25.5 61.5t63.5 28.5q45 0 89.5 -18t72.5 -45.5t28 -54.5q0 -19 -5.5 -36t-15.5 -41q-11 -26 -16.5 -44.5t-5.5 -39.5q0 -22 15 -35.5t47 -13.5q21 0 36.5 12.5t32.5 38.5q6 9 16 9z" />
    <glyph glyph-name="s" unicode="s" horiz-adv-x="387" 
d="M427 283q13 0 23.5 -12t5.5 -22q-29 -61 -60 -109.5t-91.5 -93.5t-144.5 -45t-125.5 46.5t-41.5 115.5q0 60 30 111l4 6q14 19 50 74q37 56 62.5 90t55 57.5t60.5 23.5q44 0 68 -21t23 -47q0 -10 -8.5 -17t-24.5 -16q-19 -10 -29 -19t-10 -23q0 -9 21 -51q35 -67 45 -110
q21 1 37.5 14.5t33.5 38.5q6 9 16 9zM174.5 227.5q18.5 20.5 18.5 52.5q0 34 -22 76q-4 10 -11 10q-6 0 -13 -10q-34 -50 -79 -107q0 -18 15.5 -30t40.5 -12q32 0 50.5 20.5z" />
    <glyph glyph-name="t" unicode="t" horiz-adv-x="284" 
d="M19 34.5q-27 34.5 -27 92.5q0 55 22 117q13 40 44 123l20 55q-25 0 -37.5 16t-12.5 36q0 11 3.5 18t10.5 7q40 0 66 22t38 54q17 40 33.5 53.5t37.5 13.5q36 0 36 -35q0 -25 -17 -59q-12 -24 -12 -37q0 -12 13 -12h52q7 0 11 -7.5t4 -20.5q0 -23 -11.5 -43.5t-28.5 -20.5
q-51 0 -70.5 -3.5t-28.5 -16.5t-19 -49q-7 -26 -7 -41q0 -34 20.5 -53.5t55.5 -19.5q29 0 53 13t39 37q5 8 16 8q13 0 23.5 -11.5t5.5 -21.5l-11 -22q-28 -58 -57.5 -104.5t-76.5 -84.5t-106 -38q-55 0 -82 34.5z" />
    <glyph glyph-name="u" unicode="u" 
d="M539 283q14 0 24.5 -12t4.5 -22l-19 -37q-28 -58 -54.5 -101t-68 -77t-93.5 -34q-86 0 -86 109q0 19 3 41q-30 -65 -69 -107t-92 -42q-42 0 -65 29.5t-23 89.5q0 83 22 154q36 113 71.5 169.5t76.5 56.5q31 0 31 -40q0 -22 -5.5 -43t-17.5 -57q-12 -34 -17 -53t-5 -38
q0 -23 9 -34t33 -11q60 0 84 70l1 4q32 102 64 152t69 50q31 0 31 -40q0 -19 -5.5 -39.5t-17.5 -56.5q-11 -31 -16.5 -50.5t-5.5 -35.5q0 -27 14.5 -41t36.5 -14q21 0 36.5 13t32.5 38q6 9 16 9z" />
    <glyph glyph-name="v" unicode="v" horiz-adv-x="446" 
d="M484 281q14 0 25 -10t5 -22q-28 -59 -69 -98t-106 -39q-26 0 -47 15q-88 -126 -170 -126q-56 0 -84.5 49.5t-28.5 124.5q0 51 12 99q21 88 58.5 157t75.5 69q31 0 31 -40q0 -19 -5.5 -39t-16.5 -54q-12 -38 -17.5 -58t-5.5 -40q0 -29 14.5 -45.5t44.5 -16.5q47 0 73 39
q-11 49 -11 93q0 71 25.5 117t74.5 46q29 0 43.5 -17.5t14.5 -50.5q0 -74 -67 -203q15 -6 36 -6q46 0 80 49q4 7 15 7z" />
    <glyph glyph-name="w" unicode="w" horiz-adv-x="676" 
d="M714 281q14 0 25 -10t5 -22q-28 -59 -69 -98t-106 -39q-16 0 -31 6q-86 -117 -164 -117q-32 0 -53 29.5t-21 100.5q0 11 2 45q-37 -93 -84.5 -134t-95.5 -41q-56 0 -84.5 49.5t-28.5 124.5q0 51 12 99q21 88 58.5 157t75.5 69q31 0 31 -40q0 -19 -5.5 -39t-16.5 -54
q-12 -38 -17.5 -58t-5.5 -40q0 -29 14 -45.5t40 -16.5q34 0 54.5 24t29.5 61q4 18 5 36.5t1 23.5q0 43 9 74q13 43 33.5 58.5t56.5 15.5q63 0 63 -68q0 -16 -7 -35t-20 -45q-14 -32 -20.5 -49.5t-6.5 -33.5q0 -29 14 -45.5t40 -16.5q48 0 80 42q-10 50 -10 90q0 71 25.5 117
t74.5 46q53 0 53 -67q0 -37 -17.5 -91t-50.5 -118q6 -1 17 -1q46 0 80 49q4 7 15 7z" />
    <glyph glyph-name="x" unicode="x" horiz-adv-x="512" 
d="M585 258l-5 -9q-33 -57 -65.5 -104.5t-85.5 -96t-107 -48.5q-44 0 -63.5 36t-21.5 103q-24 -59 -61.5 -99t-87.5 -40q-34 0 -51.5 21.5t-17.5 53.5q0 30 14 59.5t39.5 49t58.5 19.5q40 0 59.5 29.5t19.5 67.5q0 26 -10.5 42.5t-31.5 16.5q-30 0 -51 -28t-49 -82l-45 25
q14 20 27 49.5t16 35.5q30 69 56.5 105t67.5 36q40 0 63.5 -36.5t25.5 -90.5q21 55 60 91t87 36q36 0 54 -20.5t18 -53.5q0 -34 -15.5 -65.5t-36.5 -31.5q-5 0 -11.5 8.5t-14 14t-20.5 5.5q-26 0 -43 -23t-17 -53q0 -36 26 -57t62 -21t61 19.5t46 51.5q7 10 10.5 12.5t6 2
t4.5 -0.5q10 0 18 -11t8 -19q0 -5 3 0z" />
    <glyph glyph-name="y" unicode="y" horiz-adv-x="497" 
d="M535 281q14 0 25 -10t5 -22l-20 -42q-32 -70 -55 -111t-54.5 -68.5t-71.5 -27.5q-22 0 -35 22q-32 -104 -67 -165.5t-78 -89.5t-99 -28q-79 0 -122.5 41t-43.5 114q0 46 16.5 78.5t36 46t20.5 1.5q4 -38 30.5 -61t70.5 -23t82.5 24.5t63.5 65.5t30 90v3q0 7 -3 11.5
t-8 4.5q-10 0 -17 -17q-21 -51 -57 -79.5t-84 -28.5q-43 0 -71 28t-28 82q0 83 22 154q36 113 71.5 169.5t76.5 56.5q31 0 31 -40q0 -22 -5.5 -43t-17.5 -57q-12 -34 -17 -53t-5 -38q0 -23 9 -34t33 -11q32 0 52 18.5t33 55.5q32 102 64 152t69 50q22 0 33.5 -10.5
t11.5 -33.5q0 -18 -6.5 -37.5t-22.5 -59.5q-5 -13 -16 -41.5t-20 -55.5q-6 -21 -6 -36q0 -20 9 -29.5t23 -9.5q37 0 97 87q4 7 15 7z" />
    <glyph glyph-name="z" unicode="z" horiz-adv-x="450" 
d="M9 38q0 43 27 81.5t63 68t90 66.5q43 30 63 47.5t20 30.5q0 28 -47 28q-48 0 -85.5 -27.5t-71.5 -83.5l-45 25q26 43 44 90.5t33 115.5q5 19 12.5 27.5t20.5 8.5q15 0 21 -5t12 -15q3 -8 7.5 -12t13.5 -4q11 0 27 7q16 6 29 9.5t33 3.5q22 0 41.5 -3t23.5 -4q32 -6 49 -6
q32 0 64 13q2 1 5 1q7 0 11.5 -5.5t2.5 -12.5q-8 -53 -35.5 -93.5t-59.5 -66.5t-75 -54q-29 -19 -41.5 -29.5t-12.5 -19.5q0 -12 17.5 -18.5t53.5 -6.5q46 0 87.5 22t65.5 57q14 22 30 22q8 0 14 -8t6 -19q0 -8 -5 -20q-31 -61 -61.5 -110t-85 -94t-124.5 -45q-34 0 -51 8
t-33 23q-11 10 -19 14.5t-22 4.5q-24 0 -35.5 -7.5t-23.5 -22.5q-8 -11 -15 -16.5t-20 -5.5q-19 0 -19 40z" />
    <glyph glyph-name="braceleft" unicode="{" horiz-adv-x="330" 
d="M283.5 664q42.5 41 114.5 41q20 0 50 -5l-16 -70q-16 4 -33 4q-40 0 -62 -24t-22 -58q0 -11 1 -18.5t2 -13.5q4 -26 4 -41q0 -66 -38 -116.5t-101 -68.5q32 -10 47.5 -33t15.5 -55q0 -33 -13 -60t-37 -63q-20 -30 -29.5 -49t-9.5 -40q0 -20 13 -36t38 -16q14 0 30 6
l-16 -60q-25 -5 -41 -5q-48 0 -76 26t-28 62q0 30 11 52.5t33 49.5q24 32 36 57.5t12 61.5q0 27 -21 43.5t-69 16.5l25 86q65 0 104.5 39.5t39.5 98.5q0 14 -4 38q0 5 -1.5 16t-1.5 20q0 73 42.5 114z" />
    <glyph glyph-name="bar" unicode="|" horiz-adv-x="259" 
d="M26 -106q-6 6 -6 17q0 9 5 22l246 785q5 18 17 27t25 9q11 0 18.5 -7t7.5 -19q0 -6 -1 -10l-247 -788q-14 -42 -49 -42q-10 0 -16 6z" />
    <glyph glyph-name="braceright" unicode="}" horiz-adv-x="310" 
d="M247 351.5q21 -16.5 69 -16.5l-25 -86q-65 0 -104.5 -39.5t-39.5 -98.5q0 -14 4 -38q0 -5 1.5 -16t1.5 -20q0 -73 -42.5 -114t-114.5 -41q-20 0 -50 5l16 70q16 -4 33 -4q40 0 62 24t22 58q0 11 -1 18.5t-2 13.5q-4 26 -4 41q0 66 38 116.5t101 68.5q-32 10 -47.5 33
t-15.5 55q0 33 13 60t37 63q20 30 29.5 49t9.5 40q0 20 -13 36t-38 16q-13 0 -30 -6l16 60q25 5 41 5q48 0 76 -26t28 -62q0 -30 -11 -52.5t-33 -49.5q-24 -32 -36 -57.5t-12 -61.5q0 -27 21 -43.5z" />
    <glyph glyph-name="asciitilde" unicode="~" horiz-adv-x="470" 
d="M288.5 257q-19.5 7 -50.5 22q-20 11 -34.5 16.5t-28.5 5.5q-19 0 -30 -7t-23 -20q-6 -6 -12 -10.5t-12 -4.5q-20 0 -20 27q0 25 17.5 60t48 60t65.5 25q24 0 49.5 -8.5t67.5 -26.5q20 -9 39 -16t30 -7q13 0 21 6.5t18 19.5q11 13 18 18.5t18 5.5q16 0 16 -23
q0 -26 -19.5 -62t-54.5 -62t-78 -26q-26 0 -45.5 7z" />
    <glyph glyph-name="uni00A0" unicode="&#xa0;" horiz-adv-x="360" 
 />
    <glyph glyph-name="exclamdown" unicode="&#xa1;" horiz-adv-x="292" 
d="M322.5 541.5q24.5 -24.5 24.5 -59.5q0 -34 -24.5 -59t-59.5 -25q-34 0 -59 25t-25 59q0 35 25 59.5t59 24.5q35 0 59.5 -24.5zM228 278q0 -83 -25.5 -197.5t-65.5 -197t-84 -82.5q-29 0 -44 16.5t-15 48.5q0 54 41 164.5t91 201.5t73 91q29 0 29 -45z" />
    <glyph glyph-name="cent" unicode="&#xa2;" horiz-adv-x="440" 
d="M412 296q14 0 23 -11t9 -28t-11 -37q-62 -109 -177 -109q-36 0 -67 11q-14 -59 -29.5 -90.5t-27.5 -31.5q-21 0 -21 21q0 12 14.5 44t40.5 68q-41 25 -62 70.5t-21 102.5q0 72 31.5 143t89.5 116.5t133 45.5q10 0 28 -2q13 44 26 67.5t23 23.5q21 0 21 -21q0 -9 -8.5 -31
t-24.5 -48q36 -14 54.5 -44t18.5 -68q0 -40 -15.5 -67t-39 -40t-47.5 -13t-38 8.5t-14 19.5q0 7 7 16t11.5 17t4.5 24q0 15 -10 25t-31 10q-32 0 -51.5 -28.5t-19.5 -68.5q0 -50 33 -77.5t83 -27.5q24 0 53 8q8 2 11 2z" />
    <glyph glyph-name="sterling" unicode="&#xa3;" 
d="M408.5 466q-10.5 8 -10.5 19q0 4 4 14q16 29 16 53q0 19 -12.5 28t-31.5 9q-41 0 -65 -52.5t-25 -149.5h202v-50h-206q-10 -44 -39 -77t-64 -51q-5 -3 -5 -9q0 -4 4 -7t11 -3h76q80 0 119 9.5t55 34.5q10 16 24 16q10 0 16.5 -8t6.5 -20q0 -3 -2 -13q-28 -93 -62.5 -151
t-69.5 -58q-42 0 -72 6t-63 17q-18 5 -37 9.5t-36 4.5q-19 0 -34 -5t-35 -15q-32 -17 -55 -17q-36 0 -56 26t-20 62q0 38 22.5 65.5t64.5 27.5q32 0 53 25.5t21 68.5q0 32 3 62h-104v50h110q17 102 63 186t111 132.5t139 48.5q71 0 115 -41.5t44 -108.5q0 -48 -23 -81
t-57.5 -49t-68.5 -16q-16 0 -26.5 8z" />
    <glyph glyph-name="currency" unicode="&#xa4;" horiz-adv-x="530" 
d="M497 164q0 -12 -14 -18q-11 -5 -35.5 19t-58.5 76q-22 -21 -50.5 -33t-60.5 -12q-59 0 -104 39q-34 -46 -59.5 -68.5t-35.5 -17.5q-13 6 -13 18q0 3 2 9q5 13 27.5 35.5t57.5 45.5q-34 44 -34 98q0 61 42 108q-35 24 -57.5 47t-27.5 36q-2 6 -2 9q0 12 13 18
q11 5 36 -18.5t59 -72.5q43 32 96 32q59 0 103 -38q33 52 58 77.5t37 21.5q15 -4 15 -17q0 -3 -2 -9q-6 -13 -29.5 -38.5t-60.5 -52.5q38 -44 38 -103q0 -51 -30 -94q36 -26 59 -50.5t29 -37.5q2 -6 2 -9zM354.5 284.5q31.5 29.5 31.5 70.5t-31.5 70.5t-76.5 29.5
t-76.5 -29.5t-31.5 -70.5t31.5 -70.5t76.5 -29.5t76.5 29.5z" />
    <glyph glyph-name="yen" unicode="&#xa5;" horiz-adv-x="460" 
d="M529 746q26 0 45.5 -16.5t19.5 -39.5q0 -17 -14 -34l-105 -124l-66 -77q45 -4 63.5 -12.5t18.5 -26.5q0 -9 -4 -20q-12 -34 -48.5 -46.5t-120.5 -14.5l-9 -26q76 -2 105.5 -11t29.5 -31q0 -5 -4 -19q-12 -33 -46.5 -45.5t-111.5 -14.5q-13 -70 -22.5 -105.5t-31 -59
t-59.5 -23.5q-43 0 -43 53q0 43 29 135q-59 2 -87 12t-28 32q0 7 3 16q8 24 20 35.5t41.5 17.5t91.5 7l9 28q-61 2 -89.5 12t-28.5 32q0 7 3 16q7 19 15 29.5t25 17.5t49 10l-15 44q-40 116 -60 177q-3 8 -3 15q0 24 23 40t51 16q20 0 35 -9t21 -27q16 -48 24.5 -91
t22.5 -127q5 -21 16 -21t24 20l37 59q39 61 64 98t58 74q21 25 52 25z" />
    <glyph glyph-name="brokenbar" unicode="&#xa6;" horiz-adv-x="250" 
d="M271 718q5 18 17 27t25 9q11 0 18.5 -7t7.5 -19q0 -6 -1 -10l-93 -296h-67zM26 -106q-6 6 -6 17q0 9 5 22l98 314h67l-99 -317q-14 -42 -49 -42q-10 0 -16 6z" />
    <glyph glyph-name="section" unicode="&#xa7;" horiz-adv-x="520" 
d="M492 467q-15 0 -28 12t-6 23q10 13 10 38q0 22 -11.5 37.5t-35.5 15.5q-25 0 -41 -16.5t-14 -50.5q1 -23 14.5 -45.5t44.5 -61.5q38 -47 58 -83t20 -78q0 -37 -18 -68.5t-47.5 -50.5t-63.5 -22q32 -50 32 -108q0 -57 -29 -105t-80.5 -76t-117.5 -28q-64 0 -116 26t-85 77
t-38 123q-1 8 -1 22q0 62 22.5 102.5t55 58.5t62.5 18q19 0 30 -7t11 -19q0 -9 -10 -19q-8 -9 -13 -19.5t-5 -27.5q0 -43 23 -68t63 -25q27 0 44 16t17 42q0 23 -13.5 45.5t-41.5 57.5q-38 50 -58 86.5t-20 82.5q0 50 29 82t79 32q22 0 51 -8q-27 54 -27 107
q0 68 43.5 113.5t129.5 45.5q83 0 124.5 -43t41.5 -104q0 -40 -21 -74.5t-56 -53.5q-4 -2 -8 -2zM246.5 277.5q12.5 -21.5 35.5 -47.5q32 1 51.5 20.5t19.5 50.5q0 23 -11 47.5t-33 56.5q-33 -3 -54 -25t-21 -61q0 -20 12.5 -41.5z" />
    <glyph glyph-name="dieresis" unicode="&#xa8;" horiz-adv-x="451" 
d="M100.5 577q-20.5 14 -20.5 46q0 77 84 77q73 0 73 -58q0 -79 -83 -79q-33 0 -53.5 14zM304 577q-20 14 -20 45q0 78 84 78q73 0 73 -60q0 -41 -23 -59t-61 -18q-33 0 -53 14z" />
    <glyph glyph-name="copyright" unicode="&#xa9;" horiz-adv-x="655" 
d="M170 41q-64 41 -100.5 112t-36.5 157q0 12 2 40q10 95 61 175.5t128 127.5t163 47q79 0 143 -41t100 -111.5t36 -156.5q0 -13 -2 -41q-10 -95 -60.5 -175.5t-128 -127.5t-162.5 -47q-79 0 -143 41zM461.5 76.5q68.5 42.5 114 115t54.5 158.5q2 24 2 37q0 78 -32.5 141.5
t-89.5 100.5t-127 37q-76 0 -145 -42.5t-114.5 -115t-54.5 -158.5q-2 -24 -2 -37q0 -78 32.5 -141.5t89.5 -100.5t128 -37q76 0 144.5 42.5zM197 180.5q-39 50.5 -39 125.5q0 65 28.5 129.5t81.5 106t121 41.5q62 0 93.5 -32t31.5 -79q0 -55 -30 -82t-66 -27q-20 0 -32 7.5
t-12 17.5q0 6 6.5 14t10.5 16t4 22t-8.5 23t-26.5 9q-30 0 -48.5 -26t-18.5 -62q0 -46 29.5 -70.5t75.5 -24.5q25 0 49 7q3 1 9 1q13 0 21.5 -10t8.5 -26q0 -17 -10 -33q-32 -54 -73.5 -76t-91.5 -22q-75 0 -114 50.5z" />
    <glyph glyph-name="ordfeminine" unicode="&#xaa;" horiz-adv-x="340" 
d="M20.5 393.5q-17.5 27.5 -17.5 73.5q0 50 20 104t59 91t93 37q22 0 33 -4.5t20 -12.5t15 -8q11 0 24 11q8 7 15.5 10.5t18.5 3.5q23 0 23 -24q0 -11 -3.5 -21.5t-12.5 -27.5q-11 -22 -16 -36q-13 -29 -13 -47q0 -28 27 -28q33 0 53 34q5 6 11 6q9 0 16 -8t3 -15l-17 -33
q-31 -63 -58 -98t-68 -35q-28 0 -43.5 20.5t-15.5 53.5q0 15 3 33q-22 -48 -52.5 -77.5t-65.5 -29.5q-34 0 -51.5 27.5zM179.5 524q16.5 20 16.5 43q0 16 -9 25.5t-25 9.5q-25 0 -41 -19.5t-16 -42.5q0 -17 9 -26.5t24 -9.5q25 0 41.5 20zM175 499v-36h34v36h-34z" />
    <glyph glyph-name="guillemotleft" unicode="&#xab;" horiz-adv-x="640" 
d="M206 234l131 -226q3 -6 -9 -8.5t-31 -2.5q-35 0 -41 7l-178 201q-10 10 -10 26q0 13 8 26.5t23 24.5l231 200q11 8 30.5 12.5t39.5 4.5q21 0 32 -4.5t4 -12.5zM449 234l131 -226q3 -6 -9 -8.5t-31 -2.5q-35 0 -41 7l-178 201q-10 10 -10 26q0 13 8 26.5t23 24.5l231 200
q11 8 30.5 12.5t39.5 4.5q21 0 32 -4.5t4 -12.5z" />
    <glyph glyph-name="uni00AD" unicode="&#xad;" horiz-adv-x="403" 
d="M49 260q-41 8 -41 33q0 6 3 15q9 26 24 36.5t56 15t134 4.5q89 0 123.5 -8t34.5 -29q0 -10 -4 -19q-9 -24 -29.5 -35.5t-58.5 -16t-106 -4.5q-95 0 -136 8z" />
    <glyph glyph-name="registered" unicode="&#xae;" horiz-adv-x="314" 
d="M98 347q-34 22 -53.5 60t-19.5 84q0 55 26.5 103t70 77t92.5 29q42 0 76 -22t53.5 -59.5t19.5 -83.5q0 -55 -26.5 -103.5t-70 -77.5t-92.5 -29q-42 0 -76 22zM255 379.5q36 24.5 58 65.5t22 88q0 59 -35.5 98.5t-88.5 39.5q-41 0 -77.5 -24.5t-58.5 -65.5t-22 -88
q0 -59 35.5 -98.5t89.5 -39.5q41 0 77 24.5zM92 423q0 19 14 61q13 42 16 53l25 80q9 25 34 28q7 1 21 1q44 0 65 -18.5t21 -50.5q0 -27 -14 -46.5t-39 -26.5q-6 -1 -8.5 -2.5t-2.5 -3.5t4.5 -4.5t8.5 -10.5t9 -12t14 -4q7 0 10.5 -5t3.5 -13q0 -17 -14 -33.5t-37 -16.5
q-14 0 -24 10.5t-11 31.5q-1 5 -1.5 18.5t-4 22t-10.5 9.5l-13 -46q-13 -47 -43 -47q-24 0 -24 25zM219 534.5q12 12.5 12 29.5t-6.5 26t-24.5 7q-7 -22 -12.5 -42.5t-7.5 -28.5q3 -4 12 -4q15 0 27 12.5z" />
    <glyph glyph-name="macron" unicode="&#xaf;" horiz-adv-x="454" 
d="M120 615.5q-40 6.5 -40 27.5q0 6 3 12q9 20 23.5 29t54 12.5t129.5 3.5q88 0 121 -6t33 -24q0 -3 -4 -15q-8 -19 -28 -29t-57 -13.5t-103 -3.5q-92 0 -132 6.5z" />
    <glyph glyph-name="degree" unicode="&#xb0;" horiz-adv-x="370" 
d="M172 463q-36 21 -57 57t-21 78t21 78t57 57t78 21t78 -21t57 -57t21 -78t-21 -78t-57 -57t-78 -21t-78 21zM315 534q27 27 27 64t-27 64t-65 27t-65 -27t-27 -64t27 -64t65 -27t65 27z" />
    <glyph glyph-name="plusminus" unicode="&#xb1;" horiz-adv-x="439" 
d="M441 443q28 -6 28 -22q0 -7 -4 -14q-11 -24 -41.5 -32.5t-102.5 -10.5q-9 -30 -17.5 -52t-13.5 -27q-19 -19 -48 -19q-21 0 -37.5 10t-16.5 25q0 21 15 63q-62 2 -90 8.5t-28 22.5q0 6 3 12q8 17 19.5 25.5t41 13t91.5 5.5q46 91 81 91q25 0 25 -47q0 -23 -4 -44
q71 -2 99 -8zM379 225.5q35 -6.5 35 -25.5q0 -8 -4 -16q-9 -20 -29.5 -30t-59 -14t-109.5 -4q-99 0 -140.5 7t-41.5 28q0 6 3 13q10 22 24.5 31t56.5 13t136 4t129 -6.5z" />
    <glyph glyph-name="uni00B2" unicode="&#xb2;" horiz-adv-x="309" 
d="M139 257.5q-19 8.5 -46 24.5q-13 9 -21.5 13.5t-16.5 4.5t-13 -5t-5 -13q0 -12 -8 -21.5t-24 -9.5q-33 0 -33 39q0 29 18.5 64.5t65.5 62.5q93 55 132.5 90.5t39.5 71.5q0 19 -10 31t-30 12t-36.5 -11.5t-22.5 -28.5q-7 -23 -25 -23q-11 0 -18 8t-7 25q0 10 3 23
q14 60 54 96.5t98 36.5q55 0 87.5 -30.5t32.5 -83.5q0 -49 -27.5 -88t-64 -65t-90.5 -57q-42 -25 -54 -34q-6 -4 -6 -11q0 -4 2.5 -7t6.5 -3t8 4q31 31 67 31q21 0 40.5 -7.5t24.5 -7.5q14 0 27 21q5 6 12 6q6 0 10 -4.5t2 -11.5q-22 -81 -53 -116t-75 -35q-26 0 -45 8.5z
" />
    <glyph glyph-name="uni00B3" unicode="&#xb3;" horiz-adv-x="328" 
d="M56 282q-34 34 -34 82q0 41 22 72t54 31q19 0 19 -13q0 -4 -2.5 -12t-2.5 -17q0 -20 14 -32.5t38 -12.5q26 0 44 17t18 40q0 19 -12 30t-32 11q-14 0 -22 6.5t-8 17.5t8.5 18t21.5 7q34 0 55.5 16t21.5 41q0 20 -12 31t-33 11q-22 0 -38 -12t-23 -34q-4 -10 -10.5 -16.5
t-14.5 -6.5q-12 0 -18.5 10.5t-6.5 28.5q0 40 21 74.5t57 55t77 20.5q54 0 87 -29t33 -78q0 -44 -30 -78t-80 -45q-15 -3 -15 -12q0 -6 11 -10q29 -7 45.5 -32.5t16.5 -61.5q0 -68 -47 -110t-120 -42q-69 0 -103 34z" />
    <glyph glyph-name="acute" unicode="&#xb4;" horiz-adv-x="319" 
d="M86 568.5q-6 8.5 -6 17.5q0 10 33.5 42t71.5 59t54 27q12 0 28 -13t28.5 -30t13.5 -27q1 -9 -43.5 -29t-97 -37.5t-65.5 -17.5q-11 0 -17 8.5z" />
    <glyph glyph-name="paragraph" unicode="&#xb6;" horiz-adv-x="450" 
d="M569 746.5q6 -7.5 6 -18.5q0 -15 -9 -26.5t-24 -11.5h-43l-238 -760q-13 -42 -49 -42q-21 0 -21 23q0 6 4 22l237 757h-73l-238 -760q-13 -42 -49 -42q-10 0 -16 6t-6 17q0 5 2 11.5t3 10.5l117 373q-64 0 -96 38.5t-32 100.5q0 68 35 140.5t97 120.5t137 48h239
q11 0 17 -7.5z" />
    <glyph glyph-name="periodcentered" unicode="&#xb7;" horiz-adv-x="288" 
d="M115 320q-25 25 -25 59q0 35 25 59.5t59 24.5q35 0 59.5 -24.5t24.5 -59.5q0 -34 -24.5 -59t-59.5 -25q-34 0 -59 25z" />
    <glyph glyph-name="cedilla" unicode="&#xb8;" horiz-adv-x="333" 
d="M101.5 -203.5q-21.5 26.5 -21.5 62.5q0 21 6 33q6 14 19 14q8 0 8 -6q0 -16 15 -25.5t35 -9.5q21 0 37 10.5t16 28.5q0 10 -5.5 16t-16.5 6q-22 0 -39 -13q-5 -4 -11 -4q-7 0 -11.5 5t-4.5 13q0 12 10 23l102 120l44 -5l-75 -90l2 -5q18 7 41 7q30 0 50.5 -16.5
t20.5 -50.5q0 -35 -18 -67.5t-52.5 -52.5t-80.5 -20q-49 0 -70.5 26.5z" />
    <glyph glyph-name="uni00B9" unicode="&#xb9;" horiz-adv-x="190" 
d="M30 303q0 46 43 129q17 33 32.5 64.5t23.5 55.5q4 11 4 18q0 9 -5 12t-15 5q-9 1 -13 3t-4 8q0 15 29.5 52t67.5 66.5t64 29.5q23 0 23 -23q0 -14 -12 -40q-26 -53 -43.5 -102t-35.5 -107q-15 -54 -30 -122q-9 -44 -15.5 -63.5t-19 -29.5t-37.5 -10q-57 0 -57 54z" />
    <glyph glyph-name="ordmasculine" unicode="&#xba;" horiz-adv-x="235" 
d="M32.5 398.5q-28.5 30.5 -28.5 81.5t24 102.5t66 85t93 33.5q45 0 71.5 -27t26.5 -87q0 -57 -25 -107.5t-66 -81t-87 -30.5t-74.5 30.5zM185.5 526q16.5 20 16.5 43q0 15 -9.5 25t-27.5 10q-23 0 -38.5 -19.5t-15.5 -42.5q0 -16 8 -26t26 -10q24 0 40.5 20z" />
    <glyph glyph-name="guillemotright" unicode="&#xbb;" horiz-adv-x="640" 
d="M221 262l-131 226q-3 6 9 8.5t31 2.5q35 0 41 -7l178 -201q10 -10 10 -26q0 -13 -8 -26.5t-23 -24.5l-231 -200q-11 -8 -30.5 -12.5t-39.5 -4.5q-21 0 -32 4.5t-4 12.5zM464 262l-131 226q-3 6 9 8.5t31 2.5q35 0 41 -7l178 -201q10 -10 10 -26q0 -13 -8 -26.5t-23 -24.5
l-231 -200q-11 -8 -30.5 -12.5t-39.5 -4.5q-21 0 -32 4.5t-4 12.5z" />
    <glyph glyph-name="onequarter" unicode="&#xbc;" horiz-adv-x="770" 
d="M83 303q0 46 43 129q17 33 32.5 64.5t23.5 55.5q4 11 4 18q0 9 -5 12t-15 5q-9 1 -13 3t-4 8q0 15 29.5 52t67.5 66.5t64 29.5q23 0 23 -23q0 -14 -12 -40q-26 -53 -43.5 -102t-35.5 -107q-15 -54 -30 -122q-9 -44 -15.5 -63.5t-19 -29.5t-37.5 -10q-57 0 -57 54z
M611 729l-20 -34q-165 -271 -253.5 -414t-159.5 -242.5t-94 -99.5q-12 0 -19.5 9.5t-7.5 22.5q0 6 1 9q11 45 182 287.5t352 474.5zM737 239q6 0 9.5 -5.5t3.5 -16.5q0 -18 -7.5 -42t-27.5 -42.5t-53 -18.5h-12q-12 -48 -22.5 -71.5t-23.5 -33t-35 -9.5q-21 0 -31 8t-10 27
q0 33 29 101q-33 10 -58 10q-24 0 -43 -15q-12 -10 -22 -10q-15 0 -26 12t-11 29q0 20 16 37q57 61 83.5 97t26.5 67q0 9 -3.5 14.5t-10.5 5.5q-11 0 -16 -10q-14 4 -22 17t-8 31q0 33 23.5 59.5t67.5 26.5q40 0 62 -25t22 -63q0 -45 -34.5 -89t-101.5 -101q-5 -5 -5 -8
q0 -4 8 -4h89q46 101 69.5 147.5t41 69.5t34.5 23q12 0 12 -11q0 -9 -6.5 -27t-15.5 -39q-22 -52 -37 -97q-11 -34 -17 -62q38 5 46 11q9 7 16 7z" />
    <glyph glyph-name="onehalf" unicode="&#xbd;" horiz-adv-x="760" 
d="M93 303q0 46 43 129q17 33 32.5 64.5t23.5 55.5q4 11 4 18q0 9 -5 12t-15 5q-9 1 -13 3t-4 8q0 15 29.5 52t67.5 66.5t64 29.5q23 0 23 -23q0 -14 -12 -40q-26 -53 -43.5 -102t-35.5 -107q-15 -54 -30 -122q-9 -44 -15.5 -63.5t-19 -29.5t-37.5 -10q-57 0 -57 54z
M84.5 -51.5q-7.5 9.5 -7.5 21.5q0 7 1 10q10 45 180 285t354 477l19 -13l-20 -34q-165 -271 -253.5 -414t-159.5 -242.5t-94 -99.5q-12 0 -19.5 9.5zM522 6.5q-19 8.5 -46 24.5q-13 9 -21.5 13.5t-16.5 4.5t-13 -5t-5 -13q0 -12 -8 -21.5t-24 -9.5q-33 0 -33 39
q0 29 18.5 64.5t65.5 62.5q93 55 132.5 90.5t39.5 71.5q0 19 -10 31t-30 12t-37 -11.5t-22 -28.5q-7 -23 -25 -23q-11 0 -18 8t-7 25q0 10 3 23q15 60 55 96.5t97 36.5q55 0 87.5 -30.5t32.5 -83.5q0 -49 -27.5 -88t-64 -65t-90.5 -57q-42 -25 -54 -34q-6 -4 -6 -11
q0 -4 2.5 -7t6.5 -3t8 4q31 31 67 31q21 0 40.5 -7.5t24.5 -7.5q14 0 27 21q5 6 11 6q7 0 11 -4.5t2 -11.5q-20 -81 -52 -116t-76 -35q-26 0 -45 8.5z" />
    <glyph glyph-name="threequarters" unicode="&#xbe;" horiz-adv-x="844" 
d="M279 290q-47 -42 -120 -42q-69 0 -103 34t-34 82q0 41 22 72t54 31q19 0 19 -13q0 -4 -2.5 -12t-2.5 -17q0 -20 14 -32.5t38 -12.5q26 0 44 17t18 40q0 19 -12 30t-32 11q-14 0 -22 6.5t-8 17.5t8.5 18t21.5 7q34 0 55.5 16t21.5 41q0 20 -12 31t-33 11q-22 0 -38 -12
t-23 -34q-4 -10 -10.5 -16.5t-14.5 -6.5q-12 0 -18.5 10.5t-6.5 28.5q0 40 21 74.5t57 55t77 20.5q54 0 87 -29t33 -78q0 -44 -30 -78t-80 -45q-15 -3 -15 -12q0 -6 11 -10q29 -7 45.5 -32.5t16.5 -61.5q0 -68 -47 -110zM685 729l-20 -34q-165 -271 -253.5 -414
t-159.5 -242.5t-94 -99.5q-12 0 -19.5 9.5t-7.5 22.5q0 6 1 9q11 45 182 287.5t352 474.5zM811 239q6 0 9.5 -5.5t3.5 -16.5q0 -18 -7.5 -42t-27.5 -42.5t-53 -18.5h-12q-12 -48 -22.5 -71.5t-23.5 -33t-35 -9.5q-21 0 -31 8t-10 27q0 33 29 101q-33 10 -58 10
q-24 0 -43 -15q-12 -10 -22 -10q-15 0 -26 12t-11 29q0 20 16 37q57 61 83.5 97t26.5 67q0 9 -3.5 14.5t-10.5 5.5q-11 0 -16 -10q-14 4 -22 17t-8 31q0 33 23.5 59.5t67.5 26.5q40 0 62 -25t22 -63q0 -45 -34.5 -89t-101.5 -101q-5 -5 -5 -8q0 -4 8 -4h89
q46 101 69.5 147.5t41 69.5t34.5 23q12 0 12 -11q0 -9 -6.5 -27t-15.5 -39q-22 -52 -37 -97q-11 -34 -17 -62q38 5 46 11q9 7 16 7z" />
    <glyph glyph-name="questiondown" unicode="&#xbf;" horiz-adv-x="411" 
d="M348.5 532.5q24.5 -24.5 24.5 -59.5q0 -34 -24.5 -59t-59.5 -25q-34 0 -59 25t-25 59q0 35 25 59.5t59 24.5q35 0 59.5 -24.5zM239 319q11 7 25 7q16 0 27 -10t10 -29q-3 -48 -28 -78.5t-70 -64.5q-39 -30 -57 -51.5t-18 -52.5q0 -30 17.5 -49.5t50.5 -19.5q36 0 62.5 22
t38.5 58q6 17 16 25.5t22 8.5q15 0 26 -13t11 -38q0 -16 -4 -33q-21 -89 -82 -144.5t-149 -55.5q-81 0 -129.5 46t-48.5 126q0 53 21 90t52 60.5t79 51.5q40 24 61.5 39.5t37 37t17.5 50.5q1 10 12 17z" />
    <glyph glyph-name="multiply" unicode="&#xd7;" horiz-adv-x="351" 
d="M391 463q0 -40 -85 -121q24 -34 35 -56.5t11 -38.5q0 -24 -27 -44q-22 -16 -38 -16q-18 0 -37.5 15.5t-47.5 49.5q-40 -32 -72 -53.5t-38 -22.5q-22 -4 -37 14.5t-15 43.5q0 13 6 25q5 8 29.5 32t57.5 53q-18 27 -27 46t-9 34q0 24 26 44q16 12 24.5 17t17.5 5
q14 0 31 -14t44 -48q86 60 124 60q16 0 23 -10q4 -5 4 -15z" />
    <glyph glyph-name="divide" unicode="&#xf7;" horiz-adv-x="364" 
d="M221.5 450.5q-16.5 16.5 -16.5 38.5q0 23 16.5 39t38.5 16q23 0 39 -16t16 -39q0 -22 -16 -38.5t-39 -16.5q-22 0 -38.5 16.5zM80 270q-40 9 -40 35q0 8 3 17q9 28 23.5 39.5t54 16.5t129.5 5q87 0 120.5 -8.5t33.5 -31.5q0 -10 -4 -21q-9 -26 -29 -38.5t-56.5 -17.5
t-102.5 -5q-92 0 -132 9zM131.5 108.5q-16.5 16.5 -16.5 38.5q0 23 16.5 39t38.5 16q23 0 39 -16t16 -39q0 -22 -16 -38.5t-39 -16.5q-22 0 -38.5 16.5z" />
    <glyph glyph-name="dotlessi" unicode="&#x131;" horiz-adv-x="246" 
d="M20 34q-22 34 -22 91q0 69 25 149q37 116 70 171t74 55q34 0 34 -45q0 -21 -6 -43t-18 -53q-2 -5 -8 -24t-9.5 -34t-3.5 -27q0 -24 12 -37t33 -13t36.5 12.5t32.5 37.5q6 9 16 9q13 0 23.5 -11.5t5.5 -21.5q-9 -15 -21 -42q-28 -58 -53 -100t-64 -75t-87 -33t-70 34z" />
    <glyph glyph-name="florin" unicode="&#x192;" horiz-adv-x="293" 
d="M-280.5 -225q-43.5 36 -43.5 100q0 45 14 76.5t31 45t18 3.5q3 -29 25 -46.5t59 -17.5q55 0 86 29t52.5 89.5t61.5 207.5l45 161h-14q-30 0 -43.5 9.5t-13.5 24.5t11 28.5t21 13.5h67q47 140 109 203t146 63q49 0 72.5 -24.5t23.5 -63.5q0 -29 -12 -57.5t-31.5 -47
t-40.5 -18.5t-21 15q0 48 -37 48q-57 0 -93 -118h102q7 0 11 -7.5t4 -20.5q0 -23 -11.5 -43.5t-28.5 -20.5l-99 9q-21 -98 -30 -174q-31 -251 -111.5 -377t-206.5 -126q-79 0 -122.5 36z" />
    <glyph glyph-name="circumflex" unicode="&#x2c6;" horiz-adv-x="354" 
d="M85.5 594.5q-6.5 10.5 -5.5 19.5q0 10 29.5 31.5t65 39.5t53.5 18q15 0 42.5 -18t50.5 -40t23 -31q0 -10 -5.5 -20t-14.5 -10q-10 0 -51 15t-60 27q-7 -3 -34.5 -15.5t-47 -19.5t-27.5 -7q-12 0 -18.5 10.5z" />
    <glyph glyph-name="caron" unicode="&#x2c7;" horiz-adv-x="354" 
d="M153.5 602q-27.5 18 -50.5 40t-23 31q0 10 5.5 20t14.5 10q10 0 51 -15t60 -27q7 3 34.5 15.5t47 19.5t27.5 7q11 0 17.5 -10t6.5 -20t-29.5 -31.5t-65 -39.5t-53.5 -18q-15 0 -42.5 18z" />
    <glyph glyph-name="breve" unicode="&#x2d8;" horiz-adv-x="363" 
d="M132 592.5q-27 13.5 -39.5 33.5t-12.5 40q0 16 7.5 26.5t20.5 10.5q11 0 16 -4.5t12 -15.5q8 -15 21 -23.5t41 -8.5q46 0 63.5 8.5t29.5 24.5q8 10 15 14.5t22 4.5q12 0 18.5 -8t6.5 -21q0 -20 -16.5 -42t-51 -37.5t-85.5 -15.5q-41 0 -68 13.5z" />
    <glyph glyph-name="dotaccent" unicode="&#x2d9;" horiz-adv-x="247" 
d="M100.5 577q-20.5 14 -20.5 46q0 77 84 77q73 0 73 -58q0 -79 -83 -79q-33 0 -53.5 14z" />
    <glyph glyph-name="ring" unicode="&#x2da;" horiz-adv-x="305" 
d="M80 641q0 72 105 72q62 0 86 -21t24 -51q0 -73 -110 -73q-105 0 -105 73zM233.5 618q21.5 6 21.5 23q0 16 -21.5 22t-48.5 6q-66 0 -66 -28q0 -29 66 -29q27 0 48.5 6z" />
    <glyph glyph-name="ogonek" unicode="&#x2db;" horiz-adv-x="281" 
d="M197 -190q-60 0 -88.5 31.5t-28.5 75.5q0 41 27.5 78.5t77.5 53.5l15 -24q-31 -23 -31 -50q0 -24 18 -38.5t61 -10.5q11 1 17 -9.5t6 -27.5q0 -28 -13.5 -51.5t-37.5 -26.5q-8 -1 -23 -1z" />
    <glyph glyph-name="tilde" unicode="&#x2dc;" horiz-adv-x="372" 
d="M224 588.5q-15 5.5 -33 15.5q-28 15 -43 15q-13 0 -21 -5t-17 -15t-16 -10q-14 0 -14 19q0 18 12 42t33 41t46 17q17 0 35.5 -6.5t44.5 -17.5q4 -2 21.5 -9t27.5 -7q9 0 14.5 4.5t12.5 13.5q11 17 24 17q11 0 11 -16q0 -18 -13.5 -43t-37 -43t-53.5 -18q-19 0 -34 5.5z
" />
    <glyph glyph-name="hungarumlaut" unicode="&#x2dd;" horiz-adv-x="454" 
d="M86 558.5q-6 8.5 -6 17.5q0 10 25.5 42t56 59t45.5 27q17 0 38.5 -22t21.5 -37q0 -11 -35 -33.5t-76.5 -42t-52.5 -19.5t-17 8.5zM263 558.5q-6 8.5 -6 17.5q0 10 25.5 42t55.5 59t46 27t37 -21t23 -37q1 -11 -34 -33.5t-77.5 -42.5t-52.5 -20q-11 0 -17 8.5z" />
    <glyph glyph-name="uni03BC" unicode="&#x3bc;" 
d="M539 283q14 0 24.5 -12t4.5 -22l-19 -37q-28 -58 -54.5 -101t-68 -77t-93.5 -34q-86 0 -86 109q0 19 3 41q-30 -65 -69 -107t-92 -42q-16 0 -33 5q5 -34 14 -77q2 -8 2 -23q0 -29 -14.5 -53.5t-37.5 -39t-47 -14.5q-26 0 -43.5 17.5t-17.5 54.5q0 19 4 38q8 33 35 118
q42 134 61 206l11 41q36 113 71.5 169.5t76.5 56.5q31 0 31 -40q0 -22 -5.5 -43t-17.5 -57q-12 -34 -17 -53t-5 -38q0 -23 9 -34t33 -11q60 0 84 70l1 4q32 102 64 152t69 50q31 0 31 -40q0 -19 -5.5 -39.5t-17.5 -56.5q-11 -31 -16.5 -50.5t-5.5 -35.5q0 -27 14.5 -41
t36.5 -14q21 0 36.5 13t32.5 38q6 9 16 9z" />
    <glyph glyph-name="endash" unicode="&#x2013;" horiz-adv-x="533" 
d="M113.5 255q-49.5 3 -72.5 12t-23 26q0 8 3 15q10 26 27.5 36.5t70.5 15t176 4.5q87 0 133.5 -3.5t65.5 -11.5t19 -23q0 -9 -4 -18q-9 -24 -32.5 -35.5t-73 -16t-148.5 -4.5q-92 0 -141.5 3z" />
    <glyph glyph-name="emdash" unicode="&#x2014;" horiz-adv-x="695" 
d="M129 255q-70 3 -99.5 12t-29.5 27q0 7 3 14q10 26 32 36.5t95.5 15t246.5 4.5q133 0 199.5 -3.5t92.5 -11.5t26 -25q0 -4 -4 -16q-9 -25 -37 -36.5t-98 -15.5t-219 -4q-138 0 -208 3z" />
    <glyph glyph-name="quoteleft" unicode="&#x2018;" horiz-adv-x="318" 
d="M289.5 736q18.5 -14 18.5 -39q0 -19 -11.5 -32t-28.5 -10q-10 2 -28 2q-26 0 -45 -8t-29 -19t-10 -20q0 -5 3 -8q4 -3 8.5 0.5t10.5 6.5t17 3q25 0 46 -21t21 -53q0 -34 -24.5 -59t-59.5 -25q-36 0 -60 28t-24 77q0 53 21.5 96.5t56 69t72.5 25.5q27 0 45.5 -14z" />
    <glyph glyph-name="quoteright" unicode="&#x2019;" horiz-adv-x="318" 
d="M112.5 468q-18.5 14 -18.5 39q0 19 11.5 32t28.5 10q10 -2 28 -2q26 0 45 8t29 19t10 20q0 5 -3 8q-4 3 -8.5 -0.5t-10.5 -6.5t-17 -3q-25 0 -46 21t-21 53q0 35 25 59.5t59 24.5q36 0 60 -28t24 -77q0 -53 -21.5 -96.5t-56 -69t-72.5 -25.5q-27 0 -45.5 14z" />
    <glyph glyph-name="quotesinglbase" unicode="&#x201a;" horiz-adv-x="238" 
d="M2.5 -124q-18.5 14 -18.5 39q0 19 11.5 32t28.5 10q10 -2 28 -2q26 0 45 8t29 19t10 20q0 5 -3 8q-4 3 -8.5 -0.5t-10.5 -6.5t-17 -3q-25 0 -46 21t-21 53q0 35 25 59.5t59 24.5q36 0 60 -28t24 -77q0 -53 -21.5 -96.5t-56 -69t-72.5 -25.5q-27 0 -45.5 14z" />
    <glyph glyph-name="quotedblleft" unicode="&#x201c;" horiz-adv-x="545" 
d="M289.5 736q18.5 -14 18.5 -39q0 -19 -11.5 -32t-28.5 -10q-10 2 -28 2q-26 0 -45 -8t-29 -19t-10 -20q0 -5 3 -8q4 -3 8.5 0.5t10.5 6.5t17 3q25 0 46 -21t21 -53q0 -34 -24.5 -59t-59.5 -25q-36 0 -60 28t-24 77q0 53 21.5 96.5t56 69t72.5 25.5q27 0 45.5 -14z
M516.5 736q18.5 -14 18.5 -39q0 -19 -11.5 -32t-28.5 -10q-10 2 -28 2q-26 0 -45 -8t-29 -19t-10 -20q0 -5 3 -8q4 -3 8.5 0.5t10.5 6.5t17 3q25 0 46 -21t21 -53q0 -34 -24.5 -59t-59.5 -25q-36 0 -60 28t-24 77q0 53 21.5 96.5t56 69t72.5 25.5q27 0 45.5 -14z" />
    <glyph glyph-name="quotedblright" unicode="&#x201d;" horiz-adv-x="545" 
d="M339.5 468q-18.5 14 -18.5 39q0 19 11.5 32t28.5 10q10 -2 28 -2q26 0 45 8t29 19t10 20q0 5 -3 8q-4 3 -8.5 -0.5t-10.5 -6.5t-17 -3q-25 0 -46 21t-21 53q0 35 25 59.5t59 24.5q36 0 60 -28t24 -77q0 -53 -21.5 -96.5t-56 -69t-72.5 -25.5q-27 0 -45.5 14zM112.5 468
q-18.5 14 -18.5 39q0 19 11.5 32t28.5 10q10 -2 28 -2q26 0 45 8t29 19t10 20q0 5 -3 8q-4 3 -8.5 -0.5t-10.5 -6.5t-17 -3q-25 0 -46 21t-21 53q0 35 25 59.5t59 24.5q36 0 60 -28t24 -77q0 -53 -21.5 -96.5t-56 -69t-72.5 -25.5q-27 0 -45.5 14z" />
    <glyph glyph-name="quotedblbase" unicode="&#x201e;" horiz-adv-x="465" 
d="M229.5 -124q-18.5 14 -18.5 39q0 19 11.5 32t28.5 10q10 -2 28 -2q26 0 45 8t29 19t10 20q0 5 -3 8q-4 3 -8.5 -0.5t-10.5 -6.5t-17 -3q-25 0 -46 21t-21 53q0 35 25 59.5t59 24.5q36 0 60 -28t24 -77q0 -53 -21.5 -96.5t-56 -69t-72.5 -25.5q-27 0 -45.5 14zM2.5 -124
q-18.5 14 -18.5 39q0 19 11.5 32t28.5 10q10 -2 28 -2q26 0 45 8t29 19t10 20q0 5 -3 8q-4 3 -8.5 -0.5t-10.5 -6.5t-17 -3q-25 0 -46 21t-21 53q0 35 25 59.5t59 24.5q36 0 60 -28t24 -77q0 -53 -21.5 -96.5t-56 -69t-72.5 -25.5q-27 0 -45.5 14z" />
    <glyph glyph-name="dagger" unicode="&#x2020;" horiz-adv-x="480" 
d="M518 492q6 -8 6 -21q0 -24 -15.5 -49t-36.5 -25q-57 0 -95 2.5t-76 12.5l-179 -570q-13 -42 -49 -42q-21 0 -21 23q0 6 4 22l181 576q-40 -16 -80.5 -20t-101.5 -4q-8 0 -12 9t-4 23q0 25 10 48t24 23q61 0 101.5 -3t81.5 -16l57 180q6 18 18 27t25 9q11 0 18.5 -6.5
t7.5 -18.5q0 -3 -2 -11l-56 -179q39 12 78.5 15t98.5 3q11 0 17 -8z" />
    <glyph glyph-name="daggerdbl" unicode="&#x2021;" horiz-adv-x="570" 
d="M588 492q6 -8 6 -21q0 -24 -15.5 -49t-36.5 -25q-57 0 -95 2.5t-75 12.5l-104 -333q43 16 85.5 20t107.5 4q11 0 17 -8t6 -21q0 -24 -15.5 -49t-36.5 -25q-61 0 -102 3t-82 15l-55 -176q-13 -42 -49 -42q-21 0 -21 23q0 6 4 22l54 173q-37 -12 -74 -15t-92 -3q-8 0 -12 9
t-4 23q0 25 10 48t24 23q57 0 94.5 -2.5t75.5 -12.5l105 333q-41 -16 -81.5 -20t-101.5 -4q-8 0 -12 9t-4 23q0 25 10 48t24 23q61 0 102 -3t82 -16l56 180q6 18 18 27t25 9q11 0 18.5 -6.5t7.5 -18.5q0 -3 -2 -11l-56 -179q39 12 78.5 15t98.5 3q11 0 17 -8z" />
    <glyph glyph-name="bullet" unicode="&#x2022;" horiz-adv-x="372" 
d="M153 270q-29 17 -46 46t-17 63t17 63t46 46t63 17t63 -17t46 -46t17 -63t-17 -63t-46 -46t-63 -17t-63 17z" />
    <glyph glyph-name="ellipsis" unicode="&#x2026;" horiz-adv-x="688" 
d="M505 15q-25 25 -25 59q0 35 25 59.5t59 24.5q35 0 59.5 -24.5t24.5 -59.5q0 -34 -24.5 -59t-59.5 -25q-34 0 -59 25zM281 15q-25 25 -25 59q0 35 25 59.5t59 24.5q35 0 59.5 -24.5t24.5 -59.5q0 -34 -24.5 -59t-59.5 -25q-34 0 -59 25zM55 15q-25 25 -25 59q0 35 25 59.5
t59 24.5q35 0 59.5 -24.5t24.5 -59.5q0 -34 -24.5 -59t-59.5 -25q-34 0 -59 25z" />
    <glyph glyph-name="perthousand" unicode="&#x2030;" horiz-adv-x="928" 
d="M122.5 399.5q-22.5 34.5 -22.5 90.5t23 116t64.5 100t93.5 40q43 0 64.5 -33.5t21.5 -87.5q0 -55 -23.5 -116.5t-64.5 -102.5t-89 -41q-45 0 -67.5 34.5zM33 21q0 76 614 710l17 -13q-55 -69 -102 -129.5t-89 -113.5q-144 -185 -218.5 -277.5t-126 -145t-74.5 -52.5
q-21 0 -21 21zM276 514q24 29 24 69q0 28 -13 43.5t-36 15.5q-35 0 -58.5 -31t-23.5 -69q0 -25 14.5 -41t36.5 -16q32 0 56 29zM367.5 33.5q-22.5 34.5 -22.5 90.5t23 116t64.5 100t93.5 40q43 0 64.5 -33.5t21.5 -87.5q0 -55 -23.5 -116.5t-64.5 -102.5t-89 -41
q-45 0 -67.5 34.5zM647.5 33.5q-22.5 34.5 -22.5 90.5t23 116t64.5 100t93.5 40q43 0 64.5 -33.5t21.5 -87.5q0 -55 -23.5 -116.5t-64.5 -102.5t-89 -41q-45 0 -67.5 34.5zM521 147.5q24 28.5 24 67.5q0 30 -13 45.5t-36 15.5q-35 0 -58.5 -30.5t-23.5 -66.5q0 -27 14 -43.5
t37 -16.5q32 0 56 28.5zM801 147.5q24 28.5 24 67.5q0 30 -13 45.5t-36 15.5q-35 0 -58.5 -30.5t-23.5 -66.5q0 -27 14 -43.5t37 -16.5q32 0 56 28.5z" />
    <glyph glyph-name="guilsinglleft" unicode="&#x2039;" horiz-adv-x="450" 
d="M226 234l131 -226q3 -6 -9 -8.5t-31 -2.5q-35 0 -41 7l-178 201q-10 10 -10 26q0 13 8 26.5t23 24.5l231 200q11 8 30.5 12.5t39.5 4.5q21 0 32 -4.5t4 -12.5z" />
    <glyph glyph-name="guilsinglright" unicode="&#x203a;" horiz-adv-x="440" 
d="M251 262l-131 226q-3 6 9 8.5t31 2.5q35 0 41 -7l178 -201q10 -10 10 -26q0 -13 -8 -26.5t-23 -24.5l-231 -200q-11 -8 -30.5 -12.5t-39.5 -4.5q-21 0 -32 4.5t-4 12.5z" />
    <glyph glyph-name="fraction" unicode="&#x2044;" horiz-adv-x="350" 
d="M-11 -52.5q-4 6.5 -1 16.5q10 45 184 296t350 482l19 -13l-153 -239q-194 -306 -279.5 -431t-105.5 -120q-10 2 -14 8.5z" />
    <glyph glyph-name="Euro" unicode="&#x20ac;" horiz-adv-x="520" 
d="M423 466q-12 8 -12 20q0 7 5 17q6 11 6 22q0 18 -13 30.5t-35 12.5q-53 0 -94.5 -42.5t-57.5 -107.5h288v-32h-294q-2 -22 -2 -33q0 -12 1 -18h225v-32h-221q13 -57 53.5 -90.5t106.5 -33.5q29 0 68 17q8 3 14 3q18 0 30 -18t12 -43q0 -27 -18 -50q-83 -100 -204 -100
q-112 0 -180 71.5t-68 215.5q0 19 1 28h-55v32h58q3 26 9 51h-67v32h76q27 89 83 160.5t131 113t155 41.5t121.5 -38.5t41.5 -104.5q0 -36 -21 -66.5t-51.5 -48t-58.5 -17.5q-21 0 -33 8z" />
    <glyph glyph-name="trademark" unicode="&#x2122;" horiz-adv-x="710" 
d="M58 468l1 16q1 11 42 108l26 62h-71q-7 0 -11.5 13.5t-4.5 31.5q0 22 7 38.5t20 16.5h265q5 0 8.5 -11.5t3.5 -26.5q0 -25 -10.5 -43.5t-31.5 -18.5h-70l-14 -34q-46 -115 -50 -124t-11.5 -30.5t-20.5 -33t-35 -11.5q-43 0 -43 47zM287 460q0 12 2 24q2 10 33.5 90
t39.5 99l21 51q5 13 17.5 21.5t26.5 8.5h61q20 0 27.5 -16t7.5 -43l-1 -32q-1 -8 -1 -22q0 -18 6 -18q7 0 14 10.5t19 33.5q22 41 41 64t47 23h55q24 0 38 -20q9 -12 9 -27q0 -7 -3 -15q-55 -166 -69 -196q-15 -34 -29.5 -54.5t-36.5 -20.5q-39 0 -39 40q0 8 3 23
q3 16 18 55q14 30 14 42q0 9 -8 9q-9 0 -21.5 -16t-30.5 -46q-30 -45 -47.5 -66.5t-34.5 -21.5q-28 0 -28 42q0 18 6 54q5 25 5 39q0 15 -8 15q-10 0 -16.5 -10.5t-16.5 -40.5q-7 -22 -16 -43q-30 -75 -67 -75q-38 0 -38 39z" />
    <glyph glyph-name="minus" unicode="&#x2212;" horiz-adv-x="364" 
d="M80 270q-40 9 -40 35q0 8 3 17q9 28 23.5 39.5t54 16.5t129.5 5q87 0 120.5 -8.5t33.5 -31.5q0 -10 -4 -21q-9 -26 -29 -38.5t-56.5 -17.5t-102.5 -5q-92 0 -132 9z" />
    <glyph glyph-name="approxequal" unicode="&#x2248;" horiz-adv-x="420" 
d="M305.5 341q-19.5 7 -50.5 22q-20 11 -34.5 16.5t-28.5 5.5q-19 0 -30 -7t-23 -20q-6 -6 -12 -10.5t-12 -4.5q-20 0 -20 27q0 25 17.5 60t48 60t65.5 25q24 0 49.5 -8.5t67.5 -26.5q20 -9 39 -16t30 -7q13 0 21 6.5t18 19.5t17.5 18.5t18.5 5.5q16 0 16 -23
q0 -26 -19.5 -62t-54.5 -62t-78 -26q-26 0 -45.5 7zM225.5 132q-19.5 7 -50.5 22q-20 11 -34.5 16.5t-28.5 5.5q-19 0 -30 -7t-23 -20q-6 -6 -12 -10.5t-12 -4.5q-20 0 -20 27q0 25 17.5 60t48 60t65.5 25q24 0 49.5 -8.5t67.5 -26.5q20 -9 39 -16t30 -7q13 0 21 6.5
t18 19.5q11 13 18 18.5t18 5.5q16 0 16 -23q0 -26 -19.5 -62t-54.5 -62t-78 -26q-26 0 -45.5 7z" />
    <glyph glyph-name="notequal" unicode="&#x2260;" horiz-adv-x="441" 
d="M465.5 468.5q15.5 -8.5 15.5 -24.5q0 -10 -4 -21q-12 -33 -43.5 -46t-103.5 -15l-55 -77q72 -2 100.5 -10.5t28.5 -29.5q0 -10 -4 -21q-9 -26 -29 -38.5t-56.5 -17.5t-102.5 -5h-25q-55 -75 -87.5 -110.5t-47.5 -34.5h-3q-18 0 -18 21q0 24 79 128q-35 4 -52.5 13.5
t-17.5 27.5q0 7 3 16q8 25 20.5 37t43.5 17.5t98 6.5l65 77q-81 1 -117 10t-36 34q0 8 3 17q9 28 23.5 39.5t54 16.5t129.5 5q34 0 48 -1l74 84l21 -8l-56 -78q36 -4 51.5 -12.5z" />
    <glyph glyph-name="lessequal" unicode="&#x2264;" horiz-adv-x="520" 
d="M327 230.5q-86 35.5 -157.5 76.5t-71.5 64q0 31 91.5 75.5t202 81.5t132.5 37q14 0 19.5 -6.5t9.5 -20.5q1 -3 1 -9q0 -32 -53.5 -62.5t-164.5 -76.5l-54 -23q104 -43 154 -71.5t50 -55.5q0 -10 -7 -18q-11 -14 -20 -20.5t-23 -6.5q-23 0 -109 35.5zM74.5 38
q-43.5 9 -43.5 36q0 7 3 16q9 28 24.5 39.5t59 16.5t142.5 5q73 0 113.5 -3.5t57.5 -12.5t17 -25q0 -11 -4 -20q-9 -26 -30.5 -39t-65 -17.5t-126.5 -4.5q-104 0 -147.5 9z" />
    <glyph glyph-name="greaterequal" unicode="&#x2265;" 
d="M75.5 201.5q-5.5 6.5 -9.5 20.5q-1 3 -1 9q0 32 53.5 62.5t164.5 76.5l54 23q-104 43 -154 71.5t-50 55.5q0 10 7 18q11 14 20 20.5t23 6.5q23 0 109 -35.5t157.5 -76.5t71.5 -64q0 -31 -91.5 -75.5t-202 -81.5t-132.5 -37q-14 0 -19.5 6.5zM74.5 38q-43.5 9 -43.5 36
q0 7 3 16q9 28 24.5 39.5t59 16.5t142.5 5q73 0 113.5 -3.5t57.5 -12.5t17 -25q0 -11 -4 -20q-9 -26 -30.5 -39t-65 -17.5t-126.5 -4.5q-104 0 -147.5 9z" />
    <glyph glyph-name="F_i" horiz-adv-x="896" 
d="M52 422.5q-33 40.5 -33 98.5q0 72 48 132t140.5 95.5t219.5 35.5q59 0 104 -3t109 -10q38 -4 78 -7t78 -3q53 0 99 8q8 1 16.5 2t16.5 1q22 0 30.5 -20t8.5 -63q0 -39 -18.5 -73t-54.5 -54.5t-85 -20.5q-51 0 -89 12.5t-92 38.5q-61 29 -108 43.5t-114 14.5
q-73 0 -121 -23t-48 -68q0 -20 11 -33.5t27 -13.5q4 -12 4 -19q0 -24 -17 -50t-47.5 -43.5t-70.5 -17.5q-59 0 -92 40.5zM658.5 404.5q10.5 -9.5 10.5 -27.5t-11 -37t-34 -32t-56 -13q-44 0 -86 5q-14 -41 -30 -77q-56 -134 -134 -199.5t-174 -65.5q-66 0 -109.5 24t-64 62
t-20.5 82q0 41 17 79t47 61t69 23q6 0 10.5 -3.5t4.5 -8.5q0 -33 26 -53.5t69 -20.5t89.5 29.5t80.5 87.5q-20 2 -28 2q-17 0 -25.5 10t-8.5 27q0 23 15 37t44 14h42q7 17 31 82q5 12 9.5 25.5t10.5 28.5q18 48 65 48q50 0 50 -34q0 -6 -4 -20l-42 -128l98 2q28 0 38.5 -9.5
zM934 283q13 0 23.5 -11.5t5.5 -21.5q-9 -15 -21 -42q-28 -58 -53 -100t-64 -75t-87 -33t-70 34t-22 91q0 69 25 149q37 116 70 171t74 55q34 0 34 -45q0 -21 -6 -43t-18 -53q-2 -5 -8 -24t-9.5 -34t-3.5 -27q0 -24 12 -37t33 -13t36.5 12.5t32.5 37.5q6 9 16 9z" />
    <glyph glyph-name="K_i" horiz-adv-x="1067" 
d="M1107 283q13 0 23.5 -11.5t5.5 -21.5q-9 -15 -21 -42q-28 -58 -53 -100t-64 -75t-87 -33q-46 0 -68 32.5t-24 86.5q-39 -55 -84.5 -87t-96.5 -32q-64 0 -85.5 44.5t-21.5 117.5l1 48q1 14 1 38q0 27 -4.5 41t-15.5 14t-18.5 -7.5t-15.5 -31.5q-54 -161 -131 -233.5
t-189 -72.5q-100 0 -154.5 51.5t-54.5 132.5q0 40 15.5 76t43.5 58.5t64 22.5q6 0 10.5 -3.5t4.5 -8.5q0 -37 31.5 -60.5t77.5 -23.5q54 0 109.5 43t87.5 128q23 59 55 137l30 73q-24 6 -46 6q-40 0 -70 -18.5t-45.5 -48t-15.5 -60.5q0 -22 11 -36.5t27 -14.5q4 -12 4 -19
q0 -24 -17 -50t-47.5 -43.5t-70.5 -17.5q-59 0 -92 38t-33 92q0 90 45.5 166t128 121t187.5 45q155 0 155 -99q0 -35 -16 -76l-20 -60q-15 -43 -16 -45l-1 -3q-3 -10 -3 -19q0 -22 18 -22q23 0 48 38t57 114q26 58 73.5 99t103.5 61.5t109 20.5q63 0 103 -28t40 -79
q0 -28 -16 -54t-48 -41.5t-77 -13.5q-11 1 -31 1q-69 0 -113.5 -17t-67.5 -40t-48 -59q-15 -23 -24.5 -34.5t-22.5 -18.5q-10 -6 -10 -15q0 -4 4 -8q15 -12 23.5 -29t16.5 -43q11 -34 23.5 -50.5t42.5 -16.5q31 0 52 16.5t44 50.5q37 116 70 171t74 55q34 0 34 -45
q0 -21 -6 -43t-18 -53q-2 -5 -8 -24t-9.5 -34t-3.5 -27q0 -24 12 -37t33 -13t36.5 12.5t32.5 37.5q6 9 16 9z" />
    <glyph glyph-name="T_h" horiz-adv-x="1025" 
d="M514 103q0 74 34 171q80 229 120 328q-5 -1 -15 -1q-19 0 -35 4t-42 12q-33 11 -58.5 17t-61.5 6q-57 0 -100 -16.5t-66 -44.5t-23 -60q0 -20 11 -33.5t27 -13.5q4 -12 4 -19q0 -24 -17 -50t-47.5 -43.5t-70.5 -17.5q-59 0 -92 40.5t-33 98.5q0 74 47 141.5t141.5 109.5
t230.5 42q54 0 120 -12q47 -9 76 -9q44 0 80 8q7 1 13.5 2t13.5 1q35 0 49.5 -10t14.5 -31q0 -30 -13 -60t-40 -77q-21 -37 -34.5 -64t-20.5 -56q-4 -18 -4 -22q0 -7 2.5 -10.5t6.5 -3.5q9 0 22 13q59 57 121 57q44 0 67 -26t23 -66q0 -18 -4 -32.5t-12 -37.5
q-8 -20 -12 -34t-4 -31q0 -26 11 -38t35 -12q21 0 36.5 12.5t32.5 38.5q6 9 16 9q14 0 24.5 -12t4.5 -22l-19 -37q-28 -58 -54.5 -101t-68 -77t-93.5 -34q-46 0 -67 29t-21 75q0 29 7.5 55.5t21.5 63.5q18 47 18 65q0 17 -10 26t-28 9q-28 0 -53 -24.5t-40 -64t-15 -83.5
v-45q0 -106 -79 -106q-78 0 -78 103zM34.5 -18q-43.5 24 -64 62t-20.5 82q0 41 17 79t47 61t69 23q6 0 10.5 -3.5t4.5 -8.5q0 -33 26 -53.5t69 -20.5q52 0 107.5 43t88.5 128l11 28q7 19 20 53.5t22 57.5q18 48 65 48q50 0 50 -34q0 -6 -4 -20q-59 -185 -101 -284
q-56 -134 -134 -199.5t-174 -65.5q-66 0 -109.5 24z" />
    <glyph glyph-name="t_t" horiz-adv-x="527" 
d="M419 338q-7 -24 -7 -45q0 -32 15.5 -50.5t40.5 -18.5q26 0 45 12.5t37 37.5q5 8 16 8q13 0 23.5 -11.5t5.5 -21.5q-4 -7 -7 -14t-7 -15q-41 -91 -91.5 -155.5t-125.5 -64.5q-49 0 -76 28t-32 77q-69 -105 -155 -105q-55 0 -82 34.5t-27 92.5q0 55 22 117l27 76
q13 33 37 102q13 37 62 155q-95 21 -162 21q-55 0 -80.5 -13t-25.5 -32q0 -15 -12 -25.5t-41 -10.5q-38 0 -65 28t-27 77q0 63 54.5 102.5t166.5 39.5q70 0 129 -14t121 -39l5 12q17 40 33.5 53.5t37.5 13.5q36 0 36 -35q0 -25 -17 -59l-10 -22q81 -35 141 -49l27 61
q17 40 33.5 53.5t37.5 13.5q36 0 36 -35q0 -25 -17 -59l-21 -49q14 -1 42 -1q52 0 91 9.5t60 24.5t21 30q0 14 8.5 21t22.5 7q23 0 43.5 -19t20.5 -51q0 -36 -27.5 -65t-85 -47t-143.5 -18q-45 0 -95 5q-37 -97 -59 -168zM379 520q-46 8 -111 25l-34 8q-52 -133 -78 -215
q-7 -24 -7 -45q0 -32 15.5 -50.5t40.5 -18.5q26 0 46 12.5t36 37.5l1 1q9 27 21 57l32 90q14 40 38 98z" />
    </font>
</defs>
</svg>
